999
DXF file: O:\ORAC_PRODUCTEN\ORAC_LIJN6\C-Type\C362\c362-prod-inches.dxf
999
Pro/ENGINEER 2016130 by Parametric Technology Corporation
  0
SECTION
  2
HEADER
  9
$ACADVER
  1
AC1024
  9
$DWGCODEPAGE
  3
ANSI_1250
  9
$EXTMAX
 10
297.0
 20
210.0
 30
0.0
  9
$EXTMIN
 10
0.0
 20
0.0
 30
0.0
  9
$LIMMIN
 10
0.0
 20
0.0
  9
$LIMMAX
 10
297.0
 20
210.0
  9
$VIEWCTR
 10
148.5
 20
105.0
  9
$VIEWSIZE
 40
210.0
  9
$CLAYER
  8
0
  9
$LTSCALE
 40
16.335
  9
$CELTYPE
  6
BYLAYER
  9
$DIMSCALE
 40
1.0
  9
$DIMASZ
 40
3.5
  9
$DIMEXO
 40
1.0
  9
$DIMDLI
 40
11.286
  9
$DIMEXE
 40
1.5
  9
$DIMCEN
 40
2.673
  9
$DIMLFAC
 40
1.0
  9
$DIMBLK
  1
_FILLED
  9
$DIMALT
 70
0
  9
$DIMALTF
 40
0.0393700787
  9
$DIMTXT
 40
2.5
  9
$DIMTOL
 70
1
  9
$DIMLIM
 70
0
  9
$DIMTFAC
 40
1.0
  9
$DIMTP
 40
0.001
  9
$DIMTM
 40
0.001
  9
$DIMGAP
 40
0.625
  9
$DIMDSEP
 70
44
  9
$AUNITS
 70
0
  9
$PDMODE
 70
3
  9
$PDSIZE
 40
8.0
  9
$HANDSEED
  5
2E5
  9
$TILEMODE
 70
1
  9
$MEASUREMENT
 70
1
  9
$INSUNITS
 70
4
  0
ENDSEC
  0
SECTION
  2
CLASSES
  0
CLASS
  1
ACDBDICTIONARYWDFLT
  2
AcDbDictionaryWithDefault
  3
AutoCAD 2000
 90
0
 91
1
280
0
281
0
  0
CLASS
  1
ACDBPLACEHOLDER
  2
AcDbPlaceHolder
  3
AutoCAD 2000
 90
0
 91
1
280
0
281
0
  0
CLASS
  1
LAYOUT
  2
AcDbLayout
  3
AutoCAD 2000
 90
0
 91
0
280
0
281
0
  0
CLASS
  1
TABLESTYLE
  2
AcDbTableStyle
  3
ObjectDBX Classes
 90
2047
 91
1
280
0
281
0
  0
CLASS
  1
ACAD_TABLE
  2
AcDbTable
  3
ObjectDBX Classes
 90
1025
 91
1
280
0
281
1
  0
ENDSEC
  0
SECTION
  2
TABLES
  0
TABLE
  2
VPORT
  5
8
100
AcDbSymbolTable
 70
2
  0
VPORT
  5
1F4
100
AcDbSymbolTableRecord
100
AcDbViewportTableRecord
  2
*ACTIVE
 70
0
 10
0.0
 20
0.0
 11
1.0
 21
1.0
 12
148.5
 22
105.0
 13
0.0
 23
0.0
 14
1.0
 24
1.0
 15
0.0
 25
0.0
 16
0.0
 26
0.0
 36
1.0
 17
0.0
 27
0.0
 37
0.0
 40
210.0
 41
1.4142857143
 42
50.0
 43
0.0
 44
0.0
 50
0.0
 51
0.0
 71
0
 72
100
 73
1
 74
1
 75
0
 76
0
 77
0
 78
0
  0
ENDTAB
  0
TABLE
  2
LTYPE
  5
5
100
AcDbSymbolTable
 70
6
  0
LTYPE
  5
14
100
AcDbSymbolTableRecord
100
AcDbLinetypeTableRecord
  2
BYBLOCK
 70
0
  3

 72
65
 73
0
 40
0.0
  0
LTYPE
  5
15
100
AcDbSymbolTableRecord
100
AcDbLinetypeTableRecord
  2
BYLAYER
 70
0
  3

 72
65
 73
0
 40
0.0
  0
LTYPE
  5
16
100
AcDbSymbolTableRecord
100
AcDbLinetypeTableRecord
  2
CONTINUOUS
 70
64
  3
Solid line
 72
65
 73
0
 40
0.0
  0
LTYPE
  5
1F5
100
AcDbSymbolTableRecord
100
AcDbLinetypeTableRecord
  2
CENTER
 70
64
  3
____ _ ____ _ ____ _ ____ _ ____ _ ____ _ ____
 72
65
 73
4
 40
0.6
 49
0.375
 74
0
 49
-0.075
 74
0
 49
0.075
 74
0
 49
-0.075
 74
0
  0
LTYPE
  5
1F6
100
AcDbSymbolTableRecord
100
AcDbLinetypeTableRecord
  2
HIDDEN
 70
64
  3
- - - - - - - - - - - - - - - - - - - -
 72
65
 73
2
 40
0.2
 49
0.1
 74
0
 49
-0.1
 74
0
  0
LTYPE
  5
1F7
100
AcDbSymbolTableRecord
100
AcDbLinetypeTableRecord
  2
PHANTOM
 70
64
  3
_____ _ _ _____ _ _ _____ _ _ _____
 72
65
 73
6
 40
0.8
 49
0.45
 74
0
 49
-0.05
 74
0
 49
0.1
 74
0
 49
-0.05
 74
0
 49
0.1
 74
0
 49
-0.05
 74
0
  0
LTYPE
  5
1F8
100
AcDbSymbolTableRecord
100
AcDbLinetypeTableRecord
  2
DOT
 70
64
  3
. . . . . . . . . . . . . . . . . . . .
 72
65
 73
2
 40
0.2
 49
0.1
 74
0
 49
-0.1
 74
0
  0
LTYPE
  5
1F9
100
AcDbSymbolTableRecord
100
AcDbLinetypeTableRecord
  2
DASHED
 70
64
  3
- - - - - - - - - - - - - - - - - - - -
 72
65
 73
2
 40
0.2
 49
0.1
 74
0
 49
-0.1
 74
0
  0
ENDTAB
  0
TABLE
  2
LAYER
  5
2
100
AcDbSymbolTable
 70
36
  0
LAYER
  5
10
100
AcDbSymbolTableRecord
100
AcDbLayerTableRecord
  2
0
 70
0
 62
7
  6
CONTINUOUS
370
-3
390
F
  0
LAYER
  5
1FA
100
AcDbSymbolTableRecord
100
AcDbLayerTableRecord
  2
DEFAULT_1
 70
0
 62
7
  6
CENTER
370
-3
390
F
  0
LAYER
  5
1FB
100
AcDbSymbolTableRecord
100
AcDbLayerTableRecord
  2
DEFAULT_2
 70
0
 62
8
  6
HIDDEN
370
-3
390
F
  0
LAYER
  5
1FC
100
AcDbSymbolTableRecord
100
AcDbLayerTableRecord
  2
DEFAULT_3
 70
0
 62
7
  6
PHANTOM
370
-3
390
F
  0
LAYER
  5
1FD
100
AcDbSymbolTableRecord
100
AcDbLayerTableRecord
  2
01___PRT_ALL_DTM_PLN
 70
0
 62
7
  6
CONTINUOUS
370
-3
390
F
  0
LAYER
  5
1FE
100
AcDbSymbolTableRecord
100
AcDbLayerTableRecord
  2
01___PRT_DEF_DTM_PLN
 70
0
 62
7
  6
CONTINUOUS
370
-3
390
F
  0
LAYER
  5
1FF
100
AcDbSymbolTableRecord
100
AcDbLayerTableRecord
  2
02___PRT_ALL_AXES
 70
0
 62
7
  6
CONTINUOUS
370
-3
390
F
  0
LAYER
  5
200
100
AcDbSymbolTableRecord
100
AcDbLayerTableRecord
  2
03___PRT_ALL_CURVES
 70
0
 62
7
  6
CONTINUOUS
370
-3
390
F
  0
LAYER
  5
201
100
AcDbSymbolTableRecord
100
AcDbLayerTableRecord
  2
04___PRT_ALL_DTM_PNT
 70
0
 62
7
  6
CONTINUOUS
370
-3
390
F
  0
LAYER
  5
202
100
AcDbSymbolTableRecord
100
AcDbLayerTableRecord
  2
05___PRT_ALL_DTM_CSYS
 70
0
 62
7
  6
CONTINUOUS
370
-3
390
F
  0
LAYER
  5
203
100
AcDbSymbolTableRecord
100
AcDbLayerTableRecord
  2
05___PRT_DEF_DTM_CSYS
 70
0
 62
7
  6
CONTINUOUS
370
-3
390
F
  0
LAYER
  5
204
100
AcDbSymbolTableRecord
100
AcDbLayerTableRecord
  2
06___PRT_ALL_SURFS
 70
0
 62
7
  6
CONTINUOUS
370
-3
390
F
  0
LAYER
  5
205
100
AcDbSymbolTableRecord
100
AcDbLayerTableRecord
  2
AXES
 70
0
 62
7
  6
CONTINUOUS
370
-3
390
F
  0
LAYER
  5
206
100
AcDbSymbolTableRecord
100
AcDbLayerTableRecord
  2
DTM_ALL
 70
0
 62
7
  6
CONTINUOUS
370
-3
390
F
  0
LAYER
  5
207
100
AcDbSymbolTableRecord
100
AcDbLayerTableRecord
  2
DTM_AXIS
 70
0
 62
7
  6
CONTINUOUS
370
-3
390
F
  0
LAYER
  5
208
100
AcDbSymbolTableRecord
100
AcDbLayerTableRecord
  2
DTM_CSYS
 70
0
 62
7
  6
CONTINUOUS
370
-3
390
F
  0
LAYER
  5
209
100
AcDbSymbolTableRecord
100
AcDbLayerTableRecord
  2
DTM_CURVE
 70
0
 62
7
  6
CONTINUOUS
370
-3
390
F
  0
LAYER
  5
20A
100
AcDbSymbolTableRecord
100
AcDbLayerTableRecord
  2
DTM_MASTER
 70
0
 62
7
  6
CONTINUOUS
370
-3
390
F
  0
LAYER
  5
20B
100
AcDbSymbolTableRecord
100
AcDbLayerTableRecord
  2
DTM_POINT
 70
0
 62
7
  6
CONTINUOUS
370
-3
390
F
  0
LAYER
  5
20C
100
AcDbSymbolTableRecord
100
AcDbLayerTableRecord
  2
DTM_QUILT
 70
0
 62
7
  6
CONTINUOUS
370
-3
390
F
  0
LAYER
  5
20D
100
AcDbSymbolTableRecord
100
AcDbLayerTableRecord
  2
GTOL
 70
0
 62
7
  6
CONTINUOUS
370
-3
390
F
  0
LAYER
  5
20E
100
AcDbSymbolTableRecord
100
AcDbLayerTableRecord
  2
NOTES
 70
0
 62
7
  6
CONTINUOUS
370
-3
390
F
  0
LAYER
  5
20F
100
AcDbSymbolTableRecord
100
AcDbLayerTableRecord
  2
REF_PLANS
 70
0
 62
7
  6
CONTINUOUS
370
-3
390
F
  0
LAYER
  5
210
100
AcDbSymbolTableRecord
100
AcDbLayerTableRecord
  2
XSEC_DATUMS
 70
0
 62
7
  6
CONTINUOUS
370
-3
390
F
  0
ENDTAB
  0
TABLE
  2
STYLE
  5
3
100
AcDbSymbolTable
 70
1
  0
STYLE
  5
11
100
AcDbSymbolTableRecord
100
AcDbTextStyleTableRecord
  2
STANDARD
 70
0
 40
0.0
 41
1.0
 50
0.0
 71
0
 42
0.2
  3
cgtime.ttf
  4

  0
STYLE
  5
211
100
AcDbSymbolTableRecord
100
AcDbTextStyleTableRecord
  2
TEXTSTYLE_1
 70
0
 40
0.0
 41
0.8
 50
0.0
 71
0
 42
0.2
  3
gdt
  4

  0
STYLE
  5
212
100
AcDbSymbolTableRecord
100
AcDbTextStyleTableRecord
  2
TEXTSTYLE_2
 70
0
 40
0.0
 41
1.0
 50
0.0
 71
0
 42
0.2
  3
trium.ttf
  4

  0
STYLE
  5
213
100
AcDbSymbolTableRecord
100
AcDbTextStyleTableRecord
  2
TEXTSTYLE_3
 70
0
 40
0.0
 41
1.0
 50
0.0
 71
0
 42
0.2
  3
calibri.ttf
  4

  0
ENDTAB
  0
TABLE
  2
VIEW
  5
6
100
AcDbSymbolTable
 70
0
  0
ENDTAB
  0
TABLE
  2
UCS
  5
7
100
AcDbSymbolTable
 70
0
  0
ENDTAB
  0
TABLE
  2
APPID
  5
9
100
AcDbSymbolTable
 70
1
  0
APPID
  5
214
100
AcDbSymbolTableRecord
100
AcDbRegAppTableRecord
  2
ACAD
 70
0
  0
ENDTAB
  0
TABLE
  2
BLOCK_RECORD
  5
1
100
AcDbSymbolTable
 70
0
  0
BLOCK_RECORD
  5
215
100
AcDbSymbolTableRecord
100
AcDbBlockTableRecord
  2
*Model_Space
  0
BLOCK_RECORD
  5
216
100
AcDbSymbolTableRecord
100
AcDbBlockTableRecord
  2
*Paper_Space
  0
BLOCK_RECORD
  5
217
100
AcDbSymbolTableRecord
100
AcDbBlockTableRecord
  2
_FILLED
  0
BLOCK_RECORD
  5
218
100
AcDbSymbolTableRecord
100
AcDbBlockTableRecord
  2
*D0
  0
BLOCK_RECORD
  5
219
100
AcDbSymbolTableRecord
100
AcDbBlockTableRecord
  2
*D1
  0
BLOCK_RECORD
  5
21A
100
AcDbSymbolTableRecord
100
AcDbBlockTableRecord
  2
*D2
  0
BLOCK_RECORD
  5
21B
100
AcDbSymbolTableRecord
100
AcDbBlockTableRecord
  2
*T1
  0
ENDTAB
  0
TABLE
  2
DIMSTYLE
  5
A
100
AcDbSymbolTable
 70
1
100
AcDbDimStyleTable
 71
0
  0
DIMSTYLE
105
21C
100
AcDbSymbolTableRecord
100
AcDbDimStyleTableRecord
  2
STANDARD
 70
0
  3

  4

 40
1.0
 41
3.5
 42
1.0
 43
0.38
 44
1.5
 45
0.0
 46
0.0
 47
0.001
 48
0.001
140
2.5
141
0.09
142
0.0
143
25.4
144
1.0
145
0.0
146
1.0
147
0.625
 71
1.0
 72
0.0
 73
1
 74
1
 75
0
 76
0
 77
0
 78
8
170
0
171
2
172
0
173
0
174
0
175
0
176
0
177
0
178
0
270
2
271
3
272
3
273
2
274
2
275
0
280
0
281
0
282
0
283
1
284
8
285
0
286
0
287
3
288
0
340
11
278
44
341
217
342
217
343
217
344
217
  0
DIMSTYLE
105
21D
100
AcDbSymbolTableRecord
100
AcDbDimStyleTableRecord
  2
DIMSTYLE_1
 70
0
  3

  4

 40
1.0
 41
3.5
 42
1.0
 43
0.38
 44
1.5
 45
0.0
 46
0.0
 47
0.0
 48
0.0
140
2.5
141
0.09
142
0.0
143
25.4
144
1.0
145
0.0
146
1.0
147
1.25
 71
0.0
 72
0.0
 73
1
 74
1
 75
0
 76
0
 77
0
 78
8
170
0
171
2
172
0
173
0
174
0
175
0
176
0
177
0
178
0
270
2
271
3
272
3
273
2
274
2
275
0
280
0
281
0
282
0
283
1
284
8
285
0
286
0
287
3
288
0
340
11
278
44
341
217
342
217
343
217
344
217
  0
DIMSTYLE
105
21E
100
AcDbSymbolTableRecord
100
AcDbDimStyleTableRecord
  2
DIMSTYLE_2
 70
0
  3

  4

 40
1.0
 41
3.5
 42
1.0
 43
0.38
 44
1.5
 45
0.0
 46
0.0
 47
0.0
 48
0.0
140
2.5
141
0.09
142
0.0
143
25.4
144
1.0
145
0.0
146
1.0
147
1.25
 71
0.0
 72
0.0
 73
1
 74
1
 75
0
 76
0
 77
0
 78
8
170
0
171
2
172
0
173
0
174
0
175
0
176
0
177
0
178
0
270
2
271
0
272
0
273
2
274
2
275
0
280
0
281
0
282
0
283
1
284
8
285
0
286
0
287
3
288
0
340
11
278
44
341
217
342
217
343
217
344
217
  0
ENDTAB
  0
ENDSEC
  0
SECTION
  2
BLOCKS
  0
BLOCK
  5
20
100
AcDbEntity
  8
0
100
AcDbBlockBegin
  2
*Model_Space
 70
0
 10
0.0
 20
0.0
 30
0.0
  3
*Model_Space
  1

  0
ENDBLK
  5
21
100
AcDbEntity
  8
0
100
AcDbBlockEnd
  0
BLOCK
  5
1C
100
AcDbEntity
  8
0
100
AcDbBlockBegin
  2
*Paper_Space
 70
0
 10
0.0
 20
0.0
 30
0.0
  3
*Paper_Space
  1

  0
ENDBLK
  5
1D
100
AcDbEntity
  8
0
100
AcDbBlockEnd
  0
BLOCK
  5
21F
100
AcDbEntity
  8
0
100
AcDbBlockBegin
  2
_FILLED
 70
64
 10
0.0
 20
0.0
  3
_FILLED
  1

  0
SOLID
  5
220
100
AcDbEntity
  8
0
  6
BYBLOCK
 62
0
100
AcDbTrace
 10
0.0
 20
0.0
 11
-1.0
 21
0.2142857143
 12
-1.0
 22
-0.2142857143
 13
-1.0
 23
-0.2142857143
  0
ENDBLK
  5
221
100
AcDbEntity
  8
0
  6
BYBLOCK
 62
0
100
AcDbBlockEnd
  0
BLOCK
  5
222
100
AcDbEntity
  8
0
100
AcDbBlockBegin
 62
2
  6
CONTINUOUS
  2
*D0
 70
65
 10
0.0
 20
0.0
  3
*D0
  1

  0
TEXT
  5
223
100
AcDbEntity
  8
0
100
AcDbText
 62
2
  6
CONTINUOUS
 10
87.2904537634
 20
150.7934930933
  7
STANDARD
 40
2.5
  1
50
 72
5
 11
90.9285860591
 21
150.7934930933
100
AcDbText
  0
TEXT
  5
224
100
AcDbEntity
  8
0
100
AcDbText
 62
2
  6
CONTINUOUS
 10
90.9285860591
 20
150.7934930933
  7
STANDARD
 40
2.5
  1
mm
 72
5
 11
96.5997922848
 21
150.7934930933
100
AcDbText
  0
TEXT
  5
225
100
AcDbEntity
  8
0
100
AcDbText
 62
2
  6
CONTINUOUS
 10
90.1941502614
 20
147.0434930933
  7
STANDARD
 40
2.5
  1
2"
 72
5
 11
93.6960957867
 21
147.0434930933
100
AcDbText
  0
LINE
  5
226
100
AcDbEntity
  8
0
100
AcDbLine
 62
2
  6
CONTINUOUS
 10
66.9451230241
 20
124.1744361041
 11
66.9451230241
 21
153.5434930933
  0
LINE
  5
227
100
AcDbEntity
  8
0
100
AcDbLine
 62
2
  6
CONTINUOUS
 10
116.9451230241
 20
140.6744361041
 11
116.9451230241
 21
153.5434930933
  0
LINE
  5
228
100
AcDbEntity
  8
0
100
AcDbLine
 62
2
  6
CONTINUOUS
 10
66.9451230241
 20
152.0434930933
 11
86.0404537634
 21
152.0434930933
  0
LINE
  5
229
100
AcDbEntity
  8
0
100
AcDbLine
 62
2
  6
CONTINUOUS
 10
116.9451230241
 20
152.0434930933
 11
97.8497922848
 21
152.0434930933
  0
INSERT
  5
22A
100
AcDbEntity
  8
0
100
AcDbBlockReference
 62
2
  6
CONTINUOUS
  2
_FILLED
 10
66.9451230241
 20
152.0434930933
 41
3.5
 42
3.5
 43
3.5
 50
180.0
  0
INSERT
  5
22B
100
AcDbEntity
  8
0
100
AcDbBlockReference
 62
2
  6
CONTINUOUS
  2
_FILLED
 10
116.9451230241
 20
152.0434930933
 41
3.5
 42
3.5
 43
3.5
  0
ENDBLK
  5
22C
100
AcDbEntity
  8
0
  6
BYBLOCK
 62
0
100
AcDbBlockEnd
  0
BLOCK
  5
22D
100
AcDbEntity
  8
0
100
AcDbBlockBegin
 62
2
  6
CONTINUOUS
  2
*D1
 70
65
 10
0.0
 20
0.0
  3
*D1
  1

  0
TEXT
  5
22E
100
AcDbEntity
  8
0
100
AcDbText
 62
2
  6
CONTINUOUS
 10
46.4873363186
 20
113.4244361041
  7
STANDARD
 40
2.5
  1
50
 72
5
 11
50.1254686143
 21
113.4244361041
100
AcDbText
  0
TEXT
  5
22F
100
AcDbEntity
  8
0
100
AcDbText
 62
2
  6
CONTINUOUS
 10
50.1254686143
 20
113.4244361041
  7
STANDARD
 40
2.5
  1
mm
 72
5
 11
55.79667484
 21
113.4244361041
100
AcDbText
  0
TEXT
  5
230
100
AcDbEntity
  8
0
100
AcDbText
 62
2
  6
CONTINUOUS
 10
49.3910328166
 20
109.6744361041
  7
STANDARD
 40
2.5
  1
2"
 72
5
 11
52.8929783419
 21
109.6744361041
100
AcDbText
  0
LINE
  5
231
100
AcDbEntity
  8
0
100
AcDbLine
 62
2
  6
CONTINUOUS
 10
102.9451230241
 20
139.6744361041
 11
49.6420055793
 21
139.6744361041
  0
LINE
  5
232
100
AcDbEntity
  8
0
100
AcDbLine
 62
2
  6
CONTINUOUS
 10
65.9451230241
 20
89.6744361041
 11
49.6420055793
 21
89.6744361041
  0
LINE
  5
233
100
AcDbEntity
  8
0
100
AcDbLine
 62
2
  6
CONTINUOUS
 10
51.1420055793
 20
139.6744361041
 11
51.1420055793
 21
117.1744361041
  0
LINE
  5
234
100
AcDbEntity
  8
0
100
AcDbLine
 62
2
  6
CONTINUOUS
 10
51.1420055793
 20
89.6744361041
 11
51.1420055793
 21
108.4244361041
  0
INSERT
  5
235
100
AcDbEntity
  8
0
100
AcDbBlockReference
 62
2
  6
CONTINUOUS
  2
_FILLED
 10
51.1420055793
 20
139.6744361041
 41
3.5
 42
3.5
 43
3.5
 50
90.0
  0
INSERT
  5
236
100
AcDbEntity
  8
0
100
AcDbBlockReference
 62
2
  6
CONTINUOUS
  2
_FILLED
 10
51.1420055793
 20
89.6744361041
 41
3.5
 42
3.5
 43
3.5
 50
270.0
  0
ENDBLK
  5
237
100
AcDbEntity
  8
0
  6
BYBLOCK
 62
0
100
AcDbBlockEnd
  0
BLOCK
  5
238
100
AcDbEntity
  8
0
100
AcDbBlockBegin
 62
2
  6
CONTINUOUS
  2
*D2
 70
65
 10
0.0
 20
0.0
  3
*D2
  1

  0
TEXT
  5
239
100
AcDbEntity
  8
0
100
AcDbText
 62
2
  6
CONTINUOUS
 10
107.4876075848
 20
93.2272822827
  7
STANDARD
 40
2.5
  1
70
 72
5
 11
111.1257398805
 21
93.2272822827
100
AcDbText
  0
TEXT
  5
23A
100
AcDbEntity
  8
0
100
AcDbText
 62
2
  6
CONTINUOUS
 10
111.1257398805
 20
93.2272822827
  7
STANDARD
 40
2.5
  1
mm
 72
5
 11
116.7969461062
 21
93.2272822827
100
AcDbText
  0
TEXT
  5
23B
100
AcDbEntity
  8
0
100
AcDbText
 62
2
  6
CONTINUOUS
 10
107.3562846276
 20
89.4772822827
  7
STANDARD
 40
2.5
  1
2-3/4"
 72
5
 11
116.9282690634
 21
89.4772822827
100
AcDbText
  0
LINE
  5
23C
100
AcDbEntity
  8
0
100
AcDbLine
 62
2
  6
CONTINUOUS
 10
117.6522298052
 20
138.9673293229
 11
138.2029370173
 21
118.4166221109
  0
LINE
  5
23D
100
AcDbEntity
  8
0
100
AcDbLine
 62
2
  6
CONTINUOUS
 10
67.6522298052
 20
88.9673293229
 11
88.2029370173
 21
68.4166221109
  0
LINE
  5
23E
100
AcDbEntity
  8
0
100
AcDbLine
 62
2
  6
CONTINUOUS
 10
137.1422768455
 20
119.4772822827
 11
114.6422768455
 21
96.9772822827
  0
LINE
  5
23F
100
AcDbEntity
  8
0
100
AcDbLine
 62
2
  6
CONTINUOUS
 10
87.1422768455
 20
69.4772822827
 11
106.1062846276
 21
88.4412900648
  0
INSERT
  5
240
100
AcDbEntity
  8
0
100
AcDbBlockReference
 62
2
  6
CONTINUOUS
  2
_FILLED
 10
137.1422768455
 20
119.4772822827
 41
3.5
 42
3.5
 43
3.5
 50
45.0
  0
INSERT
  5
241
100
AcDbEntity
  8
0
100
AcDbBlockReference
 62
2
  6
CONTINUOUS
  2
_FILLED
 10
87.1422768455
 20
69.4772822827
 41
3.5
 42
3.5
 43
3.5
 50
225.0
  0
ENDBLK
  5
242
100
AcDbEntity
  8
0
  6
BYBLOCK
 62
0
100
AcDbBlockEnd
  0
BLOCK
  5
243
100
AcDbEntity
  8
0
100
AcDbBlockBegin
  2
*T1
 70
1
 10
0.0
 20
0.0
  3
*T1
  1

  0
LINE
  5
244
100
AcDbEntity
  8
0
100
AcDbLine
 62
7
  6
CONTINUOUS
 10
0.0
 20
0.0
 11
148.0
 21
0.0
  0
LINE
  5
245
100
AcDbEntity
  8
0
100
AcDbLine
 62
7
  6
CONTINUOUS
 10
0.0
 20
0.0
 11
0.0
 21
-43.0
  0
LINE
  5
246
100
AcDbEntity
  8
0
100
AcDbLine
 62
7
  6
CONTINUOUS
 10
45.0
 20
-23.0
 11
148.0
 21
-23.0
  0
LINE
  5
247
100
AcDbEntity
  8
0
100
AcDbLine
 62
7
  6
CONTINUOUS
 10
45.0
 20
-28.0
 11
148.0
 21
-28.0
  0
LINE
  5
248
100
AcDbEntity
  8
0
100
AcDbLine
 62
7
  6
CONTINUOUS
 10
0.0
 20
-43.0
 11
148.0
 21
-43.0
  0
LINE
  5
249
100
AcDbEntity
  8
0
100
AcDbLine
 62
7
  6
CONTINUOUS
 10
45.0
 20
0.0
 11
45.0
 21
-43.0
  0
LINE
  5
24A
100
AcDbEntity
  8
0
100
AcDbLine
 62
7
  6
CONTINUOUS
 10
143.0
 20
0.0
 11
143.0
 21
-23.0
  0
LINE
  5
24B
100
AcDbEntity
  8
0
100
AcDbLine
 62
7
  6
CONTINUOUS
 10
148.0
 20
0.0
 11
148.0
 21
-43.0
  0
TEXT
  5
24C
100
AcDbEntity
  8
0
100
AcDbText
 62
7
  6
CONTINUOUS
 10
8.9659749243
 20
-10.675
  7
STANDARD
 40
8.0
  1
O
 72
5
 11
17.370644185
 21
-10.675
100
AcDbText
  0
TEXT
  5
24D
100
AcDbEntity
  8
0
100
AcDbText
 62
7
  6
CONTINUOUS
 10
17.370644185
 20
-10.675
  7
STANDARD
 40
5.5
  1
RAC
 72
5
 11
33.9562472979
 21
-10.675
100
AcDbText
  0
TEXT
  5
24E
100
AcDbEntity
  8
0
100
AcDbText
 62
7
  6
CONTINUOUS
 10
33.9562472979
 20
-5.925
  7
TEXTSTYLE_2
 40
3.0
  1
®
 72
5
 11
36.0340250757
 21
-5.925
100
AcDbText
  0
TEXT
  5
24F
100
AcDbEntity
  8
0
100
AcDbText
 62
7
  6
CONTINUOUS
 10
9.5323389537
 20
-15.325
  7
TEXTSTYLE_2
 40
3.0
  1
D  E  C  O  R
 72
5
 11
34.3878945093
 21
-15.325
100
AcDbText
  0
TEXT
  5
250
100
AcDbEntity
  8
0
100
AcDbText
 62
7
  6
CONTINUOUS
 10
34.3878945093
 20
-15.325
  7
STANDARD
 40
2.5
  1
 
 72
5
 11
35.4676610463
 21
-15.325
100
AcDbText
  0
TEXT
  5
251
100
AcDbEntity
  8
0
100
AcDbText
 62
7
  6
CONTINUOUS
 10
52.5257352941
 20
-6.0
  7
TEXTSTYLE_3
 40
2.75
  1
Part name:
 72
5
 11
71.9375
 21
-6.0
100
AcDbText
  0
TEXT
  5
252
100
AcDbEntity
  8
0
100
AcDbText
 62
7
  6
CONTINUOUS
 10
49.2788865546
 20
-12.875
  7
TEXTSTYLE_3
 40
2.75
  1
Designed by:
 72
5
 11
71.9375
 21
-12.875
100
AcDbText
  0
TEXT
  5
253
100
AcDbEntity
  8
0
100
AcDbText
 62
7
  6
CONTINUOUS
 10
48.9553571429
 20
-19.75
  7
TEXTSTYLE_3
 40
2.75
  1
Designed on:
 72
5
 11
71.9375
 21
-19.75
100
AcDbText
  0
TEXT
  5
254
100
AcDbEntity
  8
0
100
AcDbText
 62
2
  6
CONTINUOUS
 10
74.0625
 20
-6.0
  7
TEXTSTYLE_3
 40
2.75
  1
C362
 72
5
 11
82.9595588235
 21
-6.0
100
AcDbText
  0
TEXT
  5
255
100
AcDbEntity
  8
0
100
AcDbText
 62
2
  6
CONTINUOUS
 10
74.0625
 20
-12.875
  7
TEXTSTYLE_3
 40
2.75
  1
Pierre Daems
 72
5
 11
97.7032563025
 21
-12.875
100
AcDbText
  0
TEXT
  5
256
100
AcDbEntity
  8
0
100
AcDbText
 62
2
  6
CONTINUOUS
 10
74.0625
 20
-19.75
  7
TEXTSTYLE_3
 40
2.75
  1
12-Jul-2011
 72
5
 11
94.5488445378
 21
-19.75
100
AcDbText
  0
TEXT
  5
257
100
AcDbEntity
  8
0
100
AcDbText
 62
2
  6
CONTINUOUS
 10
94.5488445378
 20
-19.75
  7
TEXTSTYLE_3
 40
2.75
  1
 
 72
5
 11
95.530987395
 21
-19.75
100
AcDbText
  0
TEXT
  5
258
100
AcDbEntity
  8
0
100
AcDbText
 62
2
  6
CONTINUOUS
 10
146.5625
 20
-17.5
  7
TEXTSTYLE_3
 40
1.5
  1
Version: 
 50
90.0
 72
5
 11
146.5625
 21
-9.0294117647
100
AcDbText
  0
TEXT
  5
259
100
AcDbEntity
  8
0
100
AcDbText
 62
2
  6
CONTINUOUS
 10
146.5625
 20
-9.0294117647
  7
TEXTSTYLE_3
 40
1.5
  1
1.0
 50
90.0
 72
5
 11
146.5625
 21
-6.0357142857
100
AcDbText
  0
TEXT
  5
25A
100
AcDbEntity
  8
0
100
AcDbText
 62
2
  6
CONTINUOUS
 10
146.5625
 20
-6.0357142857
  7
TEXTSTYLE_3
 40
1.5
  1
 
 50
90.0
 72
5
 11
146.5625
 21
-5.5
100
AcDbText
  0
TEXT
  5
25B
100
AcDbEntity
  8
0
100
AcDbText
 62
7
  6
CONTINUOUS
 10
9.6586134454
 20
-24.25
  7
TEXTSTYLE_3
 40
2.5
  1
Biekorfstraat 32
 72
5
 11
35.3413865546
 21
-24.25
100
AcDbText
  0
TEXT
  5
25C
100
AcDbEntity
  8
0
100
AcDbText
 62
7
  6
CONTINUOUS
 10
2.2584033613
 20
-28.0
  7
TEXTSTYLE_3
 40
2.5
  1
8400 Oostende - Belgium
 72
5
 11
42.7415966387
 21
-28.0
100
AcDbText
  0
TEXT
  5
25D
100
AcDbEntity
  8
0
100
AcDbText
 62
7
  6
CONTINUOUS
 10
4.2699579832
 20
-31.75
  7
TEXTSTYLE_3
 40
2.5
  1
Tel  +32 (0)59 80 32 52
 72
5
 11
40.7300420168
 21
-31.75
100
AcDbText
  0
TEXT
  5
25E
100
AcDbEntity
  8
0
100
AcDbText
 62
7
  6
CONTINUOUS
 10
5.7405462185
 20
-35.5
  7
TEXTSTYLE_3
 40
2.5
  1
www.oracdecor.com
 72
5
 11
39.2594537815
 21
-35.5
100
AcDbText
  0
TEXT
  5
25F
100
AcDbEntity
  8
0
100
AcDbText
 62
7
  6
CONTINUOUS
 10
5.5777310924
 20
-39.25
  7
TEXTSTYLE_3
 40
2.5
  1
info@oracdecor.com
 72
5
 11
39.4222689076
 21
-39.25
100
AcDbText
  0
TEXT
  5
260
100
AcDbEntity
  8
0
100
AcDbText
 62
7
  6
CONTINUOUS
 10
46.0625
 20
-26.75
  7
TEXTSTYLE_3
 40
2.5
  1
All dimensions are in mm unless otherwise specified   
 72
5
 11
132.3019957983
 21
-26.75
100
AcDbText
  0
TEXT
  5
261
100
AcDbEntity
  8
0
100
AcDbText
 62
7
  6
CONTINUOUS
 10
46.0625
 20
-31.7075
  7
TEXTSTYLE_3
 40
1.85
  1
All information in this document is Orac's exclusive property.  It may in no case 
 72
5
 11
140.0471638655
 21
-31.7075
100
AcDbText
  0
TEXT
  5
262
100
AcDbEntity
  8
0
100
AcDbText
 62
7
  6
CONTINUOUS
 10
46.0625
 20
-34.8525
  7
TEXTSTYLE_3
 40
1.85
  1
be reproduced, even partly, be communicated to a third party or used for any 
 72
5
 11
138.8345588235
 21
-34.8525
100
AcDbText
  0
TEXT
  5
263
100
AcDbEntity
  8
0
100
AcDbText
 62
7
  6
CONTINUOUS
 10
46.0625
 20
-37.9975
  7
TEXTSTYLE_3
 40
1.85
  1
possible purpose without ORAC's express written permission. 
 72
5
 11
119.4484243697
 21
-37.9975
100
AcDbText
  0
TEXT
  5
264
100
AcDbEntity
  8
0
100
AcDbText
 62
7
  6
CONTINUOUS
 10
46.0625
 20
-41.1425
  7
TEXTSTYLE_3
 40
1.85
  1
Further legal information can be found at http://www.oracdecor.be/nl/disclaimer 
 72
5
 11
143.7316176471
 21
-41.1425
100
AcDbText
  0
ENDBLK
  5
265
100
AcDbEntity
  8
0
  6
BYBLOCK
 62
0
100
AcDbBlockEnd
  0
ENDSEC
  0
SECTION
  2
ENTITIES
  0
DIMENSION
  5
266
100
AcDbEntity
  8
0
100
AcDbDimension
 62
2
  6
CONTINUOUS
  2
*D0
 10
116.9451230241
 20
152.0434930933
 11
91.9451230241
 21
150.1684930933
 70
160
 71
2
 42
50.0
  1
<>mm\P2"
  3
DIMSTYLE_1
100
AcDbAlignedDimension
 13
66.9451230241
 23
123.1744361041
 14
116.9451230241
 24
139.6744361041
100
AcDbRotatedDimension
  0
DIMENSION
  5
267
100
AcDbEntity
  8
0
100
AcDbDimension
 62
2
  6
CONTINUOUS
  2
*D1
 10
51.1420055793
 20
89.6744361041
 11
51.1420055793
 21
112.7994361041
 70
160
 71
2
 42
50.0
  1
<>mm\P2"
  3
DIMSTYLE_1
100
AcDbAlignedDimension
 13
103.9451230241
 23
139.6744361041
 14
66.9451230241
 24
89.6744361041
 50
270.0
100
AcDbRotatedDimension
  0
DIMENSION
  5
268
100
AcDbEntity
  8
0
100
AcDbDimension
 62
2
  6
CONTINUOUS
  2
*D2
 10
87.1422768455
 20
69.4772822827
 11
112.1422768455
 21
92.6022822827
 70
160
 71
2
 42
70.7106781187
  1
<>mm\P2-3/4"
  3
DIMSTYLE_2
100
AcDbAlignedDimension
 13
116.9451230241
 23
139.6744361041
 14
66.9451230241
 24
89.6744361041
 50
225.0
100
AcDbRotatedDimension
  0
ACAD_TABLE
  5
269
100
AcDbEntity
  8
0
 62
2
  6
CONTINUOUS
100
AcDbBlockReference
  2
*T1
 10
143.9999958937
 20
47.9999925619
 30
0.0
100
AcDbTable
342
       2E3
343
21B
 11
1.0
 21
0.0
 31
0.0
 90
22
 91
4
 92
4
 93
0
 94
0
 95
0
 96
0
141
18.0
141
5.0
141
5.0
141
15.0
142
45.0
142
28.0
142
70.0
142
5.0
171
1
172
0
173
0
174
0
175
1
176
1
 91
41
178
0
145
0.0
301
CELL_VALUE
 90
4
  1
\A1;O\H5.5;RAC\Ftrium.ttf;\H3.0;\S®^ ;\PD  E  C  O  R\Fcgtime.ttf;\H2.5; 
304
ACVALUE_END
170
5
140
8.0
 64
7
171
1
172
0
173
0
174
0
175
1
176
2
 91
57
178
0
145
0.0
  7
TEXTSTYLE_3
301
CELL_VALUE
 90
4
  1
Part name:\PDesigned by:\PDesigned on:
304
ACVALUE_END
170
6
140
2.75
 64
7
171
1
172
0
173
0
174
0
175
1
176
2
 91
49
178
0
145
0.0
  7
TEXTSTYLE_3
301
CELL_VALUE
 90
4
  1
C362\PPierre Daems\P12-Jul-2011 
304
ACVALUE_END
170
4
140
2.75
171
1
172
0
173
0
174
0
175
1
176
2
 91
49
178
0
145
0.0
  7
TEXTSTYLE_3
301
CELL_VALUE
 90
4
  1
Version: 1.0 
304
ACVALUE_END
170
6
140
1.5
171
1
172
0
173
0
174
0
175
1
176
3
 91
57
178
0
145
0.0
  7
TEXTSTYLE_3
301
CELL_VALUE
 90
4
  1
Biekorfstraat 32\P8400 Oostende - Belgium\PTel  +32 (0)59 80 32 52\Pwww.oracdecor.com\Pinfo@oracdecor.com
304
ACVALUE_END
170
5
140
2.5
 64
7
171
1
172
0
173
1
174
0
175
1
176
1
 91
1
178
0
145
0.0
170
1
171
1
172
0
173
1
174
0
175
1
176
1
 91
1
178
0
145
0.0
170
1
171
1
172
0
173
1
174
0
175
1
176
1
 91
1
178
0
145
0.0
170
1
171
1
172
0
173
1
174
0
175
1
176
1
 91
1
178
0
145
0.0
170
1
171
1
172
0
173
0
174
0
175
3
176
1
 91
57
178
0
145
0.0
  7
TEXTSTYLE_3
301
CELL_VALUE
 90
4
  1
All dimensions are in mm unless otherwise specified   
304
ACVALUE_END
170
1
140
2.5
 64
7
171
1
172
0
173
1
174
0
175
1
176
1
 91
1
178
0
145
0.0
170
1
171
1
172
0
173
1
174
0
175
1
176
1
 91
1
178
0
145
0.0
170
1
171
1
172
0
173
1
174
0
175
1
176
1
 91
1
178
0
145
0.0
170
1
171
1
172
0
173
0
174
0
175
3
176
1
 91
57
178
0
145
0.0
  7
TEXTSTYLE_3
301
CELL_VALUE
 90
4
  2
All information in this document is Orac's exclusive property.  It may in no case \Pbe reproduced, even partly, be communicated to a third party or used for any \Ppossible purpose without ORAC's express written permission. \PFurther legal information
  1
 can be found at http://www.oracdecor.be/nl/disclaimer 
304
ACVALUE_END
170
4
140
1.85
 64
7
171
1
172
0
173
1
174
0
175
1
176
1
 91
1
178
0
145
0.0
170
1
171
1
172
0
173
1
174
0
175
1
176
1
 91
1
178
0
145
0.0
170
1
  0
LINE
  5
26A
100
AcDbEntity
  8
0
100
AcDbLine
 62
5
  6
CONTINUOUS
 10
0.0
 20
0.0
 11
0.0
 21
210.0
  0
LINE
  5
26B
100
AcDbEntity
  8
0
100
AcDbLine
 62
7
  6
CONTINUOUS
 10
5.0
 20
5.0
 11
5.0
 21
195.0
  0
LINE
  5
26C
100
AcDbEntity
  8
0
100
AcDbLine
 62
5
  6
CONTINUOUS
 10
0.0
 20
0.0
 11
297.0
 21
0.0
  0
LINE
  5
26D
100
AcDbEntity
  8
0
100
AcDbLine
 62
7
  6
CONTINUOUS
 10
5.0
 20
5.0
 11
292.0
 21
5.0
  0
LINE
  5
26E
100
AcDbEntity
  8
0
100
AcDbLine
 62
4
  6
CONTINUOUS
 10
148.5
 20
195.0
 11
148.5
 21
205.0
  0
LINE
  5
26F
100
AcDbEntity
  8
0
100
AcDbLine
 62
7
  6
CONTINUOUS
 10
5.0
 20
195.0
 11
292.0
 21
195.0
  0
LINE
  5
270
100
AcDbEntity
  8
0
100
AcDbLine
 62
5
  6
CONTINUOUS
 10
0.0
 20
210.0
 11
297.0
 21
210.0
  0
LINE
  5
271
100
AcDbEntity
  8
0
100
AcDbLine
 62
7
  6
CONTINUOUS
 10
292.0
 20
5.0
 11
292.0
 21
195.0
  0
LINE
  5
272
100
AcDbEntity
  8
0
100
AcDbLine
 62
5
  6
CONTINUOUS
 10
297.0
 20
0.0
 11
297.0
 21
210.0
  0
LINE
  5
273
100
AcDbEntity
  8
0
100
AcDbLine
 62
7
  6
CONTINUOUS
 10
204.0621509799
 20
99.7093145734
 11
204.0192871717
 21
93.6840346425
  0
LINE
  5
274
100
AcDbEntity
  8
0
100
AcDbLine
 62
7
  6
CONTINUOUS
 10
207.4110365214
 20
101.9603758
 11
207.4823599944
 21
111.2117410537
  0
LINE
  5
275
100
AcDbEntity
  8
0
100
AcDbLine
 62
7
  6
CONTINUOUS
 10
214.3609078524
 20
112.0930052005
 11
214.3781924362
 21
114.3349879768
  0
LINE
  5
276
100
AcDbEntity
  8
DTM_AXIS
100
AcDbLine
 62
7
  6
CONTINUOUS
 10
218.5032073489
 20
112.8004954137
 11
218.5111178954
 21
113.8265721289
  0
LINE
  5
277
100
AcDbEntity
  8
DTM_AXIS
100
AcDbLine
 62
7
  6
CONTINUOUS
 10
219.2078303369
 20
112.7961588161
 11
219.2157408834
 21
113.8222355314
  0
LWPOLYLINE
  5
278
100
AcDbEntity
  8
DTM_AXIS
100
AcDbPolyline
 62
7
  6
CONTINUOUS
 90
28
 70
0
 10
218.5032073427
 20
112.800495411
 10
218.5030882526
 20
112.7917062213
 10
218.5017437385
 20
112.7590258732
 10
218.4989798373
 20
112.7264288254
 10
218.4948007262
 20
112.6939764544
 10
218.489212848
 20
112.6617284129
 10
218.4822255075
 20
112.6297464161
 10
218.4738508923
 20
112.5980924096
 10
218.4641033086
 20
112.5668257726
 10
218.4529997117
 20
112.5360059119
 10
218.4405604367
 20
112.5056935387
 10
218.4268088113
 20
112.4759487333
 10
218.4117704283
 20
112.4468293843
 10
218.3954731229
 20
112.4183916175
 10
218.3779475887
 20
112.3906909581
 10
218.3592267484
 20
112.3637811495
 10
218.3393458257
 20
112.3377143701
 10
218.318342525
 20
112.3125414387
 10
218.2962565873
 20
112.2883112253
 10
218.2731298526
 20
112.2650707856
 10
218.2490063474
 20
112.2428654276
 10
218.2239319124
 20
112.2217383356
 10
218.1979541955
 20
112.2017306028
 10
218.1711226826
 20
112.1828812473
 10
218.1434884516
 20
112.1652270218
 10
218.115104128
 20
112.1488024023
 10
218.0860238149
 20
112.1336395421
 10
218.0634920634
 20
112.1229783475
  0
LINE
  5
279
100
AcDbEntity
  8
0
100
AcDbLine
 62
7
  6
CONTINUOUS
 10
222.667871122
 20
116.0390269509
 11
222.6856534207
 21
118.5386491641
  0
LINE
  5
27A
100
AcDbEntity
  8
DTM_AXIS
100
AcDbLine
 62
7
  6
CONTINUOUS
 10
222.2902769336
 20
117.4756114271
 11
222.2729382791
 21
115.2266151374
  0
LINE
  5
27B
100
AcDbEntity
  8
DTM_AXIS
100
AcDbLine
 62
7
  6
CONTINUOUS
 10
222.9814036994
 20
115.7206803079
 11
222.9776501048
 21
115.2338016685
  0
LINE
  5
27C
100
AcDbEntity
  8
DTM_AXIS
100
AcDbLine
 62
7
  6
CONTINUOUS
 10
217.9228607067
 20
112.129242041
 11
217.9229600224
 21
112.1293304011
  0
LINE
  5
27D
100
AcDbEntity
  8
0
100
AcDbLine
 62
7
  6
CONTINUOUS
 10
207.5134397668
 20
111.9601069303
 11
207.6557002947
 21
112.02453929
  0
LINE
  5
27E
100
AcDbEntity
  8
0
100
AcDbLine
 62
7
  6
CONTINUOUS
 10
214.4092722085
 20
115.0833538535
 11
214.5515327365
 21
115.1477862132
  0
LINE
  5
27F
100
AcDbEntity
  8
0
100
AcDbLine
 62
7
  6
CONTINUOUS
 10
228.190288515
 20
121.3250247671
 11
228.3325490429
 21
121.3894571268
  0
LINE
  5
280
100
AcDbEntity
  8
0
100
AcDbLine
 62
7
  6
CONTINUOUS
 10
235.082572483
 20
124.4466645225
 11
235.224830907
 21
124.5110959292
  0
LINE
  5
281
100
AcDbEntity
  8
0
100
AcDbLine
 62
7
  6
CONTINUOUS
 10
222.6856534207
 20
118.5386491641
 11
257.147068001
 21
134.1468455587
  0
LINE
  5
282
100
AcDbEntity
  8
DTM_AXIS
100
AcDbLine
 62
7
  6
CONTINUOUS
 10
218.951346635
 20
114.5038389044
 11
219.1118720993
 21
114.5765438729
  0
LINE
  5
283
100
AcDbEntity
  8
DTM_AXIS
100
AcDbLine
 62
7
  6
CONTINUOUS
 10
219.2533482859
 20
114.5706628141
 11
219.4135552489
 21
114.643223438
  0
LINE
  5
284
100
AcDbEntity
  8
0
100
AcDbLine
 62
7
  6
CONTINUOUS
 10
229.1816280805
 20
118.488895139
 11
263.6430426608
 21
134.0970915336
  0
LINE
  5
285
100
AcDbEntity
  8
DTM_AXIS
100
AcDbLine
 62
7
  6
CONTINUOUS
 10
217.7622949066
 20
112.0565188933
 11
217.9228607067
 21
112.129242041
  0
LINE
  5
286
100
AcDbEntity
  8
0
100
AcDbLine
 62
7
  6
CONTINUOUS
 10
223.1273600906
 20
115.5724828621
 11
222.667871122
 21
116.0390269509
  0
LWPOLYLINE
  5
287
100
AcDbEntity
  8
DTM_AXIS
100
AcDbPolyline
 62
7
  6
CONTINUOUS
 90
5
 70
0
 10
218.1425198317
 20
112.1646665288
 10
218.1308245419
 20
112.1608763169
 10
218.0985719253
 20
112.1519915709
 10
218.0659619389
 20
112.144554242
 10
218.0330614809
 20
112.1385781533
  0
LINE
  5
288
100
AcDbEntity
  8
0
100
AcDbLine
 62
7
  6
CONTINUOUS
 10
217.7246875041
 20
111.3080916106
 11
207.4823599944
 21
111.2117410537
  0
LINE
  5
289
100
AcDbEntity
  8
0
100
AcDbLine
 62
7
  6
CONTINUOUS
 10
207.6557002947
 20
112.02453929
 11
217.9228607067
 21
112.129242041
  0
LINE
  5
28A
100
AcDbEntity
  8
DTM_AXIS
100
AcDbLine
 62
7
  6
CONTINUOUS
 10
207.6560807086
 20
112.0246305167
 11
217.922960054
 21
112.1293304014
  0
LINE
  5
28B
100
AcDbEntity
  8
0
100
AcDbLine
 62
7
  6
CONTINUOUS
 10
217.7622949066
 20
112.0565188933
 11
207.5134397668
 21
111.9601069303
  0
LINE
  5
28C
100
AcDbEntity
  8
DTM_AXIS
100
AcDbLine
 62
7
  6
CONTINUOUS
 10
219.2157408834
 20
113.8222355314
 11
222.8689121291
 21
113.8566012636
  0
LINE
  5
28D
100
AcDbEntity
  8
0
100
AcDbLine
 62
7
  6
CONTINUOUS
 10
204.0621509799
 20
99.7093145734
 11
207.3799683405
 21
101.212013914
  0
LINE
  5
28E
100
AcDbEntity
  8
0
100
AcDbLine
 62
7
  6
CONTINUOUS
 10
205.1692065048
 20
99.770459791
 11
205.6495172571
 21
99.9880011962
  0
LINE
  5
28F
100
AcDbEntity
  8
0
100
AcDbLine
 62
7
  6
CONTINUOUS
 10
206.1698226057
 20
100.0261934579
 11
205.7238324415
 21
99.8241964663
  0
LWPOLYLINE
  5
290
100
AcDbEntity
  8
DTM_AXIS
100
AcDbPolyline
 62
7
  6
CONTINUOUS
 90
5
 70
0
 10
218.0330614809
 20
112.1385781533
 10
217.9999346594
 20
112.1340735112
 10
217.9666428567
 20
112.1310476469
 10
217.9332506024
 20
112.129505835
 10
217.9229600223
 20
112.1293304067
  0
LINE
  5
291
100
AcDbEntity
  8
DTM_AXIS
100
AcDbLine
 62
7
  6
CONTINUOUS
 10
223.0213426476
 20
114.6800150386
 11
219.4135552489
 21
114.643223438
  0
LINE
  5
292
100
AcDbEntity
  8
0
100
AcDbLine
 62
7
  6
CONTINUOUS
 10
214.5515327365
 20
115.1477862132
 11
223.0940317609
 21
115.2349011614
  0
LINE
  5
293
100
AcDbEntity
  8
DTM_AXIS
100
AcDbLine
 62
7
  6
CONTINUOUS
 10
214.5519131503
 20
115.1478774399
 11
223.0940420169
 21
115.2349886133
  0
LINE
  5
294
100
AcDbEntity
  8
0
100
AcDbLine
 62
7
  6
CONTINUOUS
 10
218.7573579152
 20
114.3761832064
 11
214.3781924362
 21
114.3349879768
  0
LINE
  5
295
100
AcDbEntity
  8
DTM_AXIS
100
AcDbLine
 62
7
  6
CONTINUOUS
 10
219.2533482859
 20
114.5706628141
 11
223.0093678498
 21
114.6059960503
  0
LINE
  5
296
100
AcDbEntity
  8
0
100
AcDbLine
 62
7
  6
CONTINUOUS
 10
223.0858311237
 20
115.1649750751
 11
214.4092722085
 21
115.0833538535
  0
LINE
  5
297
100
AcDbEntity
  8
0
100
AcDbLine
 62
7
  6
CONTINUOUS
 10
207.6557002947
 20
112.02453929
 11
207.656096403
 21
112.0246245159
  0
LINE
  5
298
100
AcDbEntity
  8
0
100
AcDbLine
 62
7
  6
CONTINUOUS
 10
222.6856534207
 20
118.5386491641
 11
229.1816280805
 21
118.488895139
  0
LINE
  5
299
100
AcDbEntity
  8
0
100
AcDbLine
 62
7
  6
CONTINUOUS
 10
214.5515327365
 20
115.1477862132
 11
214.5519288448
 21
115.1478714391
  0
LINE
  5
29A
100
AcDbEntity
  8
0
100
AcDbLine
 62
7
  6
CONTINUOUS
 10
228.851438055
 20
121.3312442642
 11
228.190288515
 21
121.3250247671
  0
LINE
  5
29B
100
AcDbEntity
  8
DTM_AXIS
100
AcDbLine
 62
7
  6
CONTINUOUS
 10
214.5114592016
 20
95.907154135
 11
248.9728737819
 21
111.5153505296
  0
LINE
  5
29C
100
AcDbEntity
  8
0
100
AcDbLine
 62
7
  6
CONTINUOUS
 10
228.3325490429
 20
121.3894571268
 11
228.3329451512
 21
121.3895423527
  0
LINE
  5
29D
100
AcDbEntity
  8
0
100
AcDbLine
 62
7
  6
CONTINUOUS
 10
228.3325490429
 20
121.3894571268
 11
228.9948794488
 21
121.3962114593
  0
LINE
  5
29E
100
AcDbEntity
  8
DTM_AXIS
100
AcDbLine
 62
7
  6
CONTINUOUS
 10
228.3329294567
 20
121.3895483535
 11
228.9950767456
 21
121.3963008186
  0
LINE
  5
29F
100
AcDbEntity
  8
0
100
AcDbLine
 62
7
  6
CONTINUOUS
 10
235.224830907
 20
124.5110959292
 11
235.2252270154
 21
124.5111811546
  0
LINE
  5
2A0
100
AcDbEntity
  8
0
100
AcDbLine
 62
7
  6
CONTINUOUS
 10
235.224830907
 20
124.5110959292
 11
235.8871613288
 21
124.517850269
  0
LINE
  5
2A1
100
AcDbEntity
  8
DTM_AXIS
100
AcDbLine
 62
7
  6
CONTINUOUS
 10
235.2252113204
 20
124.5111871559
 11
235.8873586257
 21
124.5179396283
  0
LINE
  5
2A2
100
AcDbEntity
  8
0
100
AcDbLine
 62
7
  6
CONTINUOUS
 10
235.7437220071
 20
124.4528840124
 11
235.082572483
 21
124.4466645225
  0
LINE
  5
2A3
100
AcDbEntity
  8
0
100
AcDbLine
 62
7
  6
CONTINUOUS
 10
257.147068001
 20
134.1468455587
 11
263.6430426607
 21
134.0970915336
  0
LINE
  5
2A4
100
AcDbEntity
  8
0
100
AcDbLine
 62
7
  6
CONTINUOUS
 10
66.9451230241
 20
89.6744361041
 11
66.9451230241
 21
123.1744361041
  0
LINE
  5
2A5
100
AcDbEntity
  8
DTM_AXIS
100
AcDbLine
 62
7
  6
CONTINUOUS
 10
88.9451230241
 20
125.0324934272
 11
88.9451230241
 21
127.0844016379
  0
LINE
  5
2A6
100
AcDbEntity
  8
DTM_AXIS
100
AcDbLine
 62
7
  6
CONTINUOUS
 10
90.4058710223
 20
125.0584883855
 11
90.4058710223
 21
127.1103965962
  0
LINE
  5
2A7
100
AcDbEntity
  8
0
100
AcDbLine
 62
7
  6
CONTINUOUS
 10
87.4582282416
 20
122.0589453
 11
66.9451230241
 21
121.7008877166
  0
LINE
  5
2A8
100
AcDbEntity
  8
0
100
AcDbLine
 62
7
  6
CONTINUOUS
 10
87.4713016337
 20
123.5327218845
 11
66.9451230241
 21
123.1744361041
  0
LINE
  5
2A9
100
AcDbEntity
  8
0
100
AcDbLine
 62
7
  6
CONTINUOUS
 10
103.9451230241
 20
134.6744361041
 11
103.9451230241
 21
139.6744361041
  0
LINE
  5
2AA
100
AcDbEntity
  8
DTM_AXIS
100
AcDbLine
 62
7
  6
CONTINUOUS
 10
90.4058710223
 20
127.1103965962
 11
102.0379116702
 21
127.3134346209
  0
LINE
  5
2AB
100
AcDbEntity
  8
DTM_AXIS
100
AcDbLine
 62
7
  6
CONTINUOUS
 10
90.4189444144
 20
128.5841731806
 11
102.867663272
 21
128.8014663765
  0
LINE
  5
2AC
100
AcDbEntity
  8
0
100
AcDbLine
 62
7
  6
CONTINUOUS
 10
104.8712620557
 20
133.7482970725
 11
103.9451230241
 21
134.6744361041
  0
LINE
  5
2AD
100
AcDbEntity
  8
0
100
AcDbLine
 62
7
  6
CONTINUOUS
 10
103.9451230241
 20
139.6744361041
 11
116.9451230241
 21
139.6744361041
  0
ARC
  5
2AE
100
AcDbEntity
  8
0
100
AcDbCircle
 62
7
  6
CONTINUOUS
 10
238.6622553307
 20
134.2688819241
 40
24.9809852841
100
AcDbArc
 50
294.3772971801
 51
359.6059888326
  0
ARC
  5
2AF
100
AcDbEntity
  8
0
100
AcDbCircle
 62
7
  6
CONTINUOUS
 10
204.2008407504
 20
118.6606855295
 40
24.9809852841
100
AcDbArc
 50
294.3772971801
 51
359.6059888326
  0
ARC
  5
2B0
100
AcDbEntity
  8
0
100
AcDbCircle
 62
7
  6
CONTINUOUS
 10
204.2109346183
 20
118.6503719424
 40
24.9670728544
100
AcDbArc
 50
269.560192829
 51
294.365967245
  0
ARC
  5
2B1
100
AcDbEntity
  8
0
100
AcDbCircle
 62
7
  6
CONTINUOUS
 10
186.1667305588
 20
102.1234446234
 40
21.244931802
100
AcDbArc
 50
358.9832318552
 51
359.5602128928
  0
ARC
  5
2B2
100
AcDbEntity
  8
0
100
AcDbCircle
 62
7
  6
CONTINUOUS
 10
203.4869717711
 20
120.0221741028
 40
20.3214626999
100
AcDbArc
 50
274.7484463066
 51
276.3195699723
  0
ARC
  5
2B3
100
AcDbEntity
  8
0
100
AcDbCircle
 62
7
  6
CONTINUOUS
 10
203.5157130648
 20
119.6551500325
 40
19.9533191864
100
AcDbArc
 50
271.5692878371
 51
274.7534428177
  0
ARC
  5
2B4
100
AcDbEntity
  8
0
100
AcDbCircle
 62
7
  6
CONTINUOUS
 10
204.2134885941
 20
119.044024983
 40
19.1100554914
100
AcDbArc
 50
271.0549180665
 51
274.3095643909
  0
ARC
  5
2B5
100
AcDbEntity
  8
DTM_AXIS
100
AcDbCircle
 62
7
  6
CONTINUOUS
 10
217.7093953862
 20
112.8063171275
 40
1.4983835459
100
AcDbArc
 50
270.5847873901
 51
359.6115817679
  0
ARC
  5
2B6
100
AcDbEntity
  8
DTM_AXIS
100
AcDbCircle
 62
7
  6
CONTINUOUS
 10
217.9145314781
 20
112.8839692817
 40
0.7547732004
100
AcDbArc
 50
270.6322950116
 51
284.68451609
  0
ARC
  5
2B7
100
AcDbEntity
  8
DTM_AXIS
100
AcDbCircle
 62
7
  6
CONTINUOUS
 10
219.4220325442
 20
113.8902062617
 40
0.7531997068
100
AcDbArc
 50
95.6218731607
 51
110.6511255553
  0
ARC
  5
2B8
100
AcDbEntity
  8
DTM_AXIS
100
AcDbCircle
 62
7
  6
CONTINUOUS
 10
217.9149986268
 20
112.8807387652
 40
0.7515298735
100
AcDbArc
 50
284.7124984115
 51
287.5652786532
  0
ARC
  5
2B9
100
AcDbEntity
  8
DTM_AXIS
100
AcDbCircle
 62
7
  6
CONTINUOUS
 10
219.421346043
 20
113.8927774271
 40
0.7505737809
100
AcDbArc
 50
90.5871441191
 51
95.5889478861
  0
ARC
  5
2BA
100
AcDbEntity
  8
DTM_AXIS
100
AcDbCircle
 62
7
  6
CONTINUOUS
 10
223.0402477854
 20
117.4698330836
 40
0.749992212
100
AcDbArc
 50
118.4783843811
 51
179.5585679826
  0
ARC
  5
2BB
100
AcDbEntity
  8
DTM_AXIS
100
AcDbCircle
 62
7
  6
CONTINUOUS
 10
219.2609791255
 20
113.8213701763
 40
0.7494298428
100
AcDbArc
 50
114.4035470503
 51
179.605441275
  0
ARC
  5
2BC
100
AcDbEntity
  8
DTM_AXIS
100
AcDbCircle
 62
7
  6
CONTINUOUS
 10
219.4209232354
 20
113.8941766114
 40
0.7490912333
100
AcDbArc
 50
110.6831458538
 51
114.3581494221
  0
ARC
  5
2BD
100
AcDbEntity
  8
0
100
AcDbCircle
 62
7
  6
CONTINUOUS
 10
66.9451230241
 20
139.6744361041
 40
50.0
100
AcDbArc
 50
270.0
 51
360.0
  0
ARC
  5
2BE
100
AcDbEntity
  8
0
100
AcDbCircle
 62
7
  6
CONTINUOUS
 10
65.4828541721
 20
142.3878599556
 40
40.6882447601
100
AcDbArc
 50
275.1845596612
 51
276.7549404738
  0
ARC
  5
2BF
100
AcDbEntity
  8
0
100
AcDbCircle
 62
7
  6
CONTINUOUS
 10
65.5467680976
 20
141.6395037617
 40
39.9371749178
100
AcDbArc
 50
272.0065569363
 51
275.1902583258
  0
ARC
  5
2C0
100
AcDbEntity
  8
DTM_AXIS
100
AcDbCircle
 62
7
  6
CONTINUOUS
 10
87.4058710222
 20
125.0584883856
 40
3.0000000001
100
AcDbArc
 50
271.0000000017
 51
359.9999999983
  0
ARC
  5
2C1
100
AcDbEntity
  8
DTM_AXIS
100
AcDbCircle
 62
7
  6
CONTINUOUS
 10
90.4451230241
 20
127.0844016379
 40
1.5
100
AcDbArc
 50
91.0
 51
180.0
  0
ARC
  5
2C2
100
AcDbEntity
  8
DTM_AXIS
100
AcDbCircle
 62
7
  6
CONTINUOUS
 10
87.4451230241
 20
125.0324934272
 40
1.5
100
AcDbArc
 50
271.0
 51
360.0
  0
ARC
  5
2C3
100
AcDbEntity
  8
DTM_AXIS
100
AcDbCircle
 62
7
  6
CONTINUOUS
 10
102.8414846623
 20
130.3012379193
 40
1.5
100
AcDbArc
 50
271.0
 51
345.5420897999
  0
SPLINE
  5
2C4
100
AcDbEntity
  8
DTM_AXIS
100
AcDbSpline
 62
7
  6
CONTINUOUS
 70
0
 71
3
 72
8
 73
4
 74
0
 42
0.0000001
 43
0.0000001
 44
0.0000000001
 40
0.0
 40
0.0
 40
0.0
 40
0.0
 40
1.0
 40
1.0
 40
1.0
 40
1.0
 10
218.951665139
 20
114.5039832432
 30
0.0
 10
219.0454794356
 20
114.5464734853
 30
0.0
 10
219.1503651621
 20
114.5696532895
 30
0.0
 10
219.2533482859
 20
114.5706628141
 30
0.0
  0
SPLINE
  5
2C5
100
AcDbEntity
  8
DTM_AXIS
100
AcDbSpline
 62
7
  6
CONTINUOUS
 70
0
 71
3
 72
8
 73
4
 74
0
 42
0.0000001
 43
0.0000001
 44
0.0000000001
 40
0.0
 40
0.0
 40
0.0
 40
0.0
 40
1.0
 40
1.0
 40
1.0
 40
1.0
 10
219.1534794196
 20
114.593899043
 30
0.0
 10
219.2359016221
 20
114.6254013494
 30
0.0
 10
219.3253222241
 20
114.6423585059
 30
0.0
 10
219.4135552489
 20
114.643223438
 30
0.0
  0
SPLINE
  5
2C6
100
AcDbEntity
  8
0
100
AcDbSpline
 62
7
  6
CONTINUOUS
 70
0
 71
3
 72
13
 73
9
 74
0
 42
0.0000001
 43
0.0000001
 44
0.0000000001
 40
0.0
 40
0.0
 40
0.0
 40
0.0
 40
0.2498501011
 40
0.4996280763
 40
0.6247324754
 40
0.7498313387
 40
0.8749216248
 40
1.0
 40
1.0
 40
1.0
 40
1.0
 10
212.1652606763
 20
101.6021724251
 30
0.0
 10
213.5736369891
 20
102.2400508455
 30
0.0
 10
216.2623932997
 20
103.8210664726
 30
0.0
 10
219.1038090462
 20
106.4990087609
 30
0.0
 10
220.9222596057
 20
109.0119505809
 30
0.0
 10
222.0178834808
 20
111.0689851406
 30
0.0
 10
222.7937224809
 20
113.2672575035
 30
0.0
 10
223.0629395501
 20
114.8011716476
 30
0.0
 10
223.1273600906
 20
115.5724828621
 30
0.0
  0
SPLINE
  5
2C7
100
AcDbEntity
  8
DTM_AXIS
100
AcDbSpline
 62
7
  6
CONTINUOUS
 70
0
 71
3
 72
22
 73
18
 74
0
 42
0.0000001
 43
0.0000001
 44
0.0000000001
 40
0.0
 40
0.0
 40
0.0
 40
0.0
 40
0.0011874849
 40
0.0047412416
 40
0.0106545562
 40
0.0189144369
 40
0.0295025467
 40
0.0423953316
 40
0.0749750557
 40
0.1163636071
 40
0.1661925212
 40
0.2240181757
 40
0.2893257465
 40
0.4399994353
 40
0.6128596237
 40
0.8017639655
 40
1.0
 40
1.0
 40
1.0
 40
1.0
 10
218.5032073592
 20
112.8004954136
 30
0.0
 10
218.5032092347
 20
112.8007743234
 30
0.0
 10
218.5049935134
 20
112.8002029075
 30
0.0
 10
218.5068489791
 20
112.800805634
 30
0.0
 10
218.5113807734
 20
112.8004925631
 30
0.0
 10
218.5170344729
 20
112.8006418277
 30
0.0
 10
218.5245523285
 20
112.800577844
 30
0.0
 10
218.5376901699
 20
112.8005740972
 30
0.0
 10
218.5581111815
 20
112.8004829976
 30
0.0
 10
218.5871800586
 20
112.8003581347
 30
0.0
 10
218.6221897286
 20
112.8001736793
 30
0.0
 10
218.6628134074
 20
112.7999447158
 30
0.0
 10
218.727124344
 20
112.7995573017
 30
0.0
 10
218.8184531888
 20
112.7989672108
 30
0.0
 10
218.9388118029
 20
112.7981407201
 30
0.0
 10
219.0703411637
 20
112.7971942475
 30
0.0
 10
219.1612700589
 20
112.7965136434
 30
0.0
 10
219.2078303369
 20
112.7961588161
 30
0.0
  0
SPLINE
  5
2C8
100
AcDbEntity
  8
DTM_AXIS
100
AcDbSpline
 62
7
  6
CONTINUOUS
 70
0
 71
3
 72
8
 73
4
 74
0
 42
0.0000001
 43
0.0000001
 44
0.0000000001
 40
0.0
 40
0.0
 40
0.0
 40
0.0
 40
1.0
 40
1.0
 40
1.0
 40
1.0
 10
218.0634920631
 20
112.1229783458
 30
0.0
 10
217.9698347366
 20
112.08056329
 30
0.0
 10
217.8651047967
 20
112.0574453201
 30
0.0
 10
217.7622949066
 20
112.0565188933
 30
0.0
  0
SPLINE
  5
2C9
100
AcDbEntity
  8
DTM_AXIS
100
AcDbSpline
 62
7
  6
CONTINUOUS
 70
0
 71
3
 72
19
 73
15
 74
0
 42
0.0000001
 43
0.0000001
 44
0.0000000001
 40
0.0
 40
0.0
 40
0.0
 40
0.0
 40
0.2168660246
 40
0.4132980176
 40
0.5858082244
 40
0.7313336481
 40
0.8472904476
 40
0.8935156627
 40
0.9316198601
 40
0.9614337286
 40
0.982824916
 40
0.9903309125
 40
0.9956986943
 40
1.0
 40
1.0
 40
1.0
 40
1.0
 10
222.678071637
 20
117.4735829363
 30
0.0
 10
222.6500385911
 20
117.4737764285
 30
0.0
 10
222.5966139758
 20
117.4741386187
 30
0.0
 10
222.5208891279
 20
117.4746301516
 30
0.0
 10
222.4543880127
 20
117.4750355293
 30
0.0
 10
222.3982833435
 20
117.4753551361
 30
0.0
 10
222.3585178131
 20
117.4755415596
 30
0.0
 10
222.332611135
 20
117.4756594773
 30
0.0
 10
222.3178910973
 20
117.4756727165
 30
0.0
 10
222.3062554948
 20
117.4757775619
 30
0.0
 10
222.2988554723
 20
117.4755988751
 30
0.0
 10
222.2941707415
 20
117.4758179118
 30
0.0
 10
222.2923996355
 20
117.4753804217
 30
0.0
 10
222.2902806826
 20
117.4761674331
 30
0.0
 10
222.290276944
 20
117.475611427
 30
0.0
  0
SPLINE
  5
2CA
100
AcDbEntity
  8
DTM_AXIS
100
AcDbSpline
 62
7
  6
CONTINUOUS
 70
0
 71
3
 72
17
 73
13
 74
0
 42
0.0000001
 43
0.0000001
 44
0.0000000001
 40
0.0
 40
0.0
 40
0.0
 40
0.0
 40
0.0084920397
 40
0.0250275625
 40
0.050342698
 40
0.0844104149
 40
0.1777186448
 40
0.3017479115
 40
0.4519459132
 40
0.6227286961
 40
0.8077196957
 40
1.0
 40
1.0
 40
1.0
 40
1.0
 10
217.7622949066
 20
112.0565188933
 30
0.0
 10
217.7602354509
 20
112.0559773322
 30
0.0
 10
217.7565394515
 20
112.0498020492
 30
0.0
 10
217.7529727856
 20
112.0382559395
 30
0.0
 10
217.7490056651
 20
112.0193337137
 30
0.0
 10
217.7434962543
 20
111.9815888799
 30
0.0
 10
217.7376581804
 20
111.918676007
 30
0.0
 10
217.7321198714
 20
111.8267249639
 30
0.0
 10
217.7278630506
 20
111.7151885974
 30
0.0
 10
217.7250812284
 20
111.588343309
 30
0.0
 10
217.7239120887
 20
111.4509122869
 30
0.0
 10
217.724241223
 20
111.3563059118
 30
0.0
 10
217.7246875041
 20
111.3080916106
 30
0.0
  0
SPLINE
  5
2CB
100
AcDbEntity
  8
DTM_AXIS
100
AcDbSpline
 62
7
  6
CONTINUOUS
 70
0
 71
3
 72
12
 73
8
 74
0
 42
0.0000001
 43
0.0000001
 44
0.0000000001
 40
0.0
 40
0.0
 40
0.0
 40
0.0
 40
0.3791096938
 40
0.6985079786
 40
0.8218944922
 40
0.9151951387
 40
1.0
 40
1.0
 40
1.0
 40
1.0
 10
219.2157408834
 20
113.8222355314
 30
0.0
 10
219.1267540939
 20
113.8229136832
 30
0.0
 10
218.962795081
 20
113.8241652933
 30
0.0
 10
218.7698770123
 20
113.8253331276
 30
0.0
 10
218.6440382626
 20
113.8262955194
 30
0.0
 10
218.5732778437
 20
113.8262400768
 30
0.0
 10
218.5314521877
 20
113.8273026172
 30
0.0
 10
218.5115579103
 20
113.8266063208
 30
0.0
  0
SPLINE
  5
2CC
100
AcDbEntity
  8
DTM_AXIS
100
AcDbSpline
 62
7
  6
CONTINUOUS
 70
0
 71
3
 72
17
 73
13
 74
0
 42
0.0000001
 43
0.0000001
 44
0.0000000001
 40
0.0
 40
0.0
 40
0.0
 40
0.0
 40
0.192280309
 40
0.3772713054
 40
0.5480540872
 40
0.6982520942
 40
0.8222813554
 40
0.9155895885
 40
0.9496573095
 40
0.9749724437
 40
0.9915079608
 40
1.0
 40
1.0
 40
1.0
 40
1.0
 10
219.2157408834
 20
113.8222355314
 30
0.0
 10
219.2152946023
 20
113.8704498338
 30
0.0
 10
219.2149654674
 20
113.9650562094
 30
0.0
 10
219.2161346074
 20
114.1024872318
 30
0.0
 10
219.2189164302
 20
114.2293325207
 30
0.0
 10
219.2231732499
 20
114.3408688871
 30
0.0
 10
219.2287115596
 20
114.4328199314
 30
0.0
 10
219.2345496345
 20
114.4957328043
 30
0.0
 10
219.2400590434
 20
114.5334776405
 30
0.0
 10
219.2440261653
 20
114.5523998644
 30
0.0
 10
219.2475928283
 20
114.5639459748
 30
0.0
 10
219.2512888304
 20
114.570121253
 30
0.0
 10
219.2533482859
 20
114.5706628141
 30
0.0
  0
SPLINE
  5
2CD
100
AcDbEntity
  8
0
100
AcDbSpline
 62
7
  6
CONTINUOUS
 70
0
 71
3
 72
9
 73
5
 74
0
 42
0.0000001
 43
0.0000001
 44
0.0000000001
 40
0.0
 40
0.0
 40
0.0
 40
0.0
 40
0.4999912394
 40
1.0
 40
1.0
 40
1.0
 40
1.0
 10
205.7238324415
 20
99.8241964663
 30
0.0
 10
206.8341853835
 20
99.9471356555
 30
0.0
 10
209.0380217862
 20
100.3754729086
 30
0.0
 10
211.1475967549
 20
101.1412545235
 30
0.0
 10
212.1652606763
 20
101.6021724251
 30
0.0
  0
SPLINE
  5
2CE
100
AcDbEntity
  8
0
100
AcDbSpline
 62
7
  6
CONTINUOUS
 70
0
 71
3
 72
9
 73
5
 74
0
 42
0.0000001
 43
0.0000001
 44
0.0000000001
 40
0.0
 40
0.0
 40
0.0
 40
0.0
 40
0.5001237956
 40
1.0
 40
1.0
 40
1.0
 40
1.0
 10
217.2673670736
 20
104.8559857386
 30
0.0
 10
215.7840077157
 20
103.9728873312
 30
0.0
 10
212.5854587016
 20
102.5739455438
 30
0.0
 10
209.1358727087
 20
102.007363743
 30
0.0
 10
207.4110365214
 20
101.9603758
 30
0.0
  0
SPLINE
  5
2CF
100
AcDbEntity
  8
0
100
AcDbSpline
 62
7
  6
CONTINUOUS
 70
0
 71
3
 72
9
 73
5
 74
0
 42
0.0000001
 43
0.0000001
 44
0.0000000001
 40
0.0
 40
0.0
 40
0.0
 40
0.0
 40
0.5000515983
 40
1.0
 40
1.0
 40
1.0
 40
1.0
 10
213.7862303493
 20
102.4206195054
 30
0.0
 10
212.7590010666
 20
102.0560775024
 30
0.0
 10
210.6466105267
 20
101.4813590116
 30
0.0
 10
208.4693448493
 20
101.2413288729
 30
0.0
 10
207.3799683405
 20
101.212013914
 30
0.0
  0
SPLINE
  5
2D0
100
AcDbEntity
  8
0
100
AcDbSpline
 62
7
  6
CONTINUOUS
 70
0
 71
3
 72
16
 73
12
 74
0
 42
0.0000001
 43
0.0000001
 44
0.0000000001
 40
0.0
 40
0.0
 40
0.0
 40
0.0
 40
0.2050481298
 40
0.3950399888
 40
0.5652786834
 40
0.711571579
 40
0.8303483979
 40
0.9187891425
 40
0.9750472936
 40
0.9910775869
 40
1.0
 40
1.0
 40
1.0
 40
1.0
 10
207.4083172344
 20
101.7464528742
 30
0.0
 10
207.4086365076
 20
101.7096980838
 30
0.0
 10
207.4088971245
 20
101.6388825613
 30
0.0
 10
207.4080981826
 20
101.5375572669
 30
0.0
 10
207.4061301342
 20
101.4467654419
 30
0.0
 10
207.4030602292
 20
101.3688243044
 30
0.0
 10
207.3990157378
 20
101.305478462
 30
0.0
 10
207.394176622
 20
101.2587109179
 30
0.0
 10
207.3892173585
 20
101.2298632247
 30
0.0
 10
207.3844992116
 20
101.2164401802
 30
0.0
 10
207.3815117614
 20
101.2124333538
 30
0.0
 10
207.3799683405
 20
101.212013914
 30
0.0
  0
SPLINE
  5
2D1
100
AcDbEntity
  8
DTM_AXIS
100
AcDbSpline
 62
7
  6
CONTINUOUS
 70
0
 71
3
 72
20
 73
16
 74
0
 42
0.0000001
 43
0.0000001
 44
0.0000000001
 40
0.0
 40
0.0
 40
0.0
 40
0.0
 40
0.4320525976
 40
0.6079714534
 40
0.7534202769
 40
0.8663003651
 40
0.9100192034
 40
0.9450526169
 40
0.9712897157
 40
0.981085779
 40
0.9886602826
 40
0.9940161262
 40
0.9971768402
 40
0.9983358728
 40
1.0
 40
1.0
 40
1.0
 40
1.0
 10
205.6495172686
 20
99.9880011971
 30
0.0
 10
205.7247091687
 20
99.9936592345
 30
0.0
 10
205.8304862528
 20
100.0020279195
 30
0.0
 10
205.9615368991
 20
100.0127903933
 30
0.0
 10
206.0370705646
 20
100.0189796867
 30
0.0
 10
206.0896245394
 20
100.0231253477
 30
0.0
 10
206.1229817543
 20
100.025514485
 30
0.0
 10
206.1412746862
 20
100.0266583716
 30
0.0
 10
206.1536500866
 20
100.0273046105
 30
0.0
 10
206.1612772491
 20
100.0274766478
 30
0.0
 10
206.165208229
 20
100.0275628799
 30
0.0
 10
206.1680965872
 20
100.0273115211
 30
0.0
 10
206.1696369123
 20
100.0273885796
 30
0.0
 10
206.1708516275
 20
100.0266447978
 30
0.0
 10
206.1700871449
 20
100.026313336
 30
0.0
 10
206.1698226057
 20
100.0261934579
 30
0.0
  0
SPLINE
  5
2D2
100
AcDbEntity
  8
0
100
AcDbSpline
 62
7
  6
CONTINUOUS
 70
0
 71
3
 72
18
 73
14
 74
0
 42
0.0000001
 43
0.0000001
 44
0.0000000001
 40
0.0
 40
0.0
 40
0.0
 40
0.0
 40
0.0625
 40
0.125
 40
0.25
 40
0.375
 40
0.5
 40
0.625
 40
0.75
 40
0.8125
 40
0.875
 40
0.9375
 40
1.0
 40
1.0
 40
1.0
 40
1.0
 10
70.2687286787
 20
101.9820600395
 30
0.0
 10
71.5245171767
 20
102.1307678427
 30
0.0
 10
73.9277753535
 20
102.5320849733
 30
0.0
 10
78.388334486
 20
103.6665681484
 30
0.0
 10
83.4208843475
 20
105.6056712841
 30
0.0
 10
88.7652961781
 20
108.5989149603
 30
0.0
 10
93.4815729569
 20
112.1946780295
 30
0.0
 10
97.5783429337
 20
116.3846841065
 30
0.0
 10
100.4374769547
 20
120.4085701078
 30
0.0
 10
102.3247937743
 20
124.0113574993
 30
0.0
 10
103.508172994
 20
126.9360909426
 30
0.0
 10
104.4117328983
 20
130.129232531
 30
0.0
 10
104.7749380437
 20
132.4874083195
 30
0.0
 10
104.8712620557
 20
133.7482970725
 30
0.0
  0
SPLINE
  5
2D3
100
AcDbEntity
  8
DTM_AXIS
100
AcDbSpline
 62
7
  6
CONTINUOUS
 70
0
 71
3
 72
21
 73
17
 74
0
 42
0.0000001
 43
0.0000001
 44
0.0000000001
 40
0.0
 40
0.0
 40
0.0
 40
0.0
 40
0.0013529844
 40
0.0050253707
 40
0.011310715
 40
0.0202304987
 40
0.0458775929
 40
0.0816097281
 40
0.1268530039
 40
0.1808627766
 40
0.2427623125
 40
0.3115879433
 40
0.4660100233
 40
0.6364216609
 40
0.8161706859
 40
1.0
 40
1.0
 40
1.0
 40
1.0
 10
102.867663272
 20
128.8014663765
 30
0.0
 10
102.8684341028
 20
128.8014798316
 30
0.0
 10
102.8692034182
 20
128.7974191724
 30
0.0
 10
102.8674452327
 20
128.7921303213
 30
0.0
 10
102.8648189196
 20
128.7811707685
 30
0.0
 10
102.8572273568
 20
128.7594708978
 30
0.0
 10
102.843011993
 20
128.7217807346
 30
0.0
 10
102.8196678428
 20
128.6657929968
 30
0.0
 10
102.7886874084
 20
128.5953449575
 30
0.0
 10
102.7500980082
 20
128.5120288505
 30
0.0
 10
102.7041688961
 20
128.4173019094
 30
0.0
 10
102.6307004423
 20
128.2723736751
 30
0.0
 10
102.5238363888
 20
128.0750934226
 30
0.0
 10
102.3781414237
 20
127.827157758
 30
0.0
 10
102.2150466639
 20
127.5702191616
 30
0.0
 10
102.0982825617
 20
127.3990358721
 30
0.0
 10
102.0379116769
 20
127.313434621
 30
0.0
  0
SPLINE
  5
2D4
100
AcDbEntity
  8
DTM_AXIS
100
AcDbSpline
 62
7
  6
CONTINUOUS
 70
0
 71
3
 72
21
 73
17
 74
0
 42
0.0000001
 43
0.0000001
 44
0.0000000001
 40
0.0
 40
0.0
 40
0.0
 40
0.0
 40
0.1957473826
 40
0.383467509
 40
0.5561141272
 40
0.7072089646
 40
0.7728665314
 40
0.8310878879
 40
0.881328028
 40
0.9231188421
 40
0.9560754733
 40
0.9799057168
 40
0.9883396399
 40
0.9944434563
 40
0.9982506669
 40
1.0
 40
1.0
 40
1.0
 40
1.0
 10
90.4058710223
 20
127.1103965962
 30
0.0
 10
90.4042351145
 20
127.2066555668
 30
0.0
 10
90.4014960163
 20
127.3952343442
 30
0.0
 10
90.3989340807
 20
127.6687329341
 30
0.0
 10
90.3980428358
 20
127.9202806706
 30
0.0
 10
90.3987149165
 20
128.1117976733
 30
0.0
 10
90.4002343395
 20
128.2470270776
 30
0.0
 10
90.4017316815
 20
128.3326524067
 30
0.0
 10
90.4036154635
 20
128.4065203976
 30
0.0
 10
90.4058645093
 20
128.4679708639
 30
0.0
 10
90.4084128947
 20
128.5163418102
 30
0.0
 10
90.4109875582
 20
128.5484230194
 30
0.0
 10
90.4132811342
 20
128.5670241716
 30
0.0
 10
90.4150260285
 20
128.5761174619
 30
0.0
 10
90.4163328315
 20
128.5812532891
 30
0.0
 10
90.4180841849
 20
128.5841581652
 30
0.0
 10
90.4189444144
 20
128.5841731806
 30
0.0
  0
SPLINE
  5
2D5
100
AcDbEntity
  8
DTM_AXIS
100
AcDbSpline
 62
7
  6
CONTINUOUS
 70
0
 71
3
 72
22
 73
18
 74
0
 42
0.0000001
 43
0.0000001
 44
0.0000000001
 40
0.0
 40
0.0
 40
0.0
 40
0.0
 40
0.1963353516
 40
0.3843788366
 40
0.557144706
 40
0.7082157615
 40
0.7738254271
 40
0.8319831065
 40
0.8821485989
 40
0.9238569328
 40
0.956723583
 40
0.9697447924
 40
0.9804513309
 40
0.9888218626
 40
0.9948446853
 40
0.9985284914
 40
1.0
 40
1.0
 40
1.0
 40
1.0
 10
90.4058710223
 20
127.1103965962
 30
0.0
 10
90.3102064067
 20
127.1103531834
 30
0.0
 10
90.1229173743
 20
127.1099600025
 30
0.0
 10
89.8514515794
 20
127.1084538403
 30
0.0
 10
89.6020476591
 20
127.1060964264
 30
0.0
 10
89.4123075282
 20
127.10340439
 30
0.0
 10
89.2784166052
 20
127.100808733
 30
0.0
 10
89.1936920093
 20
127.0988096309
 30
0.0
 10
89.1206158884
 20
127.0966909929
 30
0.0
 10
89.0598849955
 20
127.0944751952
 30
0.0
 10
89.0172281827
 20
127.0924586251
 30
0.0
 10
88.9897383492
 20
127.0907379217
 30
0.0
 10
88.9740747148
 20
127.0895343211
 30
0.0
 10
88.9620805758
 20
127.0883615244
 30
0.0
 10
88.9529372781
 20
127.0871538603
 30
0.0
 10
88.9483399997
 20
127.0861394738
 30
0.0
 10
88.9451230241
 20
127.0851186321
 30
0.0
 10
88.9451230241
 20
127.0844016379
 30
0.0
  0
SPLINE
  5
2D6
100
AcDbEntity
  8
DTM_AXIS
100
AcDbSpline
 62
7
  6
CONTINUOUS
 70
0
 71
3
 72
21
 73
17
 74
0
 42
0.0000001
 43
0.0000001
 44
0.0000000001
 40
0.0
 40
0.0
 40
0.0
 40
0.0
 40
0.0017493354
 40
0.0055565471
 40
0.0116603664
 40
0.0200942917
 40
0.0439245365
 40
0.0768811632
 40
0.1186719723
 40
0.168912114
 40
0.2271334747
 40
0.2927910427
 40
0.4438858744
 40
0.6165324933
 40
0.8042526227
 40
1.0
 40
1.0
 40
1.0
 40
1.0
 10
87.4713016337
 20
123.5327218845
 30
0.0
 10
87.4704414031
 20
123.5327068691
 30
0.0
 10
87.4686900462
 20
123.529801993
 30
0.0
 10
87.467383253
 20
123.5246661586
 30
0.0
 10
87.4656383509
 20
123.5155728678
 30
0.0
 10
87.4633447812
 20
123.4969717105
 30
0.0
 10
87.4607701131
 20
123.4648905032
 30
0.0
 10
87.4582217294
 20
123.4165195602
 30
0.0
 10
87.4559726823
 20
123.3550690981
 30
0.0
 10
87.454088901
 20
123.2812011068
 30
0.0
 10
87.4525915592
 20
123.1955757742
 30
0.0
 10
87.4510721364
 20
123.06034637
 30
0.0
 10
87.450400055
 20
122.8688293691
 30
0.0
 10
87.4512913003
 20
122.6172816336
 30
0.0
 10
87.4538532362
 20
122.3437830444
 30
0.0
 10
87.4565923339
 20
122.1552042682
 30
0.0
 10
87.4582282416
 20
122.0589453
 30
0.0
  0
SPLINE
  5
2D7
100
AcDbEntity
  8
0
100
AcDbSpline
 62
7
  6
CONTINUOUS
 70
0
 71
3
 72
15
 73
11
 74
0
 42
0.0000001
 43
0.0000001
 44
0.0000000001
 40
0.0
 40
0.0
 40
0.0
 40
0.0
 40
0.124945737
 40
0.2499318621
 40
0.3749417212
 40
0.4999629152
 40
0.6249862976
 40
0.7500046326
 40
0.8750114368
 40
1.0
 40
1.0
 40
1.0
 40
1.0
 10
102.0379116702
 20
127.3134346209
 30
0.0
 10
101.4238909847
 20
125.5409651643
 30
0.0
 10
99.8359082446
 20
122.1118489835
 30
0.0
 10
96.5938341606
 20
117.4805651403
 30
0.0
 10
92.6625180186
 20
113.4196612184
 30
0.0
 10
88.1847882547
 20
109.9751357978
 30
0.0
 10
83.27709339
 20
107.1796317125
 30
0.0
 10
78.0393644409
 20
105.067070859
 30
0.0
 10
72.5664642215
 20
103.6775286391
 30
0.0
 10
68.8204118004
 20
103.2665036453
 30
0.0
 10
66.9451230241
 20
103.200368173
 30
0.0
  0
SPLINE
  5
2D8
100
AcDbEntity
  8
DTM_AXIS
100
AcDbSpline
 62
7
  6
CONTINUOUS
 70
0
 71
3
 72
22
 73
18
 74
0
 42
0.0000001
 43
0.0000001
 44
0.0000000001
 40
0.0
 40
0.0
 40
0.0
 40
0.0
 40
0.0014715102
 40
0.0051553181
 40
0.0111781435
 40
0.0195486774
 40
0.0302552173
 40
0.0432764266
 40
0.0761430725
 40
0.1178514014
 40
0.1680168953
 40
0.2261745789
 40
0.2917842457
 40
0.4428552956
 40
0.6156211658
 40
0.8036646536
 40
1.0
 40
1.0
 40
1.0
 40
1.0
 10
88.9451230241
 20
125.0324934272
 30
0.0
 10
88.9451230241
 20
125.0332104223
 30
0.0
 10
88.9483400006
 20
125.0342312666
 30
0.0
 10
88.9529372842
 20
125.0352456458
 30
0.0
 10
88.9620805837
 20
125.0364533158
 30
0.0
 10
88.9740747266
 20
125.0376261093
 30
0.0
 10
88.9897383624
 20
125.0388297114
 30
0.0
 10
89.0172281946
 20
125.0405504139
 30
0.0
 10
89.0598850027
 20
125.0425669847
 30
0.0
 10
89.1206158918
 20
125.0447827824
 30
0.0
 10
89.1936920131
 20
125.0469014203
 30
0.0
 10
89.2784166123
 20
125.0489005222
 30
0.0
 10
89.4123075352
 20
125.0514961791
 30
0.0
 10
89.6020476644
 20
125.0541882159
 30
0.0
 10
89.8514515837
 20
125.0565456296
 30
0.0
 10
90.1229173779
 20
125.0580517915
 30
0.0
 10
90.3102064092
 20
125.0584449728
 30
0.0
 10
90.4058710223
 20
125.0584883855
 30
0.0
  0
SPLINE
  5
2D9
100
AcDbEntity
  8
0
100
AcDbSpline
 62
7
  6
CONTINUOUS
 70
0
 71
3
 72
19
 73
15
 74
0
 42
0.0000001
 43
0.0000001
 44
0.0000000001
 40
0.0
 40
0.0
 40
0.0
 40
0.0
 40
0.2091526995
 40
0.4023335135
 40
0.5747406463
 40
0.7220918072
 40
0.7852026845
 40
0.8407343156
 40
0.8883446181
 40
0.9277432317
 40
0.95869599
 40
0.9810342645
 40
0.9946889554
 40
1.0
 40
1.0
 40
1.0
 40
1.0
 10
66.9451230241
 20
102.7735460133
 30
0.0
 10
66.9470805864
 20
102.7005048199
 30
0.0
 10
66.950546153
 20
102.5599920981
 30
0.0
 10
66.9545017804
 20
102.3592438494
 30
0.0
 10
66.9569601345
 20
102.1800668682
 30
0.0
 10
66.9577763364
 20
102.0463058407
 30
0.0
 10
66.9575289526
 20
101.9533909239
 30
0.0
 10
66.9569585026
 20
101.8952883563
 30
0.0
 10
66.9560000329
 20
101.8455727615
 30
0.0
 10
66.9546806837
 20
101.8041783353
 30
0.0
 10
66.9529937423
 20
101.7723686106
 30
0.0
 10
66.951079248
 20
101.7478365368
 30
0.0
 10
66.9488987437
 20
101.7357614774
 30
0.0
 10
66.9469773053
 20
101.7268820113
 30
0.0
 10
66.9451230241
 20
101.7268172584
 30
0.0
  0
SPLINE
  5
2DA
100
AcDbEntity
  8
DTM_AXIS
100
AcDbSpline
 62
7
  6
CONTINUOUS
 70
0
 71
3
 72
18
 73
14
 74
0
 42
0.0000001
 43
0.0000001
 44
0.0000000001
 40
0.0
 40
0.0
 40
0.0
 40
0.0
 40
0.1931304698
 40
0.3782706458
 40
0.5488309799
 40
0.6987410458
 40
0.8226657725
 40
0.8734650267
 40
0.9161959391
 40
0.9504780642
 40
0.9760069572
 40
0.9925583017
 40
1.0
 40
1.0
 40
1.0
 40
1.0
 10
102.0379116709
 20
127.3134346231
 30
0.0
 10
102.1263609037
 20
127.2828174844
 30
0.0
 10
102.2996435291
 20
127.2229754704
 30
0.0
 10
102.5511905572
 20
127.1365351216
 30
0.0
 10
102.78306396
 20
127.0572961291
 30
0.0
 10
102.9870101394
 20
126.9880849354
 30
0.0
 10
103.1361319629
 20
126.93792007
 30
0.0
 10
103.2361402363
 20
126.9046961894
 30
0.0
 10
103.2949779392
 20
126.8852977732
 30
0.0
 10
103.3422616611
 20
126.8700892203
 30
0.0
 10
103.3775278916
 20
126.8586602829
 30
0.0
 10
103.400542569
 20
126.8522474766
 30
0.0
 10
103.4117246586
 20
126.8485581755
 30
0.0
 10
103.4153226664
 20
126.8483103244
 30
0.0
  0
ELLIPSE
  5
2DB
100
AcDbEntity
  8
0
100
AcDbEllipse
 62
7
  6
CONTINUOUS
 10
207.3852832125
 20
101.9623472186
 30
0.0
 11
0.0057244195
 21
0.7504246482
 31
0.0
 40
0.0343364522
 41
-3.1257256353
 42
-1.8623548895
  0
ELLIPSE
  5
2DC
100
AcDbEntity
  8
0
100
AcDbEllipse
 62
7
  6
CONTINUOUS
 10
235.0772486542
 20
123.6966689169
 30
0.0
 11
0.0057335798
 21
0.7500869918
 31
0.0
 40
0.034351939
 41
0.0158748257
 42
0.9332071339
  0
ELLIPSE
  5
2DD
100
AcDbEntity
  8
0
100
AcDbEllipse
 62
7
  6
CONTINUOUS
 10
228.1849646858
 20
120.5750291613
 30
0.0
 11
0.0057335801
 21
0.750086992
 31
0.0
 40
0.0343519384
 41
0.0158748254
 42
0.9332071378
  0
ELLIPSE
  5
2DE
100
AcDbEntity
  8
0
100
AcDbEllipse
 62
7
  6
CONTINUOUS
 10
214.4039483794
 20
114.3333582477
 30
0.0
 11
0.0057335801
 21
0.750086992
 31
0.0
 40
0.0343519384
 41
0.0158748254
 42
1.5688861873
  0
ELLIPSE
  5
2DF
100
AcDbEntity
  8
0
100
AcDbEllipse
 62
7
  6
CONTINUOUS
 10
207.5081159376
 20
111.2101113245
 30
0.0
 11
0.0057335801
 21
0.750086992
 31
0.0
 40
0.0343519384
 41
0.0158748254
 42
1.5688861873
  0
ENDSEC
  0
SECTION
  2
OBJECTS
  0
DICTIONARY
  5
C
100
AcDbDictionary
280
0
281
1
  3
ACAD_GROUP
350
D
  3
ACAD_MLINESTYLE
350
17
  3
ACAD_LAYOUT
350
1A
  3
ACAD_PLOTSETTINGS
350
19
  3
ACAD_PLOTSTYLENAME
350
E
  3
ACAD_TABLESTYLE
350
       2E0
  0
DICTIONARY
  5
D
102
{ACAD_REACTORS
330
C
102
}
100
AcDbDictionary
280
0
281
1
  0
ACDBDICTIONARYWDFLT
  5
E
102
{ACAD_REACTORS
330
C
102
}
100
AcDbDictionary
281
1
  3
Normal
350
F
100
AcDbDictionaryWithDefault
340
F
  0
DICTIONARY
  5
17
102
{ACAD_REACTORS
330
C
102
}
100
AcDbDictionary
280
0
281
1
  3
Standard
350
18
  0
DICTIONARY
  5
2E0
330
C
100
AcDbDictionary
281
1
  3
Standard
350
       2E3
  3
Standard1
350
       2E4
  0
DICTIONARY
  5
19
102
{ACAD_REACTORS
330
C
102
}
100
AcDbDictionary
281
1
  0
DICTIONARY
  5
1A
102
{ACAD_REACTORS
330
C
102
}
100
AcDbDictionary
281
1
  3
Model
350
2E1
  3
Layout1
350
2E2
  0
ACDBPLACEHOLDER
  5
F
102
{ACAD_REACTORS
330
E
102
}
  0
MLINESTYLE
  5
18
102
{ACAD_REACTORS
330
17
102
}
100
AcDbMlineStyle
  2
STANDARD
 70
0
  3

 62
256
 51
90.0
 52
90.0
 71
2
 49
0.5
 62
256
  6
BYLAYER
 49
-0.5
 62
256
  6
BYLAYER
  0
LAYOUT
  5
2E1
102
{ACAD_REACTORS
330
1A
102
}
100
AcDbPlotSettings
  1

  2
none_device
  4
ISO_A4_(297.00_x_210.00_MM)
  6

 40
0.0
 41
0.0
 42
0.0
 43
0.0
 44
297.0
 45
210.0
 46
0.0
 47
0.0
 48
0.0
 49
0.0
140
0.0
141
0.0
142
1.0
143
1.0
 70
1024
 72
1
 73
0
 74
0
  7

 75
0
147
1.0
148
0.0
149
0.0
100
AcDbLayout
  1
Model
 70
0
 71
0
 10
0.0
 20
0.0
 11
297.0
 21
210.0
 12
0.0
 22
0.0
 32
0.0
 14
0.0
 24
0.0
 34
0.0
 15
0.0
 25
0.0
 35
0.0
146
0.0
 13
0.0
 23
0.0
 33
0.0
 16
1.0
 26
0.0
 36
0.0
 17
0.0
 27
1.0
 37
0.0
 76
0
330
215
345
0
346
0
  0
LAYOUT
  5
2E2
102
{ACAD_REACTORS
330
1A
102
}
100
AcDbPlotSettings
  1

  2
none_device
  4
ISO_A4_(297.00_x_210.00_MM)
  6

 40
0.0
 41
0.0
 42
0.0
 43
0.0
 44
297.0
 45
210.0
 46
0.0
 47
0.0
 48
0.0
 49
0.0
140
0.0
141
0.0
142
1.0
143
1.0
 70
0
 72
1
 73
0
 74
0
  7

 75
0
147
1.0
148
0.0
149
0.0
100
AcDbLayout
  1
Layout1
 70
0
 71
1
 10
0.0
 20
0.0
 11
297.0
 21
210.0
 12
0.0
 22
0.0
 32
0.0
 14
0.0
 24
0.0
 34
0.0
 15
0.0
 25
0.0
 35
0.0
146
0.0
 13
0.0
 23
0.0
 33
0.0
 16
1.0
 26
0.0
 36
0.0
 17
0.0
 27
1.0
 37
0.0
 76
0
330
216
345
0
346
0
  0
TABLESTYLE
  5
2E3
102
{ACAD_REACTORS
330
2E0
330
269
102
}
330
2E0
100
AcDbTableStyle
  3
Standard
 70
0
 71
0
 40
0.06
 41
0.06
280
1
281
1
  7
Standard
140
0.18
170
1
 62
0
 63
7
283
0
  7
Standard
140
0.18
170
1
 62
0
 63
7
283
0
  7
Standard
140
0.18
170
1
 62
0
 63
7
283
0
  0
TABLESTYLE
  5
2E4
102
{ACAD_REACTORS
330
2E0
102
}
330
2E0
100
AcDbTableStyle
  3
Standard1
 70
1
 71
0
 40
0.06
 41
0.06
280
1
281
1
  7
Standard
140
0.18
170
1
 62
0
 63
7
283
0
  7
Standard
140
0.18
170
1
 62
0
 63
7
283
0
  7
Standard
140
0.18
170
1
 62
0
 63
7
283
0
  0
ENDSEC
  0
EOF
