999
DXF file: O:\ORAC_PRODUCTEN\ORAC_LIJN6\R-Type\R52\r52-prod-inches.dxf
999
Pro/ENGINEER 2016130 by Parametric Technology Corporation
  0
SECTION
  2
HEADER
  9
$ACADVER
  1
AC1024
  9
$DWGCODEPAGE
  3
ANSI_1250
  9
$EXTMAX
 10
297.0
 20
210.0
 30
0.0
  9
$EXTMIN
 10
0.0
 20
0.0
 30
0.0
  9
$LIMMIN
 10
0.0
 20
0.0
  9
$LIMMAX
 10
297.0
 20
210.0
  9
$VIEWCTR
 10
148.5
 20
105.0
  9
$VIEWSIZE
 40
210.0
  9
$CLAYER
  8
0
  9
$LTSCALE
 40
16.335
  9
$CELTYPE
  6
BYLAYER
  9
$DIMSCALE
 40
1.0
  9
$DIMASZ
 40
3.5
  9
$DIMEXO
 40
1.0
  9
$DIMDLI
 40
11.286
  9
$DIMEXE
 40
1.5
  9
$DIMCEN
 40
2.673
  9
$DIMLFAC
 40
5.0
  9
$DIMBLK
  1
_FILLED
  9
$DIMALT
 70
0
  9
$DIMALTF
 40
0.0393700787
  9
$DIMTXT
 40
2.5
  9
$DIMTOL
 70
1
  9
$DIMLIM
 70
0
  9
$DIMTFAC
 40
1.0
  9
$DIMTP
 40
0.001
  9
$DIMTM
 40
0.001
  9
$DIMGAP
 40
0.625
  9
$DIMDSEP
 70
44
  9
$AUNITS
 70
0
  9
$PDMODE
 70
3
  9
$PDSIZE
 40
8.0
  9
$HANDSEED
  5
2B0
  9
$TILEMODE
 70
1
  9
$MEASUREMENT
 70
1
  9
$INSUNITS
 70
4
  0
ENDSEC
  0
SECTION
  2
CLASSES
  0
CLASS
  1
ACDBDICTIONARYWDFLT
  2
AcDbDictionaryWithDefault
  3
AutoCAD 2000
 90
0
 91
1
280
0
281
0
  0
CLASS
  1
ACDBPLACEHOLDER
  2
AcDbPlaceHolder
  3
AutoCAD 2000
 90
0
 91
1
280
0
281
0
  0
CLASS
  1
LAYOUT
  2
AcDbLayout
  3
AutoCAD 2000
 90
0
 91
0
280
0
281
0
  0
CLASS
  1
TABLESTYLE
  2
AcDbTableStyle
  3
ObjectDBX Classes
 90
2047
 91
1
280
0
281
0
  0
CLASS
  1
ACAD_TABLE
  2
AcDbTable
  3
ObjectDBX Classes
 90
1025
 91
1
280
0
281
1
  0
ENDSEC
  0
SECTION
  2
TABLES
  0
TABLE
  2
VPORT
  5
8
100
AcDbSymbolTable
 70
2
  0
VPORT
  5
1F4
100
AcDbSymbolTableRecord
100
AcDbViewportTableRecord
  2
*ACTIVE
 70
0
 10
0.0
 20
0.0
 11
1.0
 21
1.0
 12
148.5
 22
105.0
 13
0.0
 23
0.0
 14
1.0
 24
1.0
 15
0.0
 25
0.0
 16
0.0
 26
0.0
 36
1.0
 17
0.0
 27
0.0
 37
0.0
 40
210.0
 41
1.4142857143
 42
50.0
 43
0.0
 44
0.0
 50
0.0
 51
0.0
 71
0
 72
100
 73
1
 74
1
 75
0
 76
0
 77
0
 78
0
  0
ENDTAB
  0
TABLE
  2
LTYPE
  5
5
100
AcDbSymbolTable
 70
6
  0
LTYPE
  5
14
100
AcDbSymbolTableRecord
100
AcDbLinetypeTableRecord
  2
BYBLOCK
 70
0
  3

 72
65
 73
0
 40
0.0
  0
LTYPE
  5
15
100
AcDbSymbolTableRecord
100
AcDbLinetypeTableRecord
  2
BYLAYER
 70
0
  3

 72
65
 73
0
 40
0.0
  0
LTYPE
  5
16
100
AcDbSymbolTableRecord
100
AcDbLinetypeTableRecord
  2
CONTINUOUS
 70
64
  3
Solid line
 72
65
 73
0
 40
0.0
  0
LTYPE
  5
1F5
100
AcDbSymbolTableRecord
100
AcDbLinetypeTableRecord
  2
CENTER
 70
64
  3
____ _ ____ _ ____ _ ____ _ ____ _ ____ _ ____
 72
65
 73
4
 40
0.6
 49
0.375
 74
0
 49
-0.075
 74
0
 49
0.075
 74
0
 49
-0.075
 74
0
  0
LTYPE
  5
1F6
100
AcDbSymbolTableRecord
100
AcDbLinetypeTableRecord
  2
HIDDEN
 70
64
  3
- - - - - - - - - - - - - - - - - - - -
 72
65
 73
2
 40
0.2
 49
0.1
 74
0
 49
-0.1
 74
0
  0
LTYPE
  5
1F7
100
AcDbSymbolTableRecord
100
AcDbLinetypeTableRecord
  2
PHANTOM
 70
64
  3
_____ _ _ _____ _ _ _____ _ _ _____
 72
65
 73
6
 40
0.8
 49
0.45
 74
0
 49
-0.05
 74
0
 49
0.1
 74
0
 49
-0.05
 74
0
 49
0.1
 74
0
 49
-0.05
 74
0
  0
LTYPE
  5
1F8
100
AcDbSymbolTableRecord
100
AcDbLinetypeTableRecord
  2
DOT
 70
64
  3
. . . . . . . . . . . . . . . . . . . .
 72
65
 73
2
 40
0.2
 49
0.1
 74
0
 49
-0.1
 74
0
  0
LTYPE
  5
1F9
100
AcDbSymbolTableRecord
100
AcDbLinetypeTableRecord
  2
DASHED
 70
64
  3
- - - - - - - - - - - - - - - - - - - -
 72
65
 73
2
 40
0.2
 49
0.1
 74
0
 49
-0.1
 74
0
  0
ENDTAB
  0
TABLE
  2
LAYER
  5
2
100
AcDbSymbolTable
 70
36
  0
LAYER
  5
10
100
AcDbSymbolTableRecord
100
AcDbLayerTableRecord
  2
0
 70
0
 62
7
  6
CONTINUOUS
370
-3
390
F
  0
LAYER
  5
1FA
100
AcDbSymbolTableRecord
100
AcDbLayerTableRecord
  2
DEFAULT_1
 70
0
 62
7
  6
CENTER
370
-3
390
F
  0
LAYER
  5
1FB
100
AcDbSymbolTableRecord
100
AcDbLayerTableRecord
  2
DEFAULT_2
 70
0
 62
8
  6
HIDDEN
370
-3
390
F
  0
LAYER
  5
1FC
100
AcDbSymbolTableRecord
100
AcDbLayerTableRecord
  2
DEFAULT_3
 70
0
 62
7
  6
PHANTOM
370
-3
390
F
  0
LAYER
  5
1FD
100
AcDbSymbolTableRecord
100
AcDbLayerTableRecord
  2
DTM_ALL
 70
0
 62
7
  6
CONTINUOUS
370
-3
390
F
  0
LAYER
  5
1FE
100
AcDbSymbolTableRecord
100
AcDbLayerTableRecord
  2
DTM_AXIS
 70
0
 62
7
  6
CONTINUOUS
370
-3
390
F
  0
LAYER
  5
1FF
100
AcDbSymbolTableRecord
100
AcDbLayerTableRecord
  2
DTM_CSYS
 70
0
 62
7
  6
CONTINUOUS
370
-3
390
F
  0
LAYER
  5
200
100
AcDbSymbolTableRecord
100
AcDbLayerTableRecord
  2
DTM_CURVE
 70
0
 62
7
  6
CONTINUOUS
370
-3
390
F
  0
LAYER
  5
201
100
AcDbSymbolTableRecord
100
AcDbLayerTableRecord
  2
DTM_MASTER
 70
0
 62
7
  6
CONTINUOUS
370
-3
390
F
  0
LAYER
  5
202
100
AcDbSymbolTableRecord
100
AcDbLayerTableRecord
  2
DTM_POINT
 70
0
 62
7
  6
CONTINUOUS
370
-3
390
F
  0
LAYER
  5
203
100
AcDbSymbolTableRecord
100
AcDbLayerTableRecord
  2
DTM_QUILT
 70
0
 62
7
  6
CONTINUOUS
370
-3
390
F
  0
LAYER
  5
204
100
AcDbSymbolTableRecord
100
AcDbLayerTableRecord
  2
GTOL
 70
0
 62
7
  6
CONTINUOUS
370
-3
390
F
  0
LAYER
  5
205
100
AcDbSymbolTableRecord
100
AcDbLayerTableRecord
  2
NOTES
 70
0
 62
7
  6
CONTINUOUS
370
-3
390
F
  0
ENDTAB
  0
TABLE
  2
STYLE
  5
3
100
AcDbSymbolTable
 70
1
  0
STYLE
  5
11
100
AcDbSymbolTableRecord
100
AcDbTextStyleTableRecord
  2
STANDARD
 70
0
 40
0.0
 41
1.0
 50
0.0
 71
0
 42
0.2
  3
cgtime.ttf
  4

  0
STYLE
  5
206
100
AcDbSymbolTableRecord
100
AcDbTextStyleTableRecord
  2
TEXTSTYLE_1
 70
0
 40
0.0
 41
0.8
 50
0.0
 71
0
 42
0.2
  3
gdt
  4

  0
STYLE
  5
207
100
AcDbSymbolTableRecord
100
AcDbTextStyleTableRecord
  2
TEXTSTYLE_2
 70
0
 40
0.0
 41
0.85
 50
0.0
 71
0
 42
0.2
  3
gdt
  4

  0
STYLE
  5
208
100
AcDbSymbolTableRecord
100
AcDbTextStyleTableRecord
  2
TEXTSTYLE_3
 70
0
 40
0.0
 41
1.0
 50
0.0
 71
0
 42
0.2
  3
trium.ttf
  4

  0
STYLE
  5
209
100
AcDbSymbolTableRecord
100
AcDbTextStyleTableRecord
  2
TEXTSTYLE_4
 70
0
 40
0.0
 41
1.0
 50
0.0
 71
0
 42
0.2
  3
calibri.ttf
  4

  0
ENDTAB
  0
TABLE
  2
VIEW
  5
6
100
AcDbSymbolTable
 70
0
  0
ENDTAB
  0
TABLE
  2
UCS
  5
7
100
AcDbSymbolTable
 70
0
  0
ENDTAB
  0
TABLE
  2
APPID
  5
9
100
AcDbSymbolTable
 70
1
  0
APPID
  5
20A
100
AcDbSymbolTableRecord
100
AcDbRegAppTableRecord
  2
ACAD
 70
0
  0
ENDTAB
  0
TABLE
  2
BLOCK_RECORD
  5
1
100
AcDbSymbolTable
 70
0
  0
BLOCK_RECORD
  5
20B
100
AcDbSymbolTableRecord
100
AcDbBlockTableRecord
  2
*Model_Space
  0
BLOCK_RECORD
  5
20C
100
AcDbSymbolTableRecord
100
AcDbBlockTableRecord
  2
*Paper_Space
  0
BLOCK_RECORD
  5
20D
100
AcDbSymbolTableRecord
100
AcDbBlockTableRecord
  2
_FILLED
  0
BLOCK_RECORD
  5
20E
100
AcDbSymbolTableRecord
100
AcDbBlockTableRecord
  2
*D0
  0
BLOCK_RECORD
  5
20F
100
AcDbSymbolTableRecord
100
AcDbBlockTableRecord
  2
*D1
  0
BLOCK_RECORD
  5
210
100
AcDbSymbolTableRecord
100
AcDbBlockTableRecord
  2
*T1
  0
ENDTAB
  0
TABLE
  2
DIMSTYLE
  5
A
100
AcDbSymbolTable
 70
1
100
AcDbDimStyleTable
 71
0
  0
DIMSTYLE
105
211
100
AcDbSymbolTableRecord
100
AcDbDimStyleTableRecord
  2
STANDARD
 70
0
  3

  4

 40
1.0
 41
3.5
 42
1.0
 43
0.38
 44
1.5
 45
0.0
 46
0.0
 47
0.001
 48
0.001
140
2.5
141
0.09
142
0.0
143
25.4
144
1.0
145
0.0
146
1.0
147
0.625
 71
1.0
 72
0.0
 73
1
 74
1
 75
0
 76
0
 77
0
 78
8
170
0
171
2
172
0
173
0
174
0
175
0
176
0
177
0
178
0
270
2
271
3
272
3
273
2
274
2
275
0
280
0
281
0
282
0
283
1
284
8
285
0
286
0
287
3
288
0
340
11
278
44
341
20D
342
20D
343
20D
344
20D
  0
DIMSTYLE
105
212
100
AcDbSymbolTableRecord
100
AcDbDimStyleTableRecord
  2
DIMSTYLE_1
 70
0
  3

  4

 40
1.0
 41
3.5
 42
1.0
 43
0.38
 44
1.5
 45
0.0
 46
0.0
 47
0.0
 48
0.0
140
2.5
141
0.09
142
0.0
143
25.4
144
5.0
145
0.0
146
1.0
147
1.25
 71
0.0
 72
0.0
 73
1
 74
1
 75
0
 76
0
 77
0
 78
8
170
0
171
2
172
0
173
0
174
0
175
0
176
0
177
0
178
0
270
2
271
3
272
3
273
2
274
2
275
0
280
0
281
0
282
0
283
1
284
8
285
0
286
0
287
3
288
0
340
11
278
44
341
20D
342
20D
343
20D
344
20D
  0
ENDTAB
  0
ENDSEC
  0
SECTION
  2
BLOCKS
  0
BLOCK
  5
20
100
AcDbEntity
  8
0
100
AcDbBlockBegin
  2
*Model_Space
 70
0
 10
0.0
 20
0.0
 30
0.0
  3
*Model_Space
  1

  0
ENDBLK
  5
21
100
AcDbEntity
  8
0
100
AcDbBlockEnd
  0
BLOCK
  5
1C
100
AcDbEntity
  8
0
100
AcDbBlockBegin
  2
*Paper_Space
 70
0
 10
0.0
 20
0.0
 30
0.0
  3
*Paper_Space
  1

  0
ENDBLK
  5
1D
100
AcDbEntity
  8
0
100
AcDbBlockEnd
  0
BLOCK
  5
213
100
AcDbEntity
  8
0
100
AcDbBlockBegin
  2
_FILLED
 70
64
 10
0.0
 20
0.0
  3
_FILLED
  1

  0
SOLID
  5
214
100
AcDbEntity
  8
0
  6
BYBLOCK
 62
0
100
AcDbTrace
 10
0.0
 20
0.0
 11
-1.0
 21
0.2142857143
 12
-1.0
 22
-0.2142857143
 13
-1.0
 23
-0.2142857143
  0
ENDBLK
  5
215
100
AcDbEntity
  8
0
  6
BYBLOCK
 62
0
100
AcDbBlockEnd
  0
BLOCK
  5
216
100
AcDbEntity
  8
0
100
AcDbBlockBegin
 62
2
  6
CONTINUOUS
  2
*D0
 70
65
 10
0.0
 20
0.0
  3
*D0
  1

  0
TEXT
  5
217
100
AcDbEntity
  8
0
100
AcDbText
 62
2
  6
CONTINUOUS
 10
33.8215862894
 20
168.0056830552
  7
STANDARD
 40
2.5
  1
48
 72
5
 11
37.4597185851
 21
168.0056830552
100
AcDbText
  0
TEXT
  5
218
100
AcDbEntity
  8
0
100
AcDbText
 62
2
  6
CONTINUOUS
 10
37.4597185851
 20
168.0056830552
  7
STANDARD
 40
2.5
  1
mm
 72
5
 11
43.1309248108
 21
168.0056830552
100
AcDbText
  0
TEXT
  5
219
100
AcDbEntity
  8
0
100
AcDbText
 62
2
  6
CONTINUOUS
 10
33.8215862894
 20
164.2556830552
  7
STANDARD
 40
2.5
  1
1-7/8"
 72
5
 11
43.3935707252
 21
164.2556830552
100
AcDbText
  0
LINE
  5
21A
100
AcDbEntity
  8
0
100
AcDbLine
 62
2
  6
CONTINUOUS
 10
87.3405345088
 20
160.4107201043
 11
26.3215862894
 21
160.4107201043
  0
LINE
  5
21B
100
AcDbEntity
  8
0
100
AcDbLine
 62
2
  6
CONTINUOUS
 10
36.3311544121
 20
151.96516309
 11
26.3215862894
 21
151.96516309
  0
LINE
  5
21C
100
AcDbEntity
  8
0
100
AcDbLine
 62
2
  6
CONTINUOUS
 10
27.8215862894
 20
160.4107201043
 11
27.8215862894
 21
169.2556830552
  0
LINE
  5
21D
100
AcDbEntity
  8
0
100
AcDbLine
 62
2
  6
CONTINUOUS
 10
27.8215862894
 20
169.2556830552
 11
32.5715862894
 21
169.2556830552
  0
LINE
  5
21E
100
AcDbEntity
  8
0
100
AcDbLine
 62
2
  6
CONTINUOUS
 10
27.8215862894
 20
151.96516309
 11
27.8215862894
 21
146.96516309
  0
INSERT
  5
21F
100
AcDbEntity
  8
0
100
AcDbBlockReference
 62
2
  6
CONTINUOUS
  2
_FILLED
 10
27.8215862894
 20
160.4107201043
 41
3.5
 42
3.5
 43
3.5
 50
270.0
  0
INSERT
  5
220
100
AcDbEntity
  8
0
100
AcDbBlockReference
 62
2
  6
CONTINUOUS
  2
_FILLED
 10
27.8215862894
 20
151.96516309
 41
3.5
 42
3.5
 43
3.5
 50
90.0
  0
ENDBLK
  5
221
100
AcDbEntity
  8
0
  6
BYBLOCK
 62
0
100
AcDbBlockEnd
  0
BLOCK
  5
222
100
AcDbEntity
  8
0
100
AcDbBlockBegin
 62
2
  6
CONTINUOUS
  2
*D1
 70
65
 10
0.0
 20
0.0
  3
*D1
  1

  0
TEXT
  5
223
100
AcDbEntity
  8
0
100
AcDbText
 62
2
  6
CONTINUOUS
 10
100.2752854108
 20
143.0809465108
  7
TEXTSTYLE_2
 40
2.5
  1
n
 72
5
 11
103.6086187441
 21
143.0809465108
100
AcDbText
  0
TEXT
  5
224
100
AcDbEntity
  8
0
100
AcDbText
 62
2
  6
CONTINUOUS
 10
103.6086187441
 20
143.0809465108
  7
STANDARD
 40
2.5
  1
695
 72
5
 11
109.0658171877
 21
143.0809465108
100
AcDbText
  0
TEXT
  5
225
100
AcDbEntity
  8
0
100
AcDbText
 62
2
  6
CONTINUOUS
 10
109.0658171877
 20
143.0809465108
  7
STANDARD
 40
2.5
  1
mm
 72
5
 11
114.7370234134
 21
143.0809465108
100
AcDbText
  0
TEXT
  5
226
100
AcDbEntity
  8
0
100
AcDbText
 62
2
  6
CONTINUOUS
 10
101.8106291203
 20
139.3309465108
  7
STANDARD
 40
2.5
  1
27-3/8"
 72
5
 11
113.2016797039
 21
139.3309465108
100
AcDbText
  0
LINE
  5
227
100
AcDbEntity
  8
0
100
AcDbLine
 62
2
  6
CONTINUOUS
 10
37.3311544121
 20
150.96516309
 11
37.3311544121
 21
142.8309465108
  0
LINE
  5
228
100
AcDbEntity
  8
0
100
AcDbLine
 62
2
  6
CONTINUOUS
 10
177.6811544121
 20
150.96516309
 11
177.6811544121
 21
142.8309465108
  0
LINE
  5
229
100
AcDbEntity
  8
0
100
AcDbLine
 62
2
  6
CONTINUOUS
 10
37.3311544121
 20
144.3309465108
 11
99.0252854108
 21
144.3309465108
  0
LINE
  5
22A
100
AcDbEntity
  8
0
100
AcDbLine
 62
2
  6
CONTINUOUS
 10
177.6811544121
 20
144.3309465108
 11
115.9870234134
 21
144.3309465108
  0
INSERT
  5
22B
100
AcDbEntity
  8
0
100
AcDbBlockReference
 62
2
  6
CONTINUOUS
  2
_FILLED
 10
37.3311544121
 20
144.3309465108
 41
3.5
 42
3.5
 43
3.5
 50
180.0
  0
INSERT
  5
22C
100
AcDbEntity
  8
0
100
AcDbBlockReference
 62
2
  6
CONTINUOUS
  2
_FILLED
 10
177.6811544121
 20
144.3309465108
 41
3.5
 42
3.5
 43
3.5
  0
ENDBLK
  5
22D
100
AcDbEntity
  8
0
  6
BYBLOCK
 62
0
100
AcDbBlockEnd
  0
BLOCK
  5
22E
100
AcDbEntity
  8
0
100
AcDbBlockBegin
  2
*T1
 70
1
 10
0.0
 20
0.0
  3
*T1
  1

  0
LINE
  5
22F
100
AcDbEntity
  8
0
100
AcDbLine
 62
7
  6
CONTINUOUS
 10
0.0
 20
0.0
 11
148.0
 21
0.0
  0
LINE
  5
230
100
AcDbEntity
  8
0
100
AcDbLine
 62
7
  6
CONTINUOUS
 10
0.0
 20
0.0
 11
0.0
 21
-43.0
  0
LINE
  5
231
100
AcDbEntity
  8
0
100
AcDbLine
 62
7
  6
CONTINUOUS
 10
45.0
 20
-23.0
 11
148.0
 21
-23.0
  0
LINE
  5
232
100
AcDbEntity
  8
0
100
AcDbLine
 62
7
  6
CONTINUOUS
 10
45.0
 20
-28.0
 11
148.0
 21
-28.0
  0
LINE
  5
233
100
AcDbEntity
  8
0
100
AcDbLine
 62
7
  6
CONTINUOUS
 10
0.0
 20
-43.0
 11
148.0
 21
-43.0
  0
LINE
  5
234
100
AcDbEntity
  8
0
100
AcDbLine
 62
7
  6
CONTINUOUS
 10
45.0
 20
0.0
 11
45.0
 21
-43.0
  0
LINE
  5
235
100
AcDbEntity
  8
0
100
AcDbLine
 62
7
  6
CONTINUOUS
 10
143.0
 20
0.0
 11
143.0
 21
-23.0
  0
LINE
  5
236
100
AcDbEntity
  8
0
100
AcDbLine
 62
7
  6
CONTINUOUS
 10
148.0
 20
0.0
 11
148.0
 21
-43.0
  0
TEXT
  5
237
100
AcDbEntity
  8
0
100
AcDbText
 62
7
  6
CONTINUOUS
 10
8.9659749243
 20
-10.675
  7
STANDARD
 40
8.0
  1
O
 72
5
 11
17.370644185
 21
-10.675
100
AcDbText
  0
TEXT
  5
238
100
AcDbEntity
  8
0
100
AcDbText
 62
7
  6
CONTINUOUS
 10
17.370644185
 20
-10.675
  7
STANDARD
 40
5.5
  1
RAC
 72
5
 11
33.9562472979
 21
-10.675
100
AcDbText
  0
TEXT
  5
239
100
AcDbEntity
  8
0
100
AcDbText
 62
7
  6
CONTINUOUS
 10
33.9562472979
 20
-5.925
  7
TEXTSTYLE_3
 40
3.0
  1
®
 72
5
 11
36.0340250757
 21
-5.925
100
AcDbText
  0
TEXT
  5
23A
100
AcDbEntity
  8
0
100
AcDbText
 62
7
  6
CONTINUOUS
 10
9.5323389537
 20
-15.325
  7
TEXTSTYLE_3
 40
3.0
  1
D  E  C  O  R
 72
5
 11
34.3878945093
 21
-15.325
100
AcDbText
  0
TEXT
  5
23B
100
AcDbEntity
  8
0
100
AcDbText
 62
7
  6
CONTINUOUS
 10
34.3878945093
 20
-15.325
  7
STANDARD
 40
2.5
  1
 
 72
5
 11
35.4676610463
 21
-15.325
100
AcDbText
  0
TEXT
  5
23C
100
AcDbEntity
  8
0
100
AcDbText
 62
7
  6
CONTINUOUS
 10
52.5257352941
 20
-6.0
  7
TEXTSTYLE_4
 40
2.75
  1
Part name:
 72
5
 11
71.9375
 21
-6.0
100
AcDbText
  0
TEXT
  5
23D
100
AcDbEntity
  8
0
100
AcDbText
 62
7
  6
CONTINUOUS
 10
49.2788865546
 20
-12.875
  7
TEXTSTYLE_4
 40
2.75
  1
Designed by:
 72
5
 11
71.9375
 21
-12.875
100
AcDbText
  0
TEXT
  5
23E
100
AcDbEntity
  8
0
100
AcDbText
 62
7
  6
CONTINUOUS
 10
48.9553571429
 20
-19.75
  7
TEXTSTYLE_4
 40
2.75
  1
Designed on:
 72
5
 11
71.9375
 21
-19.75
100
AcDbText
  0
TEXT
  5
23F
100
AcDbEntity
  8
0
100
AcDbText
 62
2
  6
CONTINUOUS
 10
74.0625
 20
-6.0
  7
TEXTSTYLE_4
 40
2.75
  1
R52
 72
5
 11
80.8103991597
 21
-6.0
100
AcDbText
  0
TEXT
  5
240
100
AcDbEntity
  8
0
100
AcDbText
 62
2
  6
CONTINUOUS
 10
74.0625
 20
-12.875
  7
TEXTSTYLE_4
 40
2.75
  1
ORAC
 72
5
 11
84.1034663866
 21
-12.875
100
AcDbText
  0
TEXT
  5
241
100
AcDbEntity
  8
0
100
AcDbText
 62
2
  6
CONTINUOUS
 10
74.0625
 20
-19.75
  7
TEXTSTYLE_4
 40
2.75
  1
01-Jan-2004
 72
5
 11
95.6349789916
 21
-19.75
100
AcDbText
  0
TEXT
  5
242
100
AcDbEntity
  8
0
100
AcDbText
 62
2
  6
CONTINUOUS
 10
95.6349789916
 20
-19.75
  7
TEXTSTYLE_4
 40
2.75
  1
 
 72
5
 11
96.6171218487
 21
-19.75
100
AcDbText
  0
TEXT
  5
243
100
AcDbEntity
  8
0
100
AcDbText
 62
2
  6
CONTINUOUS
 10
146.5625
 20
-17.5
  7
TEXTSTYLE_4
 40
1.5
  1
Version: 
 50
90.0
 72
5
 11
146.5625
 21
-9.0294117647
100
AcDbText
  0
TEXT
  5
244
100
AcDbEntity
  8
0
100
AcDbText
 62
2
  6
CONTINUOUS
 10
146.5625
 20
-9.0294117647
  7
TEXTSTYLE_4
 40
1.5
  1
1.0
 50
90.0
 72
5
 11
146.5625
 21
-6.0357142857
100
AcDbText
  0
TEXT
  5
245
100
AcDbEntity
  8
0
100
AcDbText
 62
2
  6
CONTINUOUS
 10
146.5625
 20
-6.0357142857
  7
TEXTSTYLE_4
 40
1.5
  1
 
 50
90.0
 72
5
 11
146.5625
 21
-5.5
100
AcDbText
  0
TEXT
  5
246
100
AcDbEntity
  8
0
100
AcDbText
 62
7
  6
CONTINUOUS
 10
9.6586134454
 20
-24.25
  7
TEXTSTYLE_4
 40
2.5
  1
Biekorfstraat 32
 72
5
 11
35.3413865546
 21
-24.25
100
AcDbText
  0
TEXT
  5
247
100
AcDbEntity
  8
0
100
AcDbText
 62
7
  6
CONTINUOUS
 10
2.2584033613
 20
-28.0
  7
TEXTSTYLE_4
 40
2.5
  1
8400 Oostende - Belgium
 72
5
 11
42.7415966387
 21
-28.0
100
AcDbText
  0
TEXT
  5
248
100
AcDbEntity
  8
0
100
AcDbText
 62
7
  6
CONTINUOUS
 10
4.2699579832
 20
-31.75
  7
TEXTSTYLE_4
 40
2.5
  1
Tel  +32 (0)59 80 32 52
 72
5
 11
40.7300420168
 21
-31.75
100
AcDbText
  0
TEXT
  5
249
100
AcDbEntity
  8
0
100
AcDbText
 62
7
  6
CONTINUOUS
 10
5.7405462185
 20
-35.5
  7
TEXTSTYLE_4
 40
2.5
  1
www.oracdecor.com
 72
5
 11
39.2594537815
 21
-35.5
100
AcDbText
  0
TEXT
  5
24A
100
AcDbEntity
  8
0
100
AcDbText
 62
7
  6
CONTINUOUS
 10
5.5777310924
 20
-39.25
  7
TEXTSTYLE_4
 40
2.5
  1
info@oracdecor.com
 72
5
 11
39.4222689076
 21
-39.25
100
AcDbText
  0
TEXT
  5
24B
100
AcDbEntity
  8
0
100
AcDbText
 62
7
  6
CONTINUOUS
 10
46.0625
 20
-26.75
  7
TEXTSTYLE_4
 40
2.5
  1
All dimensions are in mm unless otherwise specified   
 72
5
 11
132.3019957983
 21
-26.75
100
AcDbText
  0
TEXT
  5
24C
100
AcDbEntity
  8
0
100
AcDbText
 62
7
  6
CONTINUOUS
 10
46.0625
 20
-31.7075
  7
TEXTSTYLE_4
 40
1.85
  1
All information in this document is Orac's exclusive property.  It may in no case 
 72
5
 11
140.0471638655
 21
-31.7075
100
AcDbText
  0
TEXT
  5
24D
100
AcDbEntity
  8
0
100
AcDbText
 62
7
  6
CONTINUOUS
 10
46.0625
 20
-34.8525
  7
TEXTSTYLE_4
 40
1.85
  1
be reproduced, even partly, be communicated to a third party or used for any 
 72
5
 11
138.8345588235
 21
-34.8525
100
AcDbText
  0
TEXT
  5
24E
100
AcDbEntity
  8
0
100
AcDbText
 62
7
  6
CONTINUOUS
 10
46.0625
 20
-37.9975
  7
TEXTSTYLE_4
 40
1.85
  1
possible purpose without ORAC's express written permission. 
 72
5
 11
119.4484243697
 21
-37.9975
100
AcDbText
  0
TEXT
  5
24F
100
AcDbEntity
  8
0
100
AcDbText
 62
7
  6
CONTINUOUS
 10
46.0625
 20
-41.1425
  7
TEXTSTYLE_4
 40
1.85
  1
Further legal information can be found at http://www.oracdecor.be/nl/disclaimer 
 72
5
 11
143.7316176471
 21
-41.1425
100
AcDbText
  0
ENDBLK
  5
250
100
AcDbEntity
  8
0
  6
BYBLOCK
 62
0
100
AcDbBlockEnd
  0
ENDSEC
  0
SECTION
  2
ENTITIES
  0
DIMENSION
  5
251
100
AcDbEntity
  8
0
100
AcDbDimension
 62
2
  6
CONTINUOUS
  2
*D0
 10
27.8215862894
 20
151.96516309
 11
38.6075785073
 21
167.3806830552
 70
160
 71
1
 42
42.2277850711
  1
<>mm\P1-7/8"
  3
DIMSTYLE_1
100
AcDbAlignedDimension
 13
88.3405345088
 23
160.4107201043
 14
37.3311544121
 24
151.96516309
 50
270.0
100
AcDbRotatedDimension
  0
DIMENSION
  5
252
100
AcDbEntity
  8
0
100
AcDbDimension
 62
2
  6
CONTINUOUS
  2
*D1
 10
177.6811544121
 20
144.3309465108
 11
107.5061544121
 21
142.4559465108
 70
160
 71
2
 42
701.75
  1
%%c<>mm\P27-3/8"
  3
DIMSTYLE_1
100
AcDbAlignedDimension
 13
37.3311544121
 23
151.96516309
 14
177.6811544121
 24
151.96516309
100
AcDbRotatedDimension
  0
ACAD_TABLE
  5
253
100
AcDbEntity
  8
0
 62
2
  6
CONTINUOUS
100
AcDbBlockReference
  2
*T1
 10
143.9999958937
 20
47.9999925619
 30
0.0
100
AcDbTable
342
       2AE
343
210
 11
1.0
 21
0.0
 31
0.0
 90
22
 91
4
 92
4
 93
0
 94
0
 95
0
 96
0
141
18.0
141
5.0
141
5.0
141
15.0
142
45.0
142
28.0
142
70.0
142
5.0
171
1
172
0
173
0
174
0
175
1
176
1
 91
41
178
0
145
0.0
301
CELL_VALUE
 90
4
  1
\A1;O\H5.5;RAC\Ftrium.ttf;\H3.0;\S®^ ;\PD  E  C  O  R\Fcgtime.ttf;\H2.5; 
304
ACVALUE_END
170
5
140
8.0
 64
7
171
1
172
0
173
0
174
0
175
1
176
2
 91
57
178
0
145
0.0
  7
TEXTSTYLE_4
301
CELL_VALUE
 90
4
  1
Part name:\PDesigned by:\PDesigned on:
304
ACVALUE_END
170
6
140
2.75
 64
7
171
1
172
0
173
0
174
0
175
1
176
2
 91
49
178
0
145
0.0
  7
TEXTSTYLE_4
301
CELL_VALUE
 90
4
  1
R52\PORAC\P01-Jan-2004 
304
ACVALUE_END
170
4
140
2.75
171
1
172
0
173
0
174
0
175
1
176
2
 91
49
178
0
145
0.0
  7
TEXTSTYLE_4
301
CELL_VALUE
 90
4
  1
Version: 1.0 
304
ACVALUE_END
170
6
140
1.5
171
1
172
0
173
0
174
0
175
1
176
3
 91
57
178
0
145
0.0
  7
TEXTSTYLE_4
301
CELL_VALUE
 90
4
  1
Biekorfstraat 32\P8400 Oostende - Belgium\PTel  +32 (0)59 80 32 52\Pwww.oracdecor.com\Pinfo@oracdecor.com
304
ACVALUE_END
170
5
140
2.5
 64
7
171
1
172
0
173
1
174
0
175
1
176
1
 91
1
178
0
145
0.0
170
1
171
1
172
0
173
1
174
0
175
1
176
1
 91
1
178
0
145
0.0
170
1
171
1
172
0
173
1
174
0
175
1
176
1
 91
1
178
0
145
0.0
170
1
171
1
172
0
173
1
174
0
175
1
176
1
 91
1
178
0
145
0.0
170
1
171
1
172
0
173
0
174
0
175
3
176
1
 91
57
178
0
145
0.0
  7
TEXTSTYLE_4
301
CELL_VALUE
 90
4
  1
All dimensions are in mm unless otherwise specified   
304
ACVALUE_END
170
1
140
2.5
 64
7
171
1
172
0
173
1
174
0
175
1
176
1
 91
1
178
0
145
0.0
170
1
171
1
172
0
173
1
174
0
175
1
176
1
 91
1
178
0
145
0.0
170
1
171
1
172
0
173
1
174
0
175
1
176
1
 91
1
178
0
145
0.0
170
1
171
1
172
0
173
0
174
0
175
3
176
1
 91
57
178
0
145
0.0
  7
TEXTSTYLE_4
301
CELL_VALUE
 90
4
  2
All information in this document is Orac's exclusive property.  It may in no case \Pbe reproduced, even partly, be communicated to a third party or used for any \Ppossible purpose without ORAC's express written permission. \PFurther legal information
  1
 can be found at http://www.oracdecor.be/nl/disclaimer 
304
ACVALUE_END
170
4
140
1.85
 64
7
171
1
172
0
173
1
174
0
175
1
176
1
 91
1
178
0
145
0.0
170
1
171
1
172
0
173
1
174
0
175
1
176
1
 91
1
178
0
145
0.0
170
1
  0
LINE
  5
254
100
AcDbEntity
  8
0
100
AcDbLine
 62
5
  6
CONTINUOUS
 10
0.0
 20
0.0
 11
0.0
 21
210.0
  0
LINE
  5
255
100
AcDbEntity
  8
0
100
AcDbLine
 62
7
  6
CONTINUOUS
 10
5.0
 20
5.0
 11
5.0
 21
195.0
  0
LINE
  5
256
100
AcDbEntity
  8
0
100
AcDbLine
 62
5
  6
CONTINUOUS
 10
0.0
 20
0.0
 11
297.0
 21
0.0
  0
LINE
  5
257
100
AcDbEntity
  8
0
100
AcDbLine
 62
7
  6
CONTINUOUS
 10
5.0
 20
5.0
 11
292.0
 21
5.0
  0
LINE
  5
258
100
AcDbEntity
  8
0
100
AcDbLine
 62
4
  6
CONTINUOUS
 10
148.5
 20
195.0
 11
148.5
 21
205.0
  0
LINE
  5
259
100
AcDbEntity
  8
0
100
AcDbLine
 62
7
  6
CONTINUOUS
 10
5.0
 20
195.0
 11
292.0
 21
195.0
  0
LINE
  5
25A
100
AcDbEntity
  8
0
100
AcDbLine
 62
5
  6
CONTINUOUS
 10
0.0
 20
210.0
 11
297.0
 21
210.0
  0
LINE
  5
25B
100
AcDbEntity
  8
0
100
AcDbLine
 62
7
  6
CONTINUOUS
 10
292.0
 20
5.0
 11
292.0
 21
195.0
  0
LINE
  5
25C
100
AcDbEntity
  8
0
100
AcDbLine
 62
5
  6
CONTINUOUS
 10
297.0
 20
0.0
 11
297.0
 21
210.0
  0
LINE
  5
25D
100
AcDbEntity
  8
DTM_AXIS
100
AcDbLine
 62
7
  6
CONTINUOUS
 10
127.4718350691
 20
85.7923145954
 11
127.3541446421
 21
84.228104001
  0
LINE
  5
25E
100
AcDbEntity
  8
DTM_AXIS
100
AcDbLine
 62
7
  6
CONTINUOUS
 10
150.7270365527
 20
89.3282639199
 11
150.7496439038
 21
87.7654465907
  0
LINE
  5
25F
100
AcDbEntity
  8
DTM_AXIS
100
AcDbLine
 62
7
  6
CONTINUOUS
 10
244.1502622662
 20
90.679702518
 11
244.1728696173
 21
89.1168851888
  0
LINE
  5
260
100
AcDbEntity
  8
DTM_AXIS
100
AcDbLine
 62
7
  6
CONTINUOUS
 10
267.4980121272
 20
87.8179006205
 11
267.6608988525
 21
86.2577487897
  0
LINE
  5
261
100
AcDbEntity
  8
DTM_AXIS
100
AcDbLine
 62
7
  6
CONTINUOUS
 10
37.4714862284
 20
153.56916309
 11
37.3311544121
 21
151.96516309
  0
LINE
  5
262
100
AcDbEntity
  8
0
100
AcDbLine
 62
7
  6
CONTINUOUS
 10
177.6811544121
 20
151.96516309
 11
37.3311544121
 21
151.96516309
  0
LINE
  5
263
100
AcDbEntity
  8
DTM_AXIS
100
AcDbLine
 62
7
  6
CONTINUOUS
 10
37.4714862284
 20
153.56916309
 11
177.5408225958
 21
153.56916309
  0
LINE
  5
264
100
AcDbEntity
  8
DTM_AXIS
100
AcDbLine
 62
7
  6
CONTINUOUS
 10
175.598895925
 20
155.397664668
 11
39.4195495629
 21
155.397664668
  0
LINE
  5
265
100
AcDbEntity
  8
DTM_AXIS
100
AcDbLine
 62
7
  6
CONTINUOUS
 10
166.3685630308
 20
157.8958284237
 11
48.6437457933
 21
157.8958284237
  0
LINE
  5
266
100
AcDbEntity
  8
DTM_AXIS
100
AcDbLine
 62
7
  6
CONTINUOUS
 10
126.6717743154
 20
160.4107201043
 11
88.3405345088
 21
160.4107201043
  0
LINE
  5
267
100
AcDbEntity
  8
DTM_AXIS
100
AcDbLine
 62
7
  6
CONTINUOUS
 10
177.5408225958
 20
153.56916309
 11
177.6811544121
 21
151.96516309
  0
ARC
  5
268
100
AcDbEntity
  8
DTM_AXIS
100
AcDbCircle
 62
7
  6
CONTINUOUS
 10
252.0632806071
 20
90.0134488118
 40
2.9244676889
100
AcDbArc
 50
356.5603879326
 51
357.3793855897
  0
SPLINE
  5
269
100
AcDbEntity
  8
DTM_AXIS
100
AcDbSpline
 62
7
  6
CONTINUOUS
 70
0
 71
3
 72
17
 73
13
 74
0
 42
0.0000001
 43
0.0000001
 44
0.0000000001
 40
0.0
 40
0.0
 40
0.0
 40
0.0
 40
0.1580783588
 40
0.3135411446
 40
0.4625889102
 40
0.6016180375
 40
0.7273428302
 40
0.8369326383
 40
0.8849739102
 40
0.9282281428
 40
0.9665758752
 40
1.0
 40
1.0
 40
1.0
 40
1.0
 10
196.7380395692
 20
89.4967084943
 30
0.0
 10
197.463033519
 20
89.4986632067
 30
0.0
 10
198.901089481
 20
89.5284558131
 30
0.0
 10
201.019696775
 20
89.6491395523
 30
0.0
 10
203.0452316042
 20
89.8425775333
 30
0.0
 10
204.9257522162
 20
90.1034319322
 30
0.0
 10
206.6130586554
 20
90.4246624494
 30
0.0
 10
207.8733521631
 20
90.7474439074
 30
0.0
 10
208.7486392615
 20
91.0361048338
 30
0.0
 10
209.3028522166
 20
91.2524900704
 30
0.0
 10
209.7807718439
 20
91.476850331
 30
0.0
 10
210.0662275201
 20
91.6421310234
 30
0.0
 10
210.1938775835
 20
91.7270094184
 30
0.0
  0
SPLINE
  5
26A
100
AcDbEntity
  8
DTM_AXIS
100
AcDbSpline
 62
7
  6
CONTINUOUS
 70
0
 71
3
 72
16
 73
12
 74
0
 42
0.0000001
 43
0.0000001
 44
0.0000000001
 40
0.0
 40
0.0
 40
0.0
 40
0.0
 40
0.3169519725
 40
0.4654729872
 40
0.6032641409
 40
0.7276120782
 40
0.8362051569
 40
0.8840295085
 40
0.9273144505
 40
0.9659720048
 40
1.0
 40
1.0
 40
1.0
 40
1.0
 10
196.7380395692
 20
89.4967084943
 30
0.0
 10
195.4340097277
 20
89.4931925985
 30
0.0
 10
193.5176505703
 20
89.5487935362
 30
0.0
 10
191.0440925578
 20
89.7590346077
 30
0.0
 10
189.3674020685
 20
89.9723666975
 30
0.0
 10
187.8650408593
 20
90.2396604385
 30
0.0
 10
186.7412425133
 20
90.5121519512
 30
0.0
 10
185.9570532336
 20
90.758317827
 30
0.0
 10
185.4563757847
 20
90.9446013496
 30
0.0
 10
185.0204043218
 20
91.1393330415
 30
0.0
 10
184.7576491223
 20
91.2832490504
 30
0.0
 10
184.6388752461
 20
91.3573646716
 30
0.0
  0
SPLINE
  5
26B
100
AcDbEntity
  8
DTM_AXIS
100
AcDbSpline
 62
7
  6
CONTINUOUS
 70
0
 71
3
 72
11
 73
7
 74
0
 42
0.0000001
 43
0.0000001
 44
0.0000000001
 40
0.0
 40
0.0
 40
0.0
 40
0.0
 40
0.2784710229
 40
0.5343504852
 40
0.7727241622
 40
1.0
 40
1.0
 40
1.0
 40
1.0
 10
253.1604565987
 20
87.5744831141
 30
0.0
 10
253.3088631488
 20
87.7495737236
 30
0.0
 10
253.5758878821
 20
88.1014483932
 30
0.0
 10
253.8899245183
 20
88.6581565515
 30
0.0
 10
254.0971789658
 20
89.2185045312
 30
0.0
 10
254.163649775
 20
89.5992276971
 30
0.0
 10
254.1776978406
 20
89.7860275589
 30
0.0
  0
SPLINE
  5
26C
100
AcDbEntity
  8
DTM_AXIS
100
AcDbSpline
 62
7
  6
CONTINUOUS
 70
0
 71
3
 72
11
 73
7
 74
0
 42
0.0000001
 43
0.0000001
 44
0.0000000001
 40
0.0
 40
0.0
 40
0.0
 40
0.0
 40
0.27845891
 40
0.5343378609
 40
0.7727177905
 40
1.0
 40
1.0
 40
1.0
 40
1.0
 10
141.810103464
 20
85.9640856274
 30
0.0
 10
141.6567859386
 20
86.1347350912
 30
0.0
 10
141.3798521156
 20
86.4785861519
 30
0.0
 10
141.050002869
 20
87.0257167293
 30
0.0
 10
140.8266845724
 20
87.5795656591
 30
0.0
 10
140.7491955325
 20
87.9580236845
 30
0.0
 10
140.7297158612
 20
88.1442528697
 30
0.0
  0
SPLINE
  5
26D
100
AcDbEntity
  8
DTM_AXIS
100
AcDbSpline
 62
7
  6
CONTINUOUS
 70
0
 71
3
 72
21
 73
17
 74
0
 42
0.0000001
 43
0.0000001
 44
0.0000000001
 40
0.0
 40
0.0
 40
0.0
 40
0.0
 40
0.0272506715
 40
0.0564075539
 40
0.0890186471
 40
0.1261579108
 40
0.16849802
 40
0.2164257486
 40
0.2701337125
 40
0.329681065
 40
0.3950316539
 40
0.4660780591
 40
0.5426571346
 40
0.6245604509
 40
0.8033072996
 40
1.0
 40
1.0
 40
1.0
 40
1.0
 10
249.6775650542
 20
89.7826938033
 30
0.0
 10
249.6811462558
 20
89.535129152
 30
0.0
 10
249.6140679156
 20
89.0192129435
 30
0.0
 10
249.2998062994
 20
88.2658882376
 30
0.0
 10
248.7813398283
 20
87.5252518739
 30
0.0
 10
248.064694577
 20
86.7967483847
 30
0.0
 10
247.1529769569
 20
86.0796310925
 30
0.0
 10
246.0489475817
 20
85.3749621601
 30
0.0
 10
244.7560751077
 20
84.6846483534
 30
0.0
 10
243.2787736501
 20
84.0110713406
 30
0.0
 10
241.622383067
 20
83.3567622627
 30
0.0
 10
239.7930945735
 20
82.7242905349
 30
0.0
 10
237.7978862227
 20
82.116125726
 30
0.0
 10
234.8393725464
 20
81.3175724217
 30
0.0
 10
230.7825618974
 20
80.4092920441
 30
0.0
 10
227.4225888297
 20
79.8148065757
 30
0.0
 10
225.6573887781
 20
79.5359876069
 30
0.0
  0
SPLINE
  5
26E
100
AcDbEntity
  8
0
100
AcDbSpline
 62
7
  6
CONTINUOUS
 70
0
 71
3
 72
28
 73
24
 74
0
 42
0.0000001
 43
0.0000001
 44
0.0000000001
 40
0.0
 40
0.0
 40
0.0
 40
0.0
 40
0.1875829038
 40
0.2786452624
 40
0.3668218757
 40
0.4513533118
 40
0.5315213492
 40
0.6066590198
 40
0.6761618227
 40
0.7395012245
 40
0.7962425947
 40
0.8220394399
 40
0.8460815534
 40
0.8683562063
 40
0.8888658257
 40
0.9076321254
 40
0.9247020226
 40
0.9401560967
 40
0.9541203609
 40
0.9667814505
 40
0.9784028355
 40
0.9893341755
 40
1.0
 40
1.0
 40
1.0
 40
1.0
 10
194.0698194012
 20
69.1263304609
 30
0.0
 10
189.624762719
 20
69.1143457994
 30
0.0
 10
183.0200860692
 20
69.2365749381
 30
0.0
 10
174.3392174063
 20
69.6955159662
 30
0.0
 10
168.1065470633
 20
70.1757502459
 30
0.0
 10
162.1451578314
 20
70.7906279167
 30
0.0
 10
156.509840379
 20
71.5343291155
 30
0.0
 10
151.2523812406
 20
72.3997256474
 30
0.0
 10
146.4207622642
 20
73.3784546114
 30
0.0
 10
142.0591187727
 20
74.4611819047
 30
0.0
 10
138.7505212907
 20
75.4707213122
 30
0.0
 10
136.376120586
 20
76.3329636998
 30
0.0
 10
134.7934072277
 20
76.9786320314
 30
0.0
 10
133.3550084647
 20
77.6424261138
 30
0.0
 10
132.0640501937
 20
78.3229239309
 30
0.0
 10
130.9232474983
 20
79.0186950685
 30
0.0
 10
129.9349137115
 20
79.7284423706
 30
0.0
 10
129.1010043085
 20
80.4510928146
 30
0.0
 10
128.4232862847
 20
81.1859636182
 30
0.0
 10
127.9037398786
 20
81.9327451864
 30
0.0
 10
127.5452145622
 20
82.6913460131
 30
0.0
 10
127.3516971971
 20
83.4598486532
 30
0.0
 10
127.3351815377
 20
83.9760527041
 30
0.0
 10
127.3541435301
 20
84.2280839289
 30
0.0
  0
SPLINE
  5
26F
100
AcDbEntity
  8
DTM_AXIS
100
AcDbSpline
 62
7
  6
CONTINUOUS
 70
0
 71
3
 72
20
 73
16
 74
0
 42
0.0000001
 43
0.0000001
 44
0.0000000001
 40
0.0
 40
0.0
 40
0.0
 40
0.0
 40
0.0275369835
 40
0.0604511924
 40
0.0990360881
 40
0.1433300345
 40
0.1932101655
 40
0.2484420821
 40
0.3087079428
 40
0.3736238438
 40
0.442751714
 40
0.5156083083
 40
0.6703821962
 40
0.8334514282
 40
1.0
 40
1.0
 40
1.0
 40
1.0
 10
146.0101401334
 20
90.7044657334
 30
0.0
 10
146.3536570967
 20
91.0836343805
 30
0.0
 10
147.2054065152
 20
91.8274045356
 30
0.0
 10
148.7570621101
 20
92.8232345032
 30
0.0
 10
150.6823803508
 20
93.7904489083
 30
0.0
 10
152.9684862352
 20
94.721676377
 30
0.0
 10
155.5998700741
 20
95.6102492482
 30
0.0
 10
158.5569685945
 20
96.4489331209
 30
0.0
 10
161.8173661209
 20
97.2309911515
 30
0.0
 10
165.3559481809
 20
97.9500708506
 30
0.0
 10
169.1452945523
 20
98.6004308249
 30
0.0
 10
174.6035757932
 20
99.3846135857
 30
0.0
 10
181.8256333864
 20
100.1461645073
 30
0.0
 10
190.8103920333
 20
100.7072308512
 30
0.0
 10
196.9350741376
 20
100.8449395711
 30
0.0
 10
200.0295364817
 20
100.8532827907
 30
0.0
  0
SPLINE
  5
270
100
AcDbEntity
  8
DTM_AXIS
100
AcDbSpline
 62
7
  6
CONTINUOUS
 70
0
 71
3
 72
22
 73
18
 74
0
 42
0.0000001
 43
0.0000001
 44
0.0000000001
 40
0.0
 40
0.0
 40
0.0
 40
0.0
 40
0.1724832262
 40
0.3408401753
 40
0.4995092183
 40
0.5735844742
 40
0.6433508328
 40
0.7082695099
 40
0.767862046
 40
0.8217236119
 40
0.8695419232
 40
0.9111273778
 40
0.9295770264
 40
0.9464840324
 40
0.9618918512
 40
0.9758731446
 40
1.0
 40
1.0
 40
1.0
 40
1.0
 10
195.1576522361
 20
79.5353184019
 30
0.0
 10
198.0554506868
 20
79.5431313807
 30
0.0
 10
203.7821718293
 20
79.67834235
 30
0.0
 10
212.1583565923
 20
80.2307851472
 30
0.0
 10
218.8583599123
 20
80.9808351829
 30
0.0
 10
223.8822633937
 20
81.7534002361
 30
0.0
 10
227.3317508004
 20
82.3908426027
 30
0.0
 10
230.5199050122
 20
83.0936764908
 30
0.0
 10
233.4191406032
 20
83.8555926843
 30
0.0
 10
236.0048287051
 20
84.6696201783
 30
0.0
 10
238.2549934139
 20
85.5284881662
 30
0.0
 10
239.896175857
 20
86.303161434
 30
0.0
 10
241.0171733313
 20
86.9483096673
 30
0.0
 10
241.7288005937
 20
87.419382165
 30
0.0
 10
242.3444985723
 20
87.8966770058
 30
0.0
 10
243.0025015317
 20
88.5092815752
 30
0.0
 10
243.4039235012
 20
89.0210444988
 30
0.0
 10
243.5955037005
 20
89.3782568719
 30
0.0
  0
SPLINE
  5
271
100
AcDbEntity
  8
DTM_AXIS
100
AcDbSpline
 62
7
  6
CONTINUOUS
 70
0
 71
3
 72
26
 73
22
 74
0
 42
0.0000001
 43
0.0000001
 44
0.0000000001
 40
0.0
 40
0.0
 40
0.0
 40
0.0
 40
0.0103003457
 40
0.0210808365
 40
0.0327581064
 40
0.0456541911
 40
0.0599986017
 40
0.0759457742
 40
0.0935940145
 40
0.1130006812
 40
0.1341930694
 40
0.1571759055
 40
0.2084398472
 40
0.2665492371
 40
0.3310915859
 40
0.4015377668
 40
0.4772666005
 40
0.5575823045
 40
0.6417284256
 40
0.8182419266
 40
1.0
 40
1.0
 40
1.0
 40
1.0
 10
150.727036561
 20
89.3282633921
 30
0.0
 10
150.7244541438
 20
89.5067809073
 30
0.0
 10
150.7615134745
 20
89.8739582593
 30
0.0
 10
150.9411116196
 20
90.4165989849
 30
0.0
 10
151.24162798
 20
90.9542070831
 30
0.0
 10
151.6602155563
 20
91.4859974042
 30
0.0
 10
152.1950534253
 20
92.0120323307
 30
0.0
 10
152.84476287
 20
92.5319073273
 30
0.0
 10
153.6079220006
 20
93.0448883703
 30
0.0
 10
154.4828503611
 20
93.5499604616
 30
0.0
 10
155.4675231824
 20
94.0460244162
 30
0.0
 10
156.9795182351
 20
94.7184276054
 30
0.0
 10
159.1326322727
 20
95.5168774027
 30
0.0
 10
162.0194798282
 20
96.38940345
 30
0.0
 10
165.2683630816
 20
97.1985655693
 30
0.0
 10
168.8464145204
 20
97.9358059006
 30
0.0
 10
172.7174596452
 20
98.5931987552
 30
0.0
 10
176.8420037693
 20
99.1638262605
 30
0.0
 10
182.7172355599
 20
99.8109817294
 30
0.0
 10
190.3694946221
 20
100.3555109885
 30
0.0
 10
196.5798337545
 20
100.5127739356
 30
0.0
 10
199.730240291
 20
100.5212679906
 30
0.0
  0
SPLINE
  5
272
100
AcDbEntity
  8
DTM_AXIS
100
AcDbSpline
 62
7
  6
CONTINUOUS
 70
0
 71
3
 72
25
 73
21
 74
0
 42
0.0000001
 43
0.0000001
 44
0.0000000001
 40
0.0
 40
0.0
 40
0.0
 40
0.0
 40
0.1860011133
 40
0.3639077175
 40
0.4479423245
 40
0.5277525425
 40
0.6026904525
 40
0.6721667503
 40
0.7356631948
 40
0.7927489135
 40
0.8431042972
 40
0.8865603484
 40
0.9057158592
 40
0.9231934413
 40
0.9390589137
 40
0.9534171648
 40
0.9664254066
 40
0.9783086156
 40
0.989372083
 40
1.0
 40
1.0
 40
1.0
 40
1.0
 10
199.730240291
 20
100.5212679906
 30
0.0
 10
202.6512145701
 20
100.5291434556
 30
0.0
 10
208.3670885497
 20
100.4245575694
 30
0.0
 10
215.390685394
 20
99.9842963878
 30
0.0
 10
220.7307238415
 20
99.4421829936
 30
0.0
 10
224.449942682
 20
98.9593830698
 30
0.0
 10
227.9266920557
 20
98.3973062418
 30
0.0
 10
231.1300099213
 20
97.7611612677
 30
0.0
 10
234.0314911717
 20
97.0569330898
 30
0.0
 10
236.6059917944
 20
96.2912698013
 30
0.0
 10
238.8311735306
 20
95.4712234699
 30
0.0
 10
240.4421821196
 20
94.7202694723
 30
0.0
 10
241.5304441998
 20
94.0881054401
 30
0.0
 10
242.2133139024
 20
93.624721505
 30
0.0
 10
242.7964577838
 20
93.1528113211
 30
0.0
 10
243.2786980818
 20
92.6728671612
 30
0.0
 10
243.658865731
 20
92.1852130626
 30
0.0
 10
243.9354160998
 20
91.6898754703
 30
0.0
 10
244.1060849908
 20
91.1876655395
 30
0.0
 10
244.1478481201
 20
90.846587732
 30
0.0
 10
244.1502622579
 20
90.6797030458
 30
0.0
  0
SPLINE
  5
273
100
AcDbEntity
  8
DTM_AXIS
100
AcDbSpline
 62
7
  6
CONTINUOUS
 70
0
 71
3
 72
21
 73
17
 74
0
 42
0.0000001
 43
0.0000001
 44
0.0000000001
 40
0.0
 40
0.0
 40
0.0
 40
0.0
 40
0.1966926818
 40
0.375439777
 40
0.4573432709
 40
0.5339225376
 40
0.6049691306
 40
0.6703198881
 40
0.7298673742
 40
0.7835754214
 40
0.8315031684
 40
0.8738432171
 40
0.9109823295
 40
0.9435931747
 40
0.9727497207
 40
1.0
 40
1.0
 40
1.0
 40
1.0
 10
169.5355377849
 20
78.7239950496
 30
0.0
 10
167.7629424799
 20
78.9516339458
 30
0.0
 10
164.3870454941
 20
79.4486764739
 30
0.0
 10
160.3054950418
 20
80.2392312471
 30
0.0
 10
157.3249962112
 20
80.9518783056
 30
0.0
 10
155.3129452163
 20
81.5020815629
 30
0.0
 10
153.4660474845
 20
82.0813827407
 30
0.0
 10
151.7913502286
 20
82.6875150073
 30
0.0
 10
150.2951169772
 20
83.3180889496
 30
0.0
 10
148.9827590789
 20
83.9707287749
 30
0.0
 10
147.8587581187
 20
84.643181314
 30
0.0
 10
146.926636778
 20
85.3336407641
 30
0.0
 10
146.1891854397
 20
86.041125146
 30
0.0
 10
145.6494877402
 20
86.7664707571
 30
0.0
 10
145.3135514949
 20
87.5104074369
 30
0.0
 10
145.2315742398
 20
88.0241804684
 30
0.0
 10
145.2279929536
 20
88.2717509731
 30
0.0
  0
SPLINE
  5
274
100
AcDbEntity
  8
DTM_AXIS
100
AcDbSpline
 62
7
  6
CONTINUOUS
 70
0
 71
3
 72
20
 73
16
 74
0
 42
0.0000001
 43
0.0000001
 44
0.0000000001
 40
0.0
 40
0.0
 40
0.0
 40
0.0
 40
0.1697828274
 40
0.3338571666
 40
0.4880868221
 40
0.5603067405
 40
0.6286683155
 40
0.6927697829
 40
0.7522503435
 40
0.806797973
 40
0.8561600108
 40
0.9001588189
 40
0.9387169776
 40
0.9719008844
 40
1.0
 40
1.0
 40
1.0
 40
1.0
 10
200.0295364817
 20
100.8532827907
 30
0.0
 10
202.873161193
 20
100.8609497075
 30
0.0
 10
208.4657069782
 20
100.7742744525
 30
0.0
 10
216.6306817851
 20
100.3362506136
 30
0.0
 10
223.144288072
 20
99.71371042
 30
0.0
 10
228.0390685901
 20
99.0604061329
 30
0.0
 10
231.4239757431
 20
98.5144904682
 30
0.0
 10
234.5811971964
 20
97.9057884848
 30
0.0
 10
237.4897720328
 20
97.2384733887
 30
0.0
 10
240.1305163056
 20
96.5172060828
 30
0.0
 10
242.4863030658
 20
95.7469549311
 30
0.0
 10
244.542161362
 20
94.9330719541
 30
0.0
 10
246.2861513648
 20
94.0804989104
 30
0.0
 10
247.7082100575
 20
93.1946904938
 30
0.0
 10
248.4994067326
 20
92.5312860531
 30
0.0
 10
248.8253448338
 20
92.1918012169
 30
0.0
  0
SPLINE
  5
275
100
AcDbEntity
  8
DTM_AXIS
100
AcDbSpline
 62
7
  6
CONTINUOUS
 70
0
 71
3
 72
12
 73
8
 74
0
 42
0.0000001
 43
0.0000001
 44
0.0000000001
 40
0.0
 40
0.0
 40
0.0
 40
0.0
 40
0.2962269231
 40
0.5747197576
 40
0.8185955126
 40
0.9198594956
 40
1.0
 40
1.0
 40
1.0
 40
1.0
 10
196.572709792
 20
89.1122243447
 30
0.0
 10
195.5401109802
 20
89.1094404384
 30
0.0
 10
193.5363001282
 20
89.1452643419
 30
0.0
 10
190.6873735034
 20
89.3211451386
 30
0.0
 10
188.5254014353
 20
89.5607467866
 30
0.0
 10
187.0613215921
 20
89.7949087376
 30
0.0
 10
186.4405873667
 20
89.9165822642
 30
0.0
 10
186.1678399166
 20
89.9769940826
 30
0.0
  0
SPLINE
  5
276
100
AcDbEntity
  8
DTM_AXIS
100
AcDbSpline
 62
7
  6
CONTINUOUS
 70
0
 71
3
 72
22
 73
18
 74
0
 42
0.0000001
 43
0.0000001
 44
0.0000000001
 40
0.0
 40
0.0
 40
0.0
 40
0.0
 40
0.0246754609
 40
0.0388238087
 40
0.0543195481
 40
0.0712349006
 40
0.0896158732
 40
0.1308522341
 40
0.1780824178
 40
0.231179614
 40
0.2899032606
 40
0.3539273842
 40
0.4228582326
 40
0.496246368
 40
0.6543594066
 40
0.823884061
 40
1.0
 40
1.0
 40
1.0
 40
1.0
 10
151.3192062727
 20
88.0434123811
 30
0.0
 10
151.5057104512
 20
87.7185869083
 30
0.0
 10
151.8822298189
 20
87.2544693993
 30
0.0
 10
152.491656988
 20
86.6990052116
 30
0.0
 10
153.0544500258
 20
86.2697935433
 30
0.0
 10
153.7005135223
 20
85.8481295475
 30
0.0
 10
154.7113374774
 20
85.2742735356
 30
0.0
 10
156.184241773
 20
84.5891810034
 30
0.0
 10
158.1980406075
 20
83.8352256875
 30
0.0
 10
160.5072676495
 20
83.1265150457
 30
0.0
 10
163.0950024197
 20
82.4685130892
 30
0.0
 10
165.9422988482
 20
81.8664356102
 30
0.0
 10
169.027879882
 20
81.324965282
 30
0.0
 10
173.5420709203
 20
80.6734552705
 30
0.0
 10
179.6005150628
 20
80.0526723416
 30
0.0
 10
187.2367450614
 20
79.6152671701
 30
0.0
 10
192.484316395
 20
79.5281106142
 30
0.0
 10
195.1576522361
 20
79.5353184019
 30
0.0
  0
SPLINE
  5
277
100
AcDbEntity
  8
DTM_AXIS
100
AcDbSpline
 62
7
  6
CONTINUOUS
 70
0
 71
3
 72
20
 73
16
 74
0
 42
0.0000001
 43
0.0000001
 44
0.0000000001
 40
0.0
 40
0.0
 40
0.0
 40
0.0
 40
0.1393976683
 40
0.277188831
 40
0.411270269
 40
0.5402661845
 40
0.6641215724
 40
0.7247363545
 40
0.7857363145
 40
0.8488580375
 40
0.9163880317
 40
0.950761412
 40
0.979224347
 40
0.9951546883
 40
1.0
 40
1.0
 40
1.0
 40
1.0
 10
198.489977117
 20
97.7997246756
 30
0.0
 10
197.2857089607
 20
97.7964777259
 30
0.0
 10
194.890938782
 20
97.7464070332
 30
0.0
 10
191.3430220384
 20
97.542123942
 30
0.0
 10
187.8948987446
 20
97.2096547958
 30
0.0
 10
184.5832032134
 20
96.7471477173
 30
0.0
 10
181.9214209513
 20
96.2405610226
 30
0.0
 10
179.8578304608
 20
95.7505841414
 30
0.0
 10
178.3178372608
 20
95.3304077888
 30
0.0
 10
176.7370846779
 20
94.8365583865
 30
0.0
 10
175.3933512096
 20
94.3592408641
 30
0.0
 10
174.340570566
 20
93.9591109006
 30
0.0
 10
173.7060838038
 20
93.7131886868
 30
0.0
 10
173.3085980805
 20
93.5616951802
 30
0.0
 10
173.1402693524
 20
93.4993813402
 30
0.0
 10
173.1008071611
 20
93.4854196562
 30
0.0
  0
SPLINE
  5
278
100
AcDbEntity
  8
DTM_AXIS
100
AcDbSpline
 62
7
  6
CONTINUOUS
 70
0
 71
3
 72
27
 73
23
 74
0
 42
0.0000001
 43
0.0000001
 44
0.0000000001
 40
0.0
 40
0.0
 40
0.0
 40
0.0
 40
0.185757863
 40
0.3638573968
 40
0.4482546793
 40
0.5286451369
 40
0.6043962464
 40
0.6749179548
 40
0.7396694618
 40
0.7981670434
 40
0.8499946521
 40
0.8948216385
 40
0.9145450069
 40
0.932454227
 40
0.9485552487
 40
0.9628728811
 40
0.9754097267
 40
0.9861165753
 40
0.9907336226
 40
0.9947818858
 40
0.9981133768
 40
1.0
 40
1.0
 40
1.0
 40
1.0
 10
194.5585529615
 20
77.4924320836
 30
0.0
 10
191.0321862531
 20
77.482924427
 30
0.0
 10
184.1236506369
 20
77.6041483153
 30
0.0
 10
175.6263541388
 20
78.1158907891
 30
0.0
 10
169.1469718186
 20
78.7456447691
 30
0.0
 10
164.6147311635
 20
79.3074252511
 30
0.0
 10
160.3611538912
 20
79.9617135728
 30
0.0
 10
156.4232897484
 20
80.7022424858
 30
0.0
 10
152.836103983
 20
81.5214867585
 30
0.0
 10
149.6320202946
 20
82.4104366733
 30
0.0
 10
146.8415244809
 20
83.3583447843
 30
0.0
 10
144.8034124865
 20
84.2189427143
 30
0.0
 10
143.4110305656
 20
84.9358378912
 30
0.0
 10
142.532122151
 20
85.4549144029
 30
0.0
 10
141.7753614718
 20
85.9750772491
 30
0.0
 10
141.1428687013
 20
86.4916075525
 30
0.0
 10
140.637442934
 20
86.9964561252
 30
0.0
 10
140.3099110759
 20
87.4140909345
 30
0.0
 10
140.1175724628
 20
87.727921783
 30
0.0
 10
140.0142317159
 20
87.9312120384
 30
0.0
 10
139.9484672954
 20
88.0945372229
 30
0.0
 10
139.9182468907
 20
88.1890570617
 30
0.0
 10
139.9098122993
 20
88.2238648778
 30
0.0
  0
SPLINE
  5
279
100
AcDbEntity
  8
DTM_AXIS
100
AcDbSpline
 62
7
  6
CONTINUOUS
 70
0
 71
3
 72
31
 73
27
 74
0
 42
0.0000001
 43
0.0000001
 44
0.0000000001
 40
0.0
 40
0.0
 40
0.0
 40
0.0
 40
0.1710662848
 40
0.3375793817
 40
0.4172630974
 40
0.4936326906
 40
0.5660637564
 40
0.6340190372
 40
0.6970756498
 40
0.7548378863
 40
0.8070824348
 40
0.8537842
 40
0.8751161054
 40
0.8951580097
 40
0.9139761204
 40
0.9316567932
 40
0.9483596992
 40
0.9566573112
 40
0.9652209231
 40
0.9745204752
 40
0.9798267711
 40
0.9862978578
 40
0.9907238575
 40
0.9953807327
 40
0.9986839399
 40
1.0
 40
1.0
 40
1.0
 40
1.0
 10
200.3411162571
 20
104.0071078403
 30
0.0
 10
196.4335284699
 20
103.9965722763
 30
0.0
 10
188.7218575446
 20
103.8053789592
 30
0.0
 10
179.2097101403
 20
103.1441460823
 30
0.0
 10
171.8827481053
 20
102.3582045376
 30
0.0
 10
166.70941602
 20
101.6626709887
 30
0.0
 10
161.8230840237
 20
100.8584654105
 30
0.0
 10
157.2642781235
 20
99.951450537
 30
0.0
 10
153.0694199105
 20
98.9475157424
 30
0.0
 10
149.2692859179
 20
97.8516994117
 30
0.0
 10
145.8892868142
 20
96.6666099213
 30
0.0
 10
143.3651586245
 20
95.57208795
 30
0.0
 10
141.5836304862
 20
94.6353792675
 30
0.0
 10
140.404880993
 20
93.9258076819
 30
0.0
 10
139.3457303416
 20
93.1845534867
 30
0.0
 10
138.4099343559
 20
92.4067285355
 30
0.0
 10
137.725525316
 20
91.7091517775
 30
0.0
 10
137.2421599426
 20
91.1133770759
 30
0.0
 10
136.8980700122
 20
90.6241765099
 30
0.0
 10
136.6271030658
 20
90.1688733981
 30
0.0
 10
136.4056893898
 20
89.7412308181
 30
0.0
 10
136.2496227724
 20
89.4054845911
 30
0.0
 10
136.1087625739
 20
89.0793109122
 30
0.0
 10
135.9996297961
 20
88.8182298868
 30
0.0
 10
135.9146068277
 20
88.6242226097
 30
0.0
 10
135.8690613305
 20
88.52888435
 30
0.0
 10
135.8541176698
 20
88.5027993639
 30
0.0
  0
SPLINE
  5
27A
100
AcDbEntity
  8
DTM_AXIS
100
AcDbSpline
 62
7
  6
CONTINUOUS
 70
0
 71
3
 72
28
 73
24
 74
0
 42
0.0000001
 43
0.0000001
 44
0.0000000001
 40
0.0
 40
0.0
 40
0.0
 40
0.0
 40
0.1878005968
 40
0.2791327202
 40
0.3677547333
 40
0.4529501444
 40
0.5340342747
 40
0.6103612311
 40
0.6813310631
 40
0.7463973661
 40
0.8050758785
 40
0.8569311975
 40
0.8801573238
 40
0.9015032041
 40
0.9209010994
 40
0.9382580884
 40
0.9534655965
 40
0.9664377583
 40
0.972029265
 40
0.9768431677
 40
0.984862806
 40
0.9924176382
 40
1.0
 40
1.0
 40
1.0
 40
1.0
 10
194.1416987957
 20
72.9817291228
 30
0.0
 10
190.0227139782
 20
72.9706237414
 30
0.0
 10
183.8990568812
 20
73.0788687731
 30
0.0
 10
175.8429526816
 20
73.4859707602
 30
0.0
 10
170.0425661683
 20
73.9126748637
 30
0.0
 10
164.4780587037
 20
74.4595185127
 30
0.0
 10
159.1976401892
 20
75.1214912376
 30
0.0
 10
154.2474183315
 20
75.8923341004
 30
0.0
 10
149.671067284
 20
76.7645720081
 30
0.0
 10
145.5094093908
 20
77.7292817818
 30
0.0
 10
141.8013218293
 20
78.7759464913
 30
0.0
 10
139.0267104611
 20
79.73676601
 30
0.0
 10
137.0717796869
 20
80.5451653733
 30
0.0
 10
135.7996379281
 20
81.1381955921
 30
0.0
 10
134.6732288118
 20
81.7354392174
 30
0.0
 10
133.6996000131
 20
82.3294911154
 30
0.0
 10
132.8861669922
 20
82.910579113
 30
0.0
 10
132.3214308667
 20
83.3919486655
 30
0.0
 10
131.960772292
 20
83.7567751116
 30
0.0
 10
131.6926197513
 20
84.059315848
 30
0.0
 10
131.4295816691
 20
84.4230278466
 30
0.0
 10
131.2003925243
 20
84.8788863117
 30
0.0
 10
131.1081966463
 20
85.2004886789
 30
0.0
 10
131.0787383526
 20
85.3641615153
 30
0.0
  0
SPLINE
  5
27B
100
AcDbEntity
  8
DTM_AXIS
100
AcDbSpline
 62
7
  6
CONTINUOUS
 70
0
 71
3
 72
22
 73
18
 74
0
 42
0.0000001
 43
0.0000001
 44
0.0000000001
 40
0.0
 40
0.0
 40
0.0
 40
0.0
 40
0.1848941963
 40
0.3541377085
 40
0.4321762924
 40
0.5055067764
 40
0.5739484226
 40
0.6373765709
 40
0.6957381581
 40
0.7490953782
 40
0.7979101122
 40
0.8431411486
 40
0.8863145542
 40
0.9262338502
 40
0.9634840261
 40
0.9816902099
 40
1.0
 40
1.0
 40
1.0
 40
1.0
 10
163.5053381422
 20
101.1271618286
 30
0.0
 10
161.0050465922
 20
100.7723541755
 30
0.0
 10
156.2278533205
 20
100.0055976615
 30
0.0
 10
150.4437025511
 20
98.8150370411
 30
0.0
 10
146.1944835994
 20
97.7543760842
 30
0.0
 10
143.3048774327
 20
96.9377359318
 30
0.0
 10
140.6357114686
 20
96.0807945661
 30
0.0
 10
138.1957110455
 20
95.1854320984
 30
0.0
 10
135.9916205783
 20
94.2526697178
 30
0.0
 10
134.0247483343
 20
93.2802126826
 30
0.0
 10
132.2878171659
 20
92.2577914134
 30
0.0
 10
130.7649761601
 20
91.1596401344
 30
0.0
 10
129.4708761904
 20
89.9697129369
 30
0.0
 10
128.439180177
 20
88.6799516527
 30
0.0
 10
127.8421500769
 20
87.5078073751
 30
0.0
 10
127.5628590046
 20
86.5371360588
 30
0.0
 10
127.4905987092
 20
86.0417129584
 30
0.0
 10
127.4718364055
 20
85.7923371243
 30
0.0
  0
SPLINE
  5
27C
100
AcDbEntity
  8
DTM_AXIS
100
AcDbSpline
 62
7
  6
CONTINUOUS
 70
0
 71
3
 72
14
 73
10
 74
0
 42
0.0000001
 43
0.0000001
 44
0.0000000001
 40
0.0
 40
0.0
 40
0.0
 40
0.0
 40
0.0121629793
 40
0.0563537181
 40
0.1422141747
 40
0.2749042181
 40
0.4441728537
 40
0.6294498598
 40
1.0
 40
1.0
 40
1.0
 40
1.0
 10
221.6661728063
 20
94.1877636732
 30
0.0
 10
221.6782870368
 20
94.1838953252
 30
0.0
 10
221.5558308198
 20
94.2236480711
 30
0.0
 10
221.490077502
 20
94.2472619335
 30
0.0
 10
221.1801477896
 20
94.3535865249
 30
0.0
 10
220.8226117084
 20
94.4805236957
 30
0.0
 10
220.3326759133
 20
94.6530645439
 30
0.0
 10
219.6202619819
 20
94.900561995
 30
0.0
 10
219.0673714646
 20
95.0845593053
 30
0.0
 10
218.6983098645
 20
95.2024207266
 30
0.0
  0
SPLINE
  5
27D
100
AcDbEntity
  8
DTM_AXIS
100
AcDbSpline
 62
7
  6
CONTINUOUS
 70
0
 71
3
 72
13
 73
9
 74
0
 42
0.0000001
 43
0.0000001
 44
0.0000000001
 40
0.0
 40
0.0
 40
0.0
 40
0.0
 40
0.079782611
 40
0.1819948945
 40
0.2996441018
 40
0.4284572249
 40
0.707698303
 40
1.0
 40
1.0
 40
1.0
 40
1.0
 10
208.7054218634
 20
90.3029932621
 30
0.0
 10
208.390426503
 20
90.2236010655
 30
0.0
 10
207.6667937495
 20
90.0626772909
 30
0.0
 10
206.4663110808
 20
89.8437890835
 30
0.0
 10
205.0615416541
 20
89.6367808827
 30
0.0
 10
202.9352097701
 20
89.3888066427
 30
0.0
 10
200.0901402712
 20
89.1769510424
 30
0.0
 10
197.7628542095
 20
89.1154333847
 30
0.0
 10
196.5727099655
 20
89.1122243451
 30
0.0
  0
SPLINE
  5
27E
100
AcDbEntity
  8
DTM_AXIS
100
AcDbSpline
 62
7
  6
CONTINUOUS
 70
0
 71
3
 72
16
 73
12
 74
0
 42
0.0000001
 43
0.0000001
 44
0.0000000001
 40
0.0
 40
0.0
 40
0.0
 40
0.0
 40
0.0058087087
 40
0.0267940096
 40
0.0450150438
 40
0.0753204919
 40
0.1279438568
 40
0.2323791559
 40
0.5046440988
 40
0.6946114772
 40
1.0
 40
1.0
 40
1.0
 40
1.0
 10
259.0408538313
 20
90.2847583248
 30
0.0
 10
259.0428473095
 20
90.2815380151
 30
0.0
 10
259.0231429846
 20
90.3144247163
 30
0.0
 10
259.0182952082
 20
90.3251870198
 30
0.0
 10
258.9941953149
 20
90.37072067
 30
0.0
 10
258.9664270547
 20
90.4272497426
 30
0.0
 10
258.9129402272
 20
90.5391136213
 30
0.0
 10
258.797130411
 20
90.7923815776
 30
0.0
 10
258.6429482481
 20
91.1291702059
 30
0.0
 10
258.4181652731
 20
91.5761732309
 30
0.0
 10
258.2585261673
 20
91.8573892274
 30
0.0
 10
258.1539275848
 20
92.0268226003
 30
0.0
  0
SPLINE
  5
27F
100
AcDbEntity
  8
DTM_AXIS
100
AcDbSpline
 62
7
  6
CONTINUOUS
 70
0
 71
3
 72
29
 73
25
 74
0
 42
0.0000001
 43
0.0000001
 44
0.0000000001
 40
0.0
 40
0.0
 40
0.0
 40
0.0
 40
0.0015766085
 40
0.0047697343
 40
0.0087170147
 40
0.0132503481
 40
0.0183019586
 40
0.0238393557
 40
0.0363152829
 40
0.0506424182
 40
0.0668348834
 40
0.0849143441
 40
0.1048795915
 40
0.1267126037
 40
0.150382929
 40
0.2030608558
 40
0.2625156942
 40
0.3282471722
 40
0.3996803876
 40
0.4761773511
 40
0.5570461608
 40
0.6415493676
 40
0.8183185929
 40
1.0
 40
1.0
 40
1.0
 40
1.0
 10
254.9955661444
 20
89.8918616327
 30
0.0
 10
254.9891584497
 20
89.859337919
 30
0.0
 10
254.9613452006
 20
89.7627635137
 30
0.0
 10
254.8984684534
 20
89.5904502607
 30
0.0
 10
254.7924719636
 20
89.3686274522
 30
0.0
 10
254.6485667107
 20
89.122851239
 30
0.0
 10
254.466713913
 20
88.8616576042
 30
0.0
 10
254.1619002871
 20
88.4840371222
 30
0.0
 10
253.6833585907
 20
87.9985350155
 30
0.0
 10
252.9853107205
 20
87.4222728048
 30
0.0
 10
252.1447891946
 20
86.8394380124
 30
0.0
 10
251.1644508381
 20
86.2554479311
 30
0.0
 10
250.0470132217
 20
85.6742593808
 30
0.0
 10
248.7958847624
 20
85.099160925
 30
0.0
 10
246.8853197107
 20
84.3161331459
 30
0.0
 10
244.1849515203
 20
83.3814886118
 30
0.0
 10
240.5872255528
 20
82.3558425425
 30
0.0
 10
236.5631964319
 20
81.4033055741
 30
0.0
 10
232.1546219935
 20
80.5351364231
 30
0.0
 10
227.4059216572
 20
79.761133087
 30
0.0
 10
222.3643869575
 20
79.0895520275
 30
0.0
 10
215.21033131
 20
78.3289210806
 30
0.0
 10
205.9155129167
 20
77.6882061682
 30
0.0
 10
198.378473714
 20
77.50273136
 30
0.0
 10
194.5585529653
 20
77.4924320837
 30
0.0
  0
SPLINE
  5
280
100
AcDbEntity
  8
DTM_AXIS
100
AcDbSpline
 62
7
  6
CONTINUOUS
 70
0
 71
3
 72
28
 73
24
 74
0
 42
0.0000001
 43
0.0000001
 44
0.0000000001
 40
0.0
 40
0.0
 40
0.0
 40
0.0
 40
0.007325706
 40
0.0146284195
 40
0.0226796027
 40
0.0276667183
 40
0.0334058884
 40
0.046648173
 40
0.0621705384
 40
0.079873838
 40
0.0996377425
 40
0.1213771352
 40
0.1450245245
 40
0.1977790217
 40
0.2574053713
 40
0.3234041307
 40
0.3952005779
 40
0.4721522209
 40
0.5535588313
 40
0.6386716987
 40
0.726702537
 40
0.8168322844
 40
1.0
 40
1.0
 40
1.0
 40
1.0
 10
263.9049503512
 20
87.2851924253
 30
0.0
 10
263.8785089948
 20
87.1091944521
 30
0.0
 10
263.7869279877
 20
86.7626053623
 30
0.0
 10
263.5436049166
 20
86.2651123886
 30
0.0
 10
263.2525841077
 20
85.8632138586
 30
0.0
 10
262.9503905091
 20
85.5212819443
 30
0.0
 10
262.5405915976
 20
85.1071214919
 30
0.0
 10
261.9007163667
 20
84.5632420978
 30
0.0
 10
260.9803521197
 20
83.9077387523
 30
0.0
 10
259.880172112
 20
83.2374303753
 30
0.0
 10
258.608948791
 20
82.5629450805
 30
0.0
 10
257.1747708678
 20
81.8919823241
 30
0.0
 10
254.9731184258
 20
80.9752775105
 30
0.0
 10
251.8521588256
 20
79.8804874533
 30
0.0
 10
247.686604507
 20
78.6793188514
 30
0.0
 10
243.0204274197
 20
77.5637281048
 30
0.0
 10
237.9022542967
 20
76.5468358513
 30
0.0
 10
232.3838885981
 20
75.6400951438
 30
0.0
 10
226.5207072914
 20
74.8532798211
 30
0.0
 10
220.371076215
 20
74.1946997736
 30
0.0
 10
213.9958256857
 20
73.6711244676
 30
0.0
 10
205.2320939357
 20
73.1577299187
 30
0.0
 10
198.5916196305
 20
72.9937270313
 30
0.0
 10
194.1416987976
 20
72.9817291227
 30
0.0
  0
SPLINE
  5
281
100
AcDbEntity
  8
DTM_AXIS
100
AcDbSpline
 62
7
  6
CONTINUOUS
 70
0
 71
3
 72
23
 73
19
 74
0
 42
0.0000001
 43
0.0000001
 44
0.0000000001
 40
0.0
 40
0.0
 40
0.0
 40
0.0
 40
0.0183075601
 40
0.0365128393
 40
0.0737607689
 40
0.1136748427
 40
0.1349522517
 40
0.1568870295
 40
0.2021027063
 40
0.2509166948
 40
0.3042713877
 40
0.3626330111
 40
0.4260603459
 40
0.4945010759
 40
0.5678306057
 40
0.6458682068
 40
0.8151092682
 40
1.0
 40
1.0
 40
1.0
 40
1.0
 10
267.4980183396
 20
87.8178499579
 30
0.0
 10
267.4720561379
 20
88.0665837313
 30
0.0
 10
267.3854909535
 20
88.5597333002
 30
0.0
 10
267.0782278114
 20
89.5220029267
 30
0.0
 10
266.447506324
 20
90.6763149666
 30
0.0
 10
265.5732477227
 20
91.707077122
 30
0.0
 10
264.745177704
 20
92.4850032635
 30
0.0
 10
263.810279542
 20
93.2512775489
 30
0.0
 10
262.4961961519
 20
94.1417667231
 30
0.0
 10
260.7305702812
 20
95.113471057
 30
0.0
 10
258.736073958
 20
96.0286993694
 30
0.0
 10
256.5056504184
 20
96.8973576981
 30
0.0
 10
254.0404235984
 20
97.7218109617
 30
0.0
 10
251.347228861
 20
98.5012166355
 30
0.0
 10
248.4348236793
 20
99.2339532402
 30
0.0
 10
244.1561427998
 20
100.1712754189
 30
0.0
 10
238.3392336528
 20
101.1940216779
 30
0.0
 10
233.5412580762
 20
101.8222445538
 30
0.0
 10
231.0314407543
 20
102.104559789
 30
0.0
  0
SPLINE
  5
282
100
AcDbEntity
  8
0
100
AcDbSpline
 62
7
  6
CONTINUOUS
 70
0
 71
3
 72
28
 73
24
 74
0
 42
0.0000001
 43
0.0000001
 44
0.0000000001
 40
0.0
 40
0.0
 40
0.0
 40
0.0
 40
0.010326624
 40
0.0209591017
 40
0.0323588096
 40
0.0448956493
 40
0.0588390977
 40
0.0743730237
 40
0.0916162112
 40
0.1106399685
 40
0.1314810299
 40
0.1541504716
 40
0.1786397743
 40
0.2049249835
 40
0.2627205942
 40
0.3271366632
 40
0.3976377349
 40
0.4735898624
 40
0.5542796413
 40
0.6389291527
 40
0.7267089687
 40
0.8167501636
 40
1.0
 40
1.0
 40
1.0
 40
1.0
 10
267.6608966737
 20
86.2577645607
 30
0.0
 10
267.6889309863
 20
85.9892537469
 30
0.0
 10
267.6830873439
 20
85.4356131153
 30
0.0
 10
267.4808653708
 20
84.6075686383
 30
0.0
 10
267.0903530051
 20
83.7865839506
 30
0.0
 10
266.5166778777
 20
82.974634984
 30
0.0
 10
265.7632176851
 20
82.1715866573
 30
0.0
 10
264.8322561468
 20
81.3778107381
 30
0.0
 10
263.7259257368
 20
80.5942512652
 30
0.0
 10
262.4466906832
 20
79.8223567491
 30
0.0
 10
260.9975198095
 20
79.063843377
 30
0.0
 10
259.3819149641
 20
78.3205770932
 30
0.0
 10
257.6039075703
 20
77.5944118552
 30
0.0
 10
254.9372458352
 20
76.6205956477
 30
0.0
 10
251.2259090134
 20
75.47314874
 30
0.0
 10
246.341399075
 20
74.231986288
 30
0.0
 10
240.9445571902
 20
73.1003817468
 30
0.0
 10
235.0917104999
 20
72.0906006842
 30
0.0
 10
228.8439019963
 20
71.2136968274
 30
0.0
 10
222.2666723418
 20
70.4791911482
 30
0.0
 10
215.4290057321
 20
69.8949594482
 30
0.0
 10
206.0062816117
 20
69.3217508031
 30
0.0
 10
198.860527314
 20
69.1392470595
 30
0.0
 10
194.0698194012
 20
69.1263304609
 30
0.0
  0
SPLINE
  5
283
100
AcDbEntity
  8
DTM_AXIS
100
AcDbSpline
 62
7
  6
CONTINUOUS
 70
0
 71
3
 72
13
 73
9
 74
0
 42
0.0000001
 43
0.0000001
 44
0.0000000001
 40
0.0
 40
0.0
 40
0.0
 40
0.0
 40
0.1232675569
 40
0.2404418782
 40
0.3584463783
 40
0.4798427843
 40
0.7341849802
 40
1.0
 40
1.0
 40
1.0
 40
1.0
 10
218.6983098645
 20
95.2024207266
 30
0.0
 10
217.8977700134
 20
95.4580765972
 30
0.0
 10
216.3223165712
 20
95.9145928645
 30
0.0
 10
213.9395743552
 20
96.4616462373
 30
0.0
 10
211.5463157474
 20
96.8924685341
 30
0.0
 10
208.2111928626
 20
97.3533807221
 30
0.0
 10
203.8492965168
 20
97.7175679843
 30
0.0
 10
200.3021530717
 20
97.8046105991
 30
0.0
 10
198.4899770514
 20
97.7997246755
 30
0.0
  0
SPLINE
  5
284
100
AcDbEntity
  8
DTM_AXIS
100
AcDbSpline
 62
7
  6
CONTINUOUS
 70
0
 71
3
 72
23
 73
19
 74
0
 42
0.0000001
 43
0.0000001
 44
0.0000000001
 40
0.0
 40
0.0
 40
0.0
 40
0.0
 40
0.0175496053
 40
0.034110561
 40
0.0511488454
 40
0.0691257416
 40
0.1081887832
 40
0.1517955513
 40
0.200214057
 40
0.2535432202
 40
0.3117347996
 40
0.3746069381
 40
0.4418447903
 40
0.5131343035
 40
0.5880810751
 40
0.6662226818
 40
0.829998166
 40
1.0
 40
1.0
 40
1.0
 40
1.0
 10
258.1539275848
 20
92.0268226003
 30
0.0
 10
257.9684376017
 20
92.3272874127
 30
0.0
 10
257.5690259721
 20
92.8883006851
 30
0.0
 10
256.8724001462
 20
93.6484856227
 30
0.0
 10
256.0962353313
 20
94.3395670303
 30
0.0
 10
254.9026675964
 20
95.2346183233
 30
0.0
 10
253.1561965906
 20
96.2707847235
 30
0.0
 10
250.7609758973
 20
97.3820958654
 30
0.0
 10
248.0194599376
 20
98.4072771595
 30
0.0
 10
244.9416440483
 20
99.3520872996
 30
0.0
 10
241.5400529331
 20
100.2178408465
 30
0.0
 10
237.8326597591
 20
101.0029554549
 30
0.0
 10
233.8408776181
 20
101.704635818
 30
0.0
 10
229.589315567
 20
102.3196057722
 30
0.0
 10
225.1048222333
 20
102.8446753291
 30
0.0
 10
218.7556742259
 20
103.4295615684
 30
0.0
 10
210.4784869828
 20
103.9043356024
 30
0.0
 10
203.7616422002
 20
104.016330167
 30
0.0
 10
200.3411162583
 20
104.0071078402
 30
0.0
  0
SPLINE
  5
285
100
AcDbEntity
  8
DTM_AXIS
100
AcDbSpline
 62
7
  6
CONTINUOUS
 70
0
 71
3
 72
30
 73
26
 74
0
 42
0.0000001
 43
0.0000001
 44
0.0000000001
 40
0.0
 40
0.0
 40
0.0
 40
0.0
 40
0.0884223829
 40
0.1680977885
 40
0.2371098996
 40
0.2671476859
 40
0.2940218325
 40
0.3176630058
 40
0.3380796955
 40
0.3553989679
 40
0.3699415101
 40
0.3823460659
 40
0.3936912397
 40
0.4053831709
 40
0.4187104711
 40
0.4345322422
 40
0.4533158751
 40
0.4752765559
 40
0.5004775158
 40
0.5603835555
 40
0.6321141779
 40
0.7140826402
 40
0.8042852094
 40
0.9004234488
 40
1.0
 40
1.0
 40
1.0
 40
1.0
 10
199.9270048437
 20
89.5902685311
 30
0.0
 10
200.2185406309
 20
89.6242130826
 30
0.0
 10
200.7715476439
 20
89.7004560427
 30
0.0
 10
201.5449270729
 20
89.8484134522
 30
0.0
 10
202.1198066864
 20
89.9977893666
 30
0.0
 10
202.5159163743
 20
90.1317989428
 30
0.0
 10
202.7640172798
 20
90.231989626
 30
0.0
 10
202.9756139397
 20
90.3358485016
 30
0.0
 10
203.149505505
 20
90.4427717271
 30
0.0
 10
203.2848893573
 20
90.5523785103
 30
0.0
 10
203.3811740347
 20
90.6648472754
 30
0.0
 10
203.4368826591
 20
90.7813819803
 30
0.0
 10
203.4474825174
 20
90.9014384781
 30
0.0
 10
203.4111090741
 20
91.0192443244
 30
0.0
 10
203.332233856
 20
91.1313978646
 30
0.0
 10
203.2139027248
 20
91.2390350125
 30
0.0
 10
203.0568412733
 20
91.3428669974
 30
0.0
 10
202.8617216766
 20
91.4428015111
 30
0.0
 10
202.53271026
 20
91.5779859301
 30
0.0
 10
202.0328066262
 20
91.7272657865
 30
0.0
 10
201.3386656424
 20
91.8739904086
 30
0.0
 10
200.5373008861
 20
91.9922303989
 30
0.0
 10
199.650580769
 20
92.0785198079
 30
0.0
 10
198.7026767567
 20
92.1301898523
 30
0.0
 10
198.0529290742
 20
92.1404398852
 30
0.0
 10
197.7224003539
 20
92.1395487211
 30
0.0
  0
SPLINE
  5
286
100
AcDbEntity
  8
DTM_AXIS
100
AcDbSpline
 62
7
  6
CONTINUOUS
 70
0
 71
3
 72
25
 73
21
 74
0
 42
0.0000001
 43
0.0000001
 44
0.0000000001
 40
0.0
 40
0.0
 40
0.0
 40
0.0
 40
0.1860011148
 40
0.3639077203
 40
0.4479423278
 40
0.5277525461
 40
0.6026904563
 40
0.6721667542
 40
0.7356631985
 40
0.7927489169
 40
0.8431043002
 40
0.8865603507
 40
0.9057158611
 40
0.9231934428
 40
0.9390589148
 40
0.9534171656
 40
0.966425407
 40
0.9783086157
 40
0.989372083
 40
1.0
 40
1.0
 40
1.0
 40
1.0
 10
195.169665879
 20
77.923881118
 30
0.0
 10
192.2486915638
 20
77.916005653
 30
0.0
 10
186.5328175165
 20
78.0205915418
 30
0.0
 10
179.5092205918
 20
78.4608527344
 30
0.0
 10
174.1691820896
 20
79.0029661421
 30
0.0
 10
170.4499632178
 20
79.4857660777
 30
0.0
 10
166.9732138215
 20
80.0478429189
 30
0.0
 10
163.7698959432
 20
80.6839879075
 30
0.0
 10
160.8684146904
 20
81.3882161009
 30
0.0
 10
158.2939140759
 20
82.1538794057
 30
0.0
 10
156.068732359
 20
82.9739257538
 30
0.0
 10
154.4577237942
 20
83.724879767
 30
0.0
 10
153.3694617405
 20
84.3570438121
 30
0.0
 10
152.6865920611
 20
84.8204277559
 30
0.0
 10
152.1034482057
 20
85.2923379484
 30
0.0
 10
151.6212079366
 20
85.772282117
 30
0.0
 10
151.2410403192
 20
86.2599362245
 30
0.0
 10
150.9644899855
 20
86.7552738259
 30
0.0
 10
150.7938211333
 20
87.2574837658
 30
0.0
 10
150.7520580329
 20
87.5985615761
 30
0.0
 10
150.7496439092
 20
87.7654462632
 30
0.0
  0
SPLINE
  5
287
100
AcDbEntity
  8
DTM_AXIS
100
AcDbSpline
 62
7
  6
CONTINUOUS
 70
0
 71
3
 72
25
 73
21
 74
0
 42
0.0000001
 43
0.0000001
 44
0.0000000001
 40
0.0
 40
0.0
 40
0.0
 40
0.0
 40
0.1860011133
 40
0.3639077175
 40
0.4479423245
 40
0.5277525425
 40
0.6026904525
 40
0.6721667503
 40
0.7356631948
 40
0.7927489135
 40
0.8431042972
 40
0.8865603484
 40
0.9057158592
 40
0.9231934413
 40
0.9390589137
 40
0.9534171648
 40
0.9664254066
 40
0.9783086156
 40
0.989372083
 40
1.0
 40
1.0
 40
1.0
 40
1.0
 10
195.147058528
 20
79.4866984472
 30
0.0
 10
192.2260842489
 20
79.4788229823
 30
0.0
 10
186.5102102692
 20
79.5834088684
 30
0.0
 10
179.4866134249
 20
80.02367005
 30
0.0
 10
174.1465749775
 20
80.5657834442
 30
0.0
 10
170.4273561369
 20
81.0485833681
 30
0.0
 10
166.9506067632
 20
81.6106601961
 30
0.0
 10
163.7472888976
 20
82.2468051701
 30
0.0
 10
160.8458076472
 20
82.951033348
 30
0.0
 10
158.2713070245
 20
83.7166966366
 30
0.0
 10
156.0461252884
 20
84.5367429679
 30
0.0
 10
154.4351166994
 20
85.2876969656
 30
0.0
 10
153.3468546191
 20
85.9198609977
 30
0.0
 10
152.6639849165
 20
86.3832449329
 30
0.0
 10
152.0808410351
 20
86.8551551168
 30
0.0
 10
151.5986007372
 20
87.3350992767
 30
0.0
 10
151.2184330879
 20
87.8227533753
 30
0.0
 10
150.9418827192
 20
88.3180909675
 30
0.0
 10
150.7712138282
 20
88.8203008984
 30
0.0
 10
150.7294506989
 20
89.1613787058
 30
0.0
 10
150.727036561
 20
89.3282633921
 30
0.0
  0
SPLINE
  5
288
100
AcDbEntity
  8
DTM_AXIS
100
AcDbSpline
 62
7
  6
CONTINUOUS
 70
0
 71
3
 72
26
 73
22
 74
0
 42
0.0000001
 43
0.0000001
 44
0.0000000001
 40
0.0
 40
0.0
 40
0.0
 40
0.0
 40
0.181758072
 40
0.3582715717
 40
0.4424176924
 40
0.522733396
 40
0.5984622295
 40
0.6689084103
 40
0.7334507592
 40
0.7915601494
 40
0.8428240915
 40
0.8658069279
 40
0.8869993165
 40
0.9064059836
 40
0.9240542242
 40
0.9400013971
 40
0.9543458081
 40
0.9672418931
 40
0.9789191633
 40
0.9896996543
 40
1.0
 40
1.0
 40
1.0
 40
1.0
 10
195.169665879
 20
77.923881118
 30
0.0
 10
198.3200723789
 20
77.932375173
 30
0.0
 10
204.5304114417
 20
78.0896381167
 30
0.0
 10
212.1826704207
 20
78.6341673637
 30
0.0
 10
218.0579021538
 20
79.281322818
 30
0.0
 10
222.1824462447
 20
79.851950311
 30
0.0
 10
226.053491345
 20
80.5093431515
 30
0.0
 10
229.6315427693
 20
81.2465834676
 30
0.0
 10
232.8804260191
 20
82.0557455709
 30
0.0
 10
235.7672735827
 20
82.9282716016
 30
0.0
 10
237.9203876354
 20
83.7267213836
 30
0.0
 10
239.4323827071
 20
84.3991245601
 30
0.0
 10
240.4170555468
 20
84.8951885063
 30
0.0
 10
241.2919839289
 20
85.4002605892
 30
0.0
 10
242.0551430842
 20
85.913241624
 30
0.0
 10
242.7048525568
 20
86.4331166125
 30
0.0
 10
243.2396904567
 20
86.9591515309
 30
0.0
 10
243.6582780672
 20
87.4909418438
 30
0.0
 10
243.9587944652
 20
88.0285499336
 30
0.0
 10
244.1383926521
 20
88.571190651
 30
0.0
 10
244.175452014
 20
88.9383680013
 30
0.0
 10
244.1728696119
 20
89.1168855162
 30
0.0
  0
SPLINE
  5
289
100
AcDbEntity
  8
DTM_AXIS
100
AcDbSpline
 62
7
  6
CONTINUOUS
 70
0
 71
3
 72
20
 73
16
 74
0
 42
0.0000001
 43
0.0000001
 44
0.0000000001
 40
0.0
 40
0.0
 40
0.0
 40
0.0
 40
0.1939794819
 40
0.3703198242
 40
0.5270792969
 40
0.5976442255
 40
0.6628056748
 40
0.7224810392
 40
0.7766483525
 40
0.8253655108
 40
0.8687998531
 40
0.907273732
 40
0.9413319404
 40
0.9718286729
 40
1.0
 40
1.0
 40
1.0
 40
1.0
 10
227.4043053828
 20
98.4691584608
 30
0.0
 10
228.9993933414
 20
98.2401967195
 30
0.0
 10
232.0371322725
 20
97.7478094385
 30
0.0
 10
236.3251813289
 20
96.8545638169
 30
0.0
 10
239.5682454967
 20
95.9915954183
 30
0.0
 10
241.8786208731
 20
95.2374889944
 30
0.0
 10
243.3997306837
 20
94.6691571221
 30
0.0
 10
244.7659002454
 20
94.0801011228
 30
0.0
 10
245.9728310883
 20
93.4721822641
 30
0.0
 10
247.0169112454
 20
92.8472448326
 30
0.0
 10
247.8952186551
 20
92.2068258658
 30
0.0
 10
248.6053958739
 20
91.5519812059
 30
0.0
 10
249.1451037046
 20
90.8825571426
 30
0.0
 10
249.510580824
 20
90.1984483381
 30
0.0
 10
249.6363394925
 20
89.7214591188
 30
0.0
 10
249.6655412783
 20
89.4892617748
 30
0.0
  0
SPLINE
  5
28A
100
AcDbEntity
  8
DTM_AXIS
100
AcDbSpline
 62
7
  6
CONTINUOUS
 70
0
 71
3
 72
24
 73
20
 74
0
 42
0.0000001
 43
0.0000001
 44
0.0000000001
 40
0.0
 40
0.0
 40
0.0
 40
0.0
 40
0.213559499
 40
0.3108753238
 40
0.4013499894
 40
0.484661509
 40
0.5605599505
 40
0.6288859525
 40
0.6895996137
 40
0.7428277834
 40
0.7889437525
 40
0.8286997814
 40
0.8634227298
 40
0.8795618702
 40
0.8952885176
 40
0.9109614775
 40
0.9269434344
 40
0.961083303
 40
1.0
 40
1.0
 40
1.0
 40
1.0
 10
165.8880087845
 20
79.1581976041
 30
0.0
 10
164.0155284792
 20
79.4488901037
 30
0.0
 10
161.2981535787
 20
79.9333755
 30
0.0
 10
157.824443238
 20
80.7201076438
 30
0.0
 10
155.4976364347
 20
81.3325412809
 30
0.0
 10
153.3789503108
 20
81.9825265194
 30
0.0
 10
151.4785456231
 20
82.6668222386
 30
0.0
 10
149.80531123
 20
83.3820062458
 30
0.0
 10
148.3666907881
 20
84.124764224
 30
0.0
 10
147.1685115154
 20
84.8920276498
 30
0.0
 10
146.215064078
 20
85.6822819216
 30
0.0
 10
145.5099574882
 20
86.4951672949
 30
0.0
 10
145.1267368363
 20
87.2132868246
 30
0.0
 10
144.9683307887
 20
87.7846612116
 30
0.0
 10
144.9188825727
 20
88.2053200295
 30
0.0
 10
144.9364714957
 20
88.627130798
 30
0.0
 10
145.0512925295
 20
89.2017236869
 30
0.0
 10
145.3794751819
 20
89.9315911946
 30
0.0
 10
145.7782983726
 20
90.4485624268
 30
0.0
 10
146.0101401334
 20
90.7044657334
 30
0.0
  0
SPLINE
  5
28B
100
AcDbEntity
  8
DTM_AXIS
100
AcDbSpline
 62
7
  6
CONTINUOUS
 70
0
 71
3
 72
26
 73
22
 74
0
 42
0.0000001
 43
0.0000001
 44
0.0000000001
 40
0.0
 40
0.0
 40
0.0
 40
0.0
 40
0.1859985913
 40
0.3639027826
 40
0.4479362495
 40
0.5277453843
 40
0.6026822769
 40
0.672157631
 40
0.7356532123
 40
0.7927381543
 40
0.8430928523
 40
0.8656920324
 40
0.8865618973
 40
0.9057171466
 40
0.9231944901
 40
0.9390597456
 40
0.9534178003
 40
0.9664258642
 40
0.9783089108
 40
0.9893722274
 40
1.0
 40
1.0
 40
1.0
 40
1.0
 10
200.0148366203
 20
100.7858175943
 30
0.0
 10
203.2805612182
 20
100.7946225673
 30
0.0
 10
209.671055912
 20
100.67769288
 30
0.0
 10
217.5236178475
 20
100.1854693722
 30
0.0
 10
223.493919489
 20
99.5793728222
 30
0.0
 10
227.6520994338
 20
99.0395893813
 30
0.0
 10
231.5392037543
 20
98.4111751799
 30
0.0
 10
235.1205660125
 20
97.6999412857
 30
0.0
 10
238.3645934033
 20
96.9126200396
 30
0.0
 10
241.2426440677
 20
96.0565122071
 30
0.0
 10
243.3874155911
 20
95.2666050754
 30
0.0
 10
244.8932251813
 20
94.5972116697
 30
0.0
 10
245.8750131918
 20
94.1009575311
 30
0.0
 10
246.74852925
 20
93.593346742
 30
0.0
 10
247.512010607
 20
93.0753071691
 30
0.0
 10
248.1639767882
 20
92.5476911427
 30
0.0
 10
248.7031345766
 20
92.0111030825
 30
0.0
 10
249.128171483
 20
91.4658927683
 30
0.0
 10
249.4373618239
 20
90.9120926534
 30
0.0
 10
249.6281738961
 20
90.3506089605
 30
0.0
 10
249.6748660197
 20
89.9692751832
 30
0.0
 10
249.6775650542
 20
89.7826938033
 30
0.0
  0
SPLINE
  5
28C
100
AcDbEntity
  8
DTM_AXIS
100
AcDbSpline
 62
7
  6
CONTINUOUS
 70
0
 71
3
 72
28
 73
24
 74
0
 42
0.0000001
 43
0.0000001
 44
0.0000000001
 40
0.0
 40
0.0
 40
0.0
 40
0.0
 40
0.0186690951
 40
0.0351296475
 40
0.0496017611
 40
0.0624443699
 40
0.0741954364
 40
0.0855668379
 40
0.097345107
 40
0.1102370866
 40
0.1247740764
 40
0.1413093441
 40
0.1600589253
 40
0.1811432745
 40
0.2304694112
 40
0.2892744607
 40
0.3570783257
 40
0.4331250316
 40
0.5164588249
 40
0.6059705466
 40
0.700431603
 40
0.7985225759
 40
1.0
 40
1.0
 40
1.0
 40
1.0
 10
184.6388752461
 20
91.3573646716
 30
0.0
 10
184.5524657891
 20
91.4112846983
 30
0.0
 10
184.3939117003
 20
91.5196002792
 30
0.0
 10
184.1885022495
 20
91.696861461
 30
0.0
 10
184.0315798879
 20
91.8783358294
 30
0.0
 10
183.924201547
 20
92.0643019462
 30
0.0
 10
183.8684139733
 20
92.2547230838
 30
0.0
 10
183.8665839427
 20
92.4476106128
 30
0.0
 10
183.9187056505
 20
92.6394813829
 30
0.0
 10
184.0224370952
 20
92.8283633878
 30
0.0
 10
184.1757657908
 20
93.0141982791
 30
0.0
 10
184.3776800897
 20
93.1972336684
 30
0.0
 10
184.6274978916
 20
93.3774320687
 30
0.0
 10
185.0458743026
 20
93.6265137424
 30
0.0
 10
185.688660181
 20
93.9203967259
 30
0.0
 10
186.5952300066
 20
94.2380898443
 30
0.0
 10
187.6618332474
 20
94.5319287082
 30
0.0
 10
188.8729818206
 20
94.797354126
 30
0.0
 10
190.2111308219
 20
95.0301330791
 30
0.0
 10
191.6564634251
 20
95.2266131881
 30
0.0
 10
193.1875396657
 20
95.3837548908
 30
0.0
 10
195.3318509602
 20
95.5388313173
 30
0.0
 10
196.9665924904
 20
95.5874506443
 30
0.0
 10
198.0657853589
 20
95.5904142634
 30
0.0
  0
SPLINE
  5
28D
100
AcDbEntity
  8
DTM_AXIS
100
AcDbSpline
 62
7
  6
CONTINUOUS
 70
0
 71
3
 72
27
 73
23
 74
0
 42
0.0000001
 43
0.0000001
 44
0.0000000001
 40
0.0
 40
0.0
 40
0.0
 40
0.0
 40
0.0551064297
 40
0.1024523348
 40
0.1431491822
 40
0.1616081975
 40
0.1792033856
 40
0.1963181549
 40
0.2133709692
 40
0.2307850842
 40
0.248956697
 40
0.2888247763
 40
0.3351202071
 40
0.3890539979
 40
0.4512622852
 40
0.4855706493
 40
0.5220264714
 40
0.6013507975
 40
0.6891121992
 40
0.7850539678
 40
0.8888254807
 40
1.0
 40
1.0
 40
1.0
 40
1.0
 10
146.1051471671
 20
83.6827332968
 30
0.0
 10
145.6961526828
 20
83.9388882765
 30
0.0
 10
144.957742547
 20
84.4531902086
 30
0.0
 10
144.0361927194
 20
85.3102615436
 30
0.0
 10
143.4829146995
 20
86.0725612678
 30
0.0
 10
143.2042158902
 20
86.6864957428
 30
0.0
 10
143.0753037418
 20
87.1358287647
 30
0.0
 10
143.0206002715
 20
87.5878339353
 30
0.0
 10
143.0405387268
 20
88.0411375675
 30
0.0
 10
143.134911075
 20
88.4942919596
 30
0.0
 10
143.3660458229
 20
89.1156714986
 30
0.0
 10
143.8607300028
 20
89.8955036819
 30
0.0
 10
144.7171862932
 20
90.7815677932
 30
0.0
 10
145.8481248767
 20
91.6507703981
 30
0.0
 10
146.9761090416
 20
92.3355788231
 30
0.0
 10
148.006649517
 20
92.8782251982
 30
0.0
 10
149.1921698043
 20
93.446481268
 30
0.0
 10
150.8378665557
 20
94.1343785825
 30
0.0
 10
153.0081370278
 20
94.9086902359
 30
0.0
 10
155.4150161419
 20
95.6492708823
 30
0.0
 10
158.0458419536
 20
96.3520943717
 30
0.0
 10
159.8795394171
 20
96.7788640574
 30
0.0
 10
160.8307529064
 20
96.9864405787
 30
0.0
  0
SPLINE
  5
28E
100
AcDbEntity
  8
DTM_AXIS
100
AcDbSpline
 62
7
  6
CONTINUOUS
 70
0
 71
3
 72
31
 73
27
 74
0
 42
0.0000001
 43
0.0000001
 44
0.0000000001
 40
0.0
 40
0.0
 40
0.0
 40
0.0
 40
0.0676163737
 40
0.097228061
 40
0.1239102278
 40
0.1476204999
 40
0.1683782304
 40
0.1862936678
 40
0.2016184291
 40
0.2148262088
 40
0.2267043872
 40
0.2383458447
 40
0.2509103141
 40
0.2653194685
 40
0.2821627409
 40
0.3017688257
 40
0.3242966585
 40
0.3497973523
 40
0.378250558
 40
0.4436792032
 40
0.519625046
 40
0.6047014255
 40
0.6972332151
 40
0.7953332829
 40
0.8969650387
 40
1.0
 40
1.0
 40
1.0
 40
1.0
 10
186.1678422836
 20
89.9769933917
 30
0.0
 10
185.6742516108
 20
90.0863252458
 30
0.0
 10
184.9684586023
 20
90.2646936099
 30
0.0
 10
184.0881182486
 20
90.554417395
 30
0.0
 10
183.5308098976
 20
90.7727680144
 30
0.0
 10
183.0495327465
 20
91.0006460752
 30
0.0
 10
182.6465188298
 20
91.2369933225
 30
0.0
 10
182.3233783408
 20
91.4810317137
 30
0.0
 10
182.0813358532
 20
91.7327658114
 30
0.0
 10
181.9223412872
 20
91.9934984857
 30
0.0
 10
181.852094052
 20
92.2639741975
 30
0.0
 10
181.8769314065
 20
92.5378566299
 30
0.0
 10
181.9938213138
 20
92.8061372316
 30
0.0
 10
182.1956877724
 20
93.0671678221
 30
0.0
 10
182.4794076607
 20
93.3225236589
 30
0.0
 10
182.8436892352
 20
93.5726368145
 30
0.0
 10
183.2871512455
 20
93.816934807
 30
0.0
 10
183.8078271491
 20
94.0543940011
 30
0.0
 10
184.641218464
 20
94.3752415711
 30
0.0
 10
185.8588989073
 20
94.7410697045
 30
0.0
 10
187.5106200059
 20
95.1170479783
 30
0.0
 10
189.3797004537
 20
95.4386782496
 30
0.0
 10
191.4252330733
 20
95.6985319044
 30
0.0
 10
193.6024829045
 20
95.8904664753
 30
0.0
 10
195.8634662737
 20
96.0100538421
 30
0.0
 10
197.3937675149
 20
96.0397228233
 30
0.0
 10
198.1641368988
 20
96.0417998759
 30
0.0
  0
SPLINE
  5
28F
100
AcDbEntity
  8
DTM_AXIS
100
AcDbSpline
 62
7
  6
CONTINUOUS
 70
0
 71
3
 72
29
 73
25
 74
0
 42
0.0000001
 43
0.0000001
 44
0.0000000001
 40
0.0
 40
0.0
 40
0.0
 40
0.0
 40
0.0140602574
 40
0.0267624038
 40
0.0385346967
 40
0.049922348
 40
0.0615293172
 40
0.073925224
 40
0.0875733738
 40
0.1028111101
 40
0.1198663836
 40
0.1388842935
 40
0.159950219
 40
0.1831066205
 40
0.208364472
 40
0.2357109189
 40
0.2965199884
 40
0.3651261897
 40
0.4409347213
 40
0.5232183037
 40
0.6111444318
 40
0.7037959332
 40
0.8001883154
 40
1.0
 40
1.0
 40
1.0
 40
1.0
 10
252.076832721
 20
86.8107378704
 30
0.0
 10
252.2556666255
 20
87.0204367105
 30
0.0
 10
252.5707340281
 20
87.4428875071
 30
0.0
 10
252.913201663
 20
88.1211409636
 30
0.0
 10
253.0937270498
 20
88.8067220781
 30
0.0
 10
253.1071395978
 20
89.4947837409
 30
0.0
 10
252.9527440285
 20
90.1775298863
 30
0.0
 10
252.6350127247
 20
90.8491766991
 30
0.0
 10
252.1591788675
 20
91.5081472851
 30
0.0
 10
251.5286205366
 20
92.1546294477
 30
0.0
 10
250.7454697516
 20
92.7885811687
 30
0.0
 10
249.8116349816
 20
93.4093047503
 30
0.0
 10
248.7293340706
 20
94.0156178966
 30
0.0
 10
247.5012668254
 20
94.6060573193
 30
0.0
 10
246.1306574445
 20
95.1791049457
 30
0.0
 10
244.0430965875
 20
95.9450480195
 30
0.0
 10
241.0990275171
 20
96.8339465099
 30
0.0
 10
237.18616693
 20
97.7741472535
 30
0.0
 10
232.8206125682
 20
98.6105835014
 30
0.0
 10
228.0517606212
 20
99.3333189456
 30
0.0
 10
222.9335631679
 20
99.9336019501
 30
0.0
 10
217.5242477246
 20
100.4043402237
 30
0.0
 10
209.9149618665
 20
100.8568692715
 30
0.0
 10
204.1070712186
 20
100.9776763758
 30
0.0
 10
200.1905119949
 20
100.9671166372
 30
0.0
  0
SPLINE
  5
290
100
AcDbEntity
  8
DTM_AXIS
100
AcDbSpline
 62
7
  6
CONTINUOUS
 70
0
 71
3
 72
28
 73
24
 74
0
 42
0.0000001
 43
0.0000001
 44
0.0000000001
 40
0.0
 40
0.0
 40
0.0
 40
0.0
 40
0.0103267595
 40
0.0209589864
 40
0.0323581485
 40
0.0448942496
 40
0.0588368539
 40
0.0743699004
 40
0.0916122226
 40
0.1106351607
 40
0.1314754683
 40
0.1541442321
 40
0.1786329429
 40
0.2049176566
 40
0.2627125809
 40
0.3271283605
 40
0.3976295269
 40
0.4735821174
 40
0.554272678
 40
0.6389232485
 40
0.7267043525
 40
0.8167469985
 40
1.0
 40
1.0
 40
1.0
 40
1.0
 10
140.7297158612
 20
88.1442528697
 30
0.0
 10
140.7070059832
 20
88.361363416
 30
0.0
 10
140.7116452885
 20
88.8090241144
 30
0.0
 10
140.8750376688
 20
89.47857903
 30
0.0
 10
141.1906884441
 20
90.1424268874
 30
0.0
 10
141.6544494016
 20
90.7989682743
 30
0.0
 10
142.2635881866
 20
91.4483125241
 30
0.0
 10
143.0162581514
 20
92.0901591876
 30
0.0
 10
143.9107351008
 20
92.7237452898
 30
0.0
 10
144.9450266411
 20
93.3478997157
 30
0.0
 10
146.1167321803
 20
93.9612348569
 30
0.0
 10
147.4230200861
 20
94.5622420323
 30
0.0
 10
148.8606307234
 20
95.1494220286
 30
0.0
 10
151.0167859704
 20
95.9368562853
 30
0.0
 10
154.0176505581
 20
96.864689573
 30
0.0
 10
157.9671317936
 20
97.8683021634
 30
0.0
 10
162.3309004444
 20
98.7833272175
 30
0.0
 10
167.0634093916
 20
99.5998455015
 30
0.0
 10
172.1152977686
 20
100.3089192187
 30
0.0
 10
177.4335675991
 20
100.9028488196
 30
0.0
 10
182.9624362107
 20
101.3752651386
 30
0.0
 10
190.5815714137
 20
101.8387689049
 30
0.0
 10
196.3595717544
 20
101.9863431255
 30
0.0
 10
200.2333016664
 20
101.9967873886
 30
0.0
  0
SPLINE
  5
291
100
AcDbEntity
  8
DTM_AXIS
100
AcDbSpline
 62
7
  6
CONTINUOUS
 70
0
 71
3
 72
20
 73
16
 74
0
 42
0.0000001
 43
0.0000001
 44
0.0000000001
 40
0.0
 40
0.0
 40
0.0
 40
0.0
 40
0.0281717996
 40
0.058669528
 40
0.0927289682
 40
0.1312040959
 40
0.1746395604
 40
0.2233576277
 40
0.277525587
 40
0.3372013091
 40
0.402362818
 40
0.4729275091
 40
0.6296856592
 40
0.8060236664
 40
1.0
 40
1.0
 40
1.0
 40
1.0
 10
145.248532008
 20
87.9791273218
 30
0.0
 10
145.2710342674
 20
88.2120654502
 30
0.0
 10
145.3829987524
 20
88.6924743178
 30
0.0
 10
145.7285947132
 20
89.3868331969
 30
0.0
 10
146.2487561908
 20
90.0715548341
 30
0.0
 10
146.9397219505
 20
90.7466354
 30
0.0
 10
147.7991498331
 20
91.4121603416
 30
0.0
 10
148.824714061
 20
92.067005873
 30
0.0
 10
150.013538409
 20
92.7095511322
 30
0.0
 10
151.3620660416
 20
93.3378483169
 30
0.0
 10
152.8660545364
 20
93.9499128405
 30
0.0
 10
155.1535645198
 20
94.7704936349
 30
0.0
 10
158.3701712522
 20
95.7268661106
 30
0.0
 10
162.6303889742
 20
96.7437326257
 30
0.0
 10
165.6524664636
 20
97.3237638495
 30
0.0
 10
167.2401842393
 20
97.5987607814
 30
0.0
  0
LINE
  5
292
100
AcDbEntity
  8
DTM_AXIS
100
AcDbLine
 62
7
  6
CONTINUOUS
 10
139.9236871445
 20
88.1737005627
 11
139.9223323647
 21
88.1893728646
  0
SPLINE
  5
293
100
AcDbEntity
  8
DTM_AXIS
100
AcDbSpline
 62
7
  6
CONTINUOUS
 70
0
 71
3
 72
27
 73
23
 74
0
 42
0.0000001
 43
0.0000001
 44
0.0000000001
 40
0.0
 40
0.0
 40
0.0
 40
0.0
 40
0.0103140786
 40
0.0209753981
 40
0.0324353938
 40
0.0450527774
 40
0.0590874586
 40
0.0747161939
 40
0.0920528048
 40
0.1111652192
 40
0.1320878849
 40
0.1548303394
 40
0.205712521
 40
0.2635824991
 40
0.3280297883
 40
0.398520322
 40
0.4744230648
 40
0.5550286434
 40
0.639564082
 40
0.7272055986
 40
0.8170904388
 40
1.0
 40
1.0
 40
1.0
 40
1.0
 10
139.9223323647
 20
88.1893728646
 30
0.0
 10
139.9038994629
 20
88.40950138
 30
0.0
 10
139.9181158295
 20
88.8631771561
 30
0.0
 10
140.0968470516
 20
89.5397742111
 30
0.0
 10
140.4286985425
 20
90.2104485911
 30
0.0
 10
140.9096212527
 20
90.8737643571
 30
0.0
 10
141.5369809583
 20
91.5298369905
 30
0.0
 10
142.3089546932
 20
92.1783156317
 30
0.0
 10
143.2237956957
 20
92.8183953205
 30
0.0
 10
144.2794751398
 20
93.4488620082
 30
0.0
 10
145.4735315488
 20
94.0683602717
 30
0.0
 10
147.3163372827
 20
94.9093441361
 30
0.0
 10
149.9527385269
 20
95.9080990962
 30
0.0
 10
153.4998266355
 20
96.9994680894
 30
0.0
 10
157.5046502412
 20
98.0123055654
 30
0.0
 10
161.9259610484
 20
98.9356855744
 30
0.0
 10
166.7182534821
 20
99.759495329
 30
0.0
 10
171.8317008689
 20
100.4748204362
 30
0.0
 10
177.212995674
 20
101.0739246295
 30
0.0
 10
182.8060021433
 20
101.5504252104
 30
0.0
 10
190.5118748469
 20
102.0179037581
 30
0.0
 10
196.3552415911
 20
102.1667796263
 30
0.0
 10
200.2726422824
 20
102.1773416336
 30
0.0
  0
SPLINE
  5
294
100
AcDbEntity
  8
DTM_AXIS
100
AcDbSpline
 62
7
  6
CONTINUOUS
 70
0
 71
3
 72
26
 73
22
 74
0
 42
0.0000001
 43
0.0000001
 44
0.0000000001
 40
0.0
 40
0.0
 40
0.0
 40
0.0
 40
0.0103003457
 40
0.0210808371
 40
0.032758108
 40
0.0456541938
 40
0.0599986056
 40
0.0759457796
 40
0.093594021
 40
0.113000689
 40
0.1341930784
 40
0.1571759154
 40
0.2084398586
 40
0.2665492495
 40
0.3310915987
 40
0.4015377793
 40
0.4772666122
 40
0.557582315
 40
0.6417284345
 40
0.8182419314
 40
1.0
 40
1.0
 40
1.0
 40
1.0
 10
145.2279929536
 20
88.2717509731
 30
0.0
 10
145.2251057808
 20
88.4713381507
 30
0.0
 10
145.2665392153
 20
88.8818518791
 30
0.0
 10
145.4673347058
 20
89.4885381551
 30
0.0
 10
145.8033198886
 20
90.0895978172
 30
0.0
 10
146.2713117006
 20
90.6841530601
 30
0.0
 10
146.8692743215
 20
91.2722736317
 30
0.0
 10
147.5956663264
 20
91.8535072208
 30
0.0
 10
148.4488979722
 20
92.4270332165
 30
0.0
 10
149.4270904912
 20
92.9917167885
 30
0.0
 10
150.5279801337
 20
93.5463290262
 30
0.0
 10
152.2184296068
 20
94.2980930673
 30
0.0
 10
154.6256666036
 20
95.1907804388
 30
0.0
 10
157.8532365417
 20
96.1662869699
 30
0.0
 10
161.4855716699
 20
97.0709509898
 30
0.0
 10
165.4859252617
 20
97.8952046129
 30
0.0
 10
169.8138533021
 20
98.6301867002
 30
0.0
 10
174.4251997201
 20
99.2681628973
 30
0.0
 10
180.9938599403
 20
99.9916993241
 30
0.0
 10
189.5492823133
 20
100.6004970091
 30
0.0
 10
196.4926011242
 20
100.7763210224
 30
0.0
 10
200.0148366203
 20
100.7858175943
 30
0.0
  0
SPLINE
  5
295
100
AcDbEntity
  8
DTM_AXIS
100
AcDbSpline
 62
7
  6
CONTINUOUS
 70
0
 71
3
 72
17
 73
13
 74
0
 42
0.0000001
 43
0.0000001
 44
0.0000000001
 40
0.0
 40
0.0
 40
0.0
 40
0.0
 40
0.0411617917
 40
0.0822690354
 40
0.1242565885
 40
0.1679988025
 40
0.263528841
 40
0.373682585
 40
0.5012619818
 40
0.647797571
 40
0.8139915315
 40
1.0
 40
1.0
 40
1.0
 40
1.0
 10
131.0787317293
 20
85.3641696658
 30
0.0
 10
131.0477238883
 20
85.5364895968
 30
0.0
 10
131.011820677
 20
85.8862586431
 30
0.0
 10
131.0411203275
 20
86.4160577819
 30
0.0
 10
131.1536869326
 20
86.9458090948
 30
0.0
 10
131.4215691175
 20
87.6712830137
 30
0.0
 10
131.9860726042
 20
88.5821769716
 30
0.0
 10
132.9599603559
 20
89.6206949536
 30
0.0
 10
134.2428287959
 20
90.6406869487
 30
0.0
 10
135.8299952734
 20
91.6402563841
 30
0.0
 10
137.7155562133
 20
92.6166300084
 30
0.0
 10
139.0897750434
 20
93.2158292194
 30
0.0
 10
139.8228987549
 20
93.5134000253
 30
0.0
  0
SPLINE
  5
296
100
AcDbEntity
  8
DTM_AXIS
100
AcDbSpline
 62
7
  6
CONTINUOUS
 70
0
 71
3
 72
26
 73
22
 74
0
 42
0.0000001
 43
0.0000001
 44
0.0000000001
 40
0.0
 40
0.0
 40
0.0
 40
0.0
 40
0.0103003457
 40
0.0210808365
 40
0.0327581064
 40
0.0456541911
 40
0.0599986017
 40
0.0759457742
 40
0.0935940145
 40
0.1130006812
 40
0.1341930694
 40
0.1571759055
 40
0.2084398472
 40
0.2665492371
 40
0.3310915859
 40
0.4015377668
 40
0.4772666005
 40
0.5575823045
 40
0.6417284256
 40
0.8182419266
 40
1.0
 40
1.0
 40
1.0
 40
1.0
 10
244.1502622579
 20
90.6797030458
 30
0.0
 10
244.1528446752
 20
90.5011855306
 30
0.0
 10
244.1157853445
 20
90.1340081785
 30
0.0
 10
243.9361871993
 20
89.5913674529
 30
0.0
 10
243.635670839
 20
89.0537593548
 30
0.0
 10
243.2170832626
 20
88.5219690337
 30
0.0
 10
242.6822453936
 20
87.9959341072
 30
0.0
 10
242.0325359489
 20
87.4760591106
 30
0.0
 10
241.2693768184
 20
86.9630780675
 30
0.0
 10
240.3944484579
 20
86.4580059763
 30
0.0
 10
239.4097756366
 20
85.9619420216
 30
0.0
 10
237.8977805838
 20
85.2895388324
 30
0.0
 10
235.7446665463
 20
84.4910890352
 30
0.0
 10
232.8578189907
 20
83.6185629879
 30
0.0
 10
229.6089357373
 20
82.8094008685
 30
0.0
 10
226.0308842985
 20
82.0721605372
 30
0.0
 10
222.1598391737
 20
81.4147676827
 30
0.0
 10
218.0352950497
 20
80.8441401773
 30
0.0
 10
212.160063259
 20
80.1969847085
 30
0.0
 10
204.5078041969
 20
79.6524554494
 30
0.0
 10
198.2974650644
 20
79.4951925022
 30
0.0
 10
195.147058528
 20
79.4866984472
 30
0.0
  0
SPLINE
  5
297
100
AcDbEntity
  8
DTM_AXIS
100
AcDbSpline
 62
7
  6
CONTINUOUS
 70
0
 71
3
 72
28
 73
24
 74
0
 42
0.0000001
 43
0.0000001
 44
0.0000000001
 40
0.0
 40
0.0
 40
0.0
 40
0.0
 40
0.1832495263
 40
0.2732905755
 40
0.3610702671
 40
0.4457196726
 40
0.5264093732
 40
0.6023614592
 40
0.6728625176
 40
0.7372786154
 40
0.7950742979
 40
0.8213595536
 40
0.8458489108
 40
0.8685184187
 40
0.8893595577
 40
0.9083833985
 40
0.925626671
 40
0.9411606806
 40
0.9551042095
 40
0.9676411227
 40
0.9790408863
 40
0.9896733894
 40
1.0
 40
1.0
 40
1.0
 40
1.0
 10
194.054095766
 20
70.7207406893
 30
0.0
 10
198.8352113773
 20
70.7336314253
 30
0.0
 10
205.9666581057
 20
70.9157690979
 30
0.0
 10
215.370516227
 20
71.4878289795
 30
0.0
 10
222.1944938868
 20
72.0708892079
 30
0.0
 10
228.7585574506
 20
72.8039226604
 30
0.0
 10
234.9938611896
 20
73.6790689303
 30
0.0
 10
240.8349959509
 20
74.6868257016
 30
0.0
 10
246.221041104
 20
75.8161625249
 30
0.0
 10
251.095782578
 20
77.0548376493
 30
0.0
 10
254.7996998424
 20
78.1999847786
 30
0.0
 10
257.4610326698
 20
79.1718495539
 30
0.0
 10
259.235488578
 20
79.8965599172
 30
0.0
 10
260.8478679387
 20
80.6383370795
 30
0.0
 10
262.2941474804
 20
81.3953307142
 30
0.0
 10
263.5708320953
 20
82.1656788247
 30
0.0
 10
264.6749586676
 20
82.9476686754
 30
0.0
 10
265.6040678735
 20
83.7398546332
 30
0.0
 10
266.3560316515
 20
84.5412945135
 30
0.0
 10
266.9285713257
 20
85.3516169658
 30
0.0
 10
267.3183162117
 20
86.1709569963
 30
0.0
 10
267.5201481369
 20
86.9973429486
 30
0.0
 10
267.5259911696
 20
87.5498762373
 30
0.0
 10
267.498017409
 20
87.8178499887
 30
0.0
  0
SPLINE
  5
298
100
AcDbEntity
  8
DTM_AXIS
100
AcDbSpline
 62
7
  6
CONTINUOUS
 70
0
 71
3
 72
26
 73
22
 74
0
 42
0.0000001
 43
0.0000001
 44
0.0000000001
 40
0.0
 40
0.0
 40
0.0
 40
0.0
 40
0.0365918061
 40
0.0518464098
 40
0.0654343622
 40
0.0778222379
 40
0.0896375712
 40
0.1016061223
 40
0.114425753
 40
0.128659842
 40
0.1447076467
 40
0.1628287528
 40
0.1831803244
 40
0.2308427414
 40
0.2878862247
 40
0.3539990328
 40
0.4285833167
 40
0.5108387833
 40
0.5998107419
 40
0.7934810222
 40
1.0
 40
1.0
 40
1.0
 40
1.0
 10
210.1938775835
 20
91.7270094184
 30
0.0
 10
210.3457295811
 20
91.8279804128
 30
0.0
 10
210.552734424
 20
91.9873516852
 30
0.0
 10
210.7648721244
 20
92.2365280188
 30
0.0
 10
210.8698376627
 20
92.4146679332
 30
0.0
 10
210.9290365928
 20
92.5952960151
 30
0.0
 10
210.9405506311
 20
92.7772732249
 30
0.0
 10
210.9037600745
 20
92.957963034
 30
0.0
 10
210.8201278252
 20
93.1352496787
 30
0.0
 10
210.6915055168
 20
93.3086415115
 30
0.0
 10
210.5189932475
 20
93.4783066103
 30
0.0
 10
210.3032479736
 20
93.6443194131
 30
0.0
 10
209.939111688
 20
93.8725793123
 30
0.0
 10
209.3740008598
 20
94.1398868559
 30
0.0
 10
208.5713466684
 20
94.4258766937
 30
0.0
 10
207.6206351975
 20
94.6879751013
 30
0.0
 10
206.5341245566
 20
94.9225238717
 30
0.0
 10
205.3257866051
 20
95.1261847453
 30
0.0
 10
203.5219205261
 20
95.3591492211
 30
0.0
 10
201.0898352288
 20
95.547794072
 30
0.0
 10
199.0949802093
 20
95.5931891553
 30
0.0
 10
198.0657853589
 20
95.5904142634
 30
0.0
  0
SPLINE
  5
299
100
AcDbEntity
  8
DTM_AXIS
100
AcDbSpline
 62
7
  6
CONTINUOUS
 70
0
 71
3
 72
27
 73
23
 74
0
 42
0.0000001
 43
0.0000001
 44
0.0000000001
 40
0.0
 40
0.0
 40
0.0
 40
0.0
 40
0.0551061588
 40
0.1024519259
 40
0.1431487894
 40
0.1616078725
 40
0.1792031652
 40
0.1963180695
 40
0.2133710398
 40
0.2307853203
 40
0.2489570973
 40
0.288825468
 40
0.3351211059
 40
0.3890550075
 40
0.4512633127
 40
0.4855716544
 40
0.5220274351
 40
0.6013516303
 40
0.6891128507
 40
0.7850544066
 40
0.8888256952
 40
1.0
 40
1.0
 40
1.0
 40
1.0
 10
248.933649165
 20
85.1703124526
 30
0.0
 10
249.3350477285
 20
85.438186693
 30
0.0
 10
250.0582445438
 20
85.9736245806
 30
0.0
 10
250.9545804118
 20
86.8569796983
 30
0.0
 10
251.4855521638
 20
87.634950899
 30
0.0
 10
251.7463618654
 20
88.256678592
 30
0.0
 10
251.8622153449
 20
88.709544532
 30
0.0
 10
251.9038164981
 20
89.1629348474
 30
0.0
 10
251.870772028
 20
89.6154639822
 30
0.0
 10
251.7633317905
 20
90.0656909707
 30
0.0
 10
251.514324212
 20
90.6801136352
 30
0.0
 10
250.997302746
 20
91.4452967907
 30
0.0
 10
250.1155987749
 20
92.3062026359
 30
0.0
 10
248.9600241456
 20
93.1423154638
 30
0.0
 10
247.8127367065
 20
93.7942003933
 30
0.0
 10
246.7669618952
 20
94.3068036165
 30
0.0
 10
245.5655366978
 20
94.8405227416
 30
0.0
 10
243.9006808649
 20
95.4805215512
 30
0.0
 10
241.7089867197
 20
96.1917254025
 30
0.0
 10
239.2817652478
 20
96.8623701874
 30
0.0
 10
236.631788727
 20
97.4887978593
 30
0.0
 10
234.7865678373
 20
97.8623472351
 30
0.0
 10
233.8297758363
 20
98.0423223567
 30
0.0
  0
SPLINE
  5
29A
100
AcDbEntity
  8
DTM_AXIS
100
AcDbSpline
 62
7
  6
CONTINUOUS
 70
0
 71
3
 72
30
 73
26
 74
0
 42
0.0000001
 43
0.0000001
 44
0.0000000001
 40
0.0
 40
0.0
 40
0.0
 40
0.0
 40
0.0135307797
 40
0.0256938019
 40
0.036967183
 40
0.0479581301
 40
0.0593227943
 40
0.0716534633
 40
0.0854075591
 40
0.1009016233
 40
0.1183389891
 40
0.1378412188
 40
0.1594724021
 40
0.183255711
 40
0.2091842592
 40
0.2372282299
 40
0.2994479229
 40
0.3693760497
 40
0.4462872498
 40
0.5293217981
 40
0.6175136039
 40
0.7098125905
 40
0.8051044822
 40
0.9022294099
 40
1.0
 40
1.0
 40
1.0
 40
1.0
 10
142.9158278403
 20
85.2314907768
 30
0.0
 10
142.7203527205
 20
85.4476958168
 30
0.0
 10
142.376531761
 20
85.885137108
 30
0.0
 10
142.0062836151
 20
86.5963781293
 30
0.0
 10
141.8193293351
 20
87.3217107761
 30
0.0
 10
141.8222417907
 20
88.054207474
 30
0.0
 10
142.014530361
 20
88.783665752
 30
0.0
 10
142.3895181816
 20
89.5040229288
 30
0.0
 10
142.9410705828
 20
90.2144987548
 30
0.0
 10
143.6657139849
 20
90.9155722671
 30
0.0
 10
144.5611536179
 20
91.6069853982
 30
0.0
 10
145.6250578754
 20
92.2876213438
 30
0.0
 10
146.85456095
 20
92.9558324608
 30
0.0
 10
148.2461474063
 20
93.6096925253
 30
0.0
 10
149.7956443135
 20
94.2472364533
 30
0.0
 10
152.1485161413
 20
95.1025679701
 30
0.0
 10
155.4540120036
 20
96.1021986423
 30
0.0
 10
159.8307443703
 20
97.1695984272
 30
0.0
 10
164.6903420834
 20
98.127976984
 30
0.0
 10
169.9707578533
 20
98.964575448
 30
0.0
 10
175.6045991513
 20
99.6681207583
 30
0.0
 10
181.5195588149
 20
100.2292521915
 30
0.0
 10
187.6396451518
 20
100.640522766
 30
0.0
 10
193.8860743354
 20
100.896501888
 30
0.0
 10
198.0844135364
 20
100.961438222
 30
0.0
 10
200.1905119949
 20
100.9671166372
 30
0.0
  0
SPLINE
  5
29B
100
AcDbEntity
  8
DTM_AXIS
100
AcDbSpline
 62
7
  6
CONTINUOUS
 70
0
 71
3
 72
29
 73
25
 74
0
 42
0.0000001
 43
0.0000001
 44
0.0000000001
 40
0.0
 40
0.0
 40
0.0
 40
0.0
 40
0.0862845345
 40
0.1636010985
 40
0.2299510822
 40
0.2838514363
 40
0.3059043154
 40
0.3247105703
 40
0.3404693822
 40
0.3536401911
 40
0.3650988809
 40
0.3761936397
 40
0.3884039497
 40
0.4028441386
 40
0.4201531232
 40
0.4406376786
 40
0.464407043
 40
0.491450646
 40
0.5549302278
 40
0.629786283
 40
0.7141262923
 40
0.8056689347
 40
0.9018649327
 40
1.0
 40
1.0
 40
1.0
 40
1.0
 10
194.9634328564
 20
89.5184533603
 30
0.0
 10
194.660090986
 20
89.5449034798
 30
0.0
 10
194.0859221416
 20
89.6076743027
 30
0.0
 10
193.2846477592
 20
89.7394933191
 30
0.0
 10
192.6057671644
 20
89.90053653
 30
0.0
 10
192.1289384141
 20
90.0632237602
 30
0.0
 10
191.828139664
 20
90.2104056957
 30
0.0
 10
191.658938486
 20
90.3176841418
 30
0.0
 10
191.5313681964
 20
90.4290696083
 30
0.0
 10
191.4461493671
 20
90.5453858791
 30
0.0
 10
191.4066817748
 20
90.6681690404
 30
0.0
 10
191.4183820358
 20
90.793555069
 30
0.0
 10
191.4789495185
 20
90.9147303401
 30
0.0
 10
191.5830450127
 20
91.0313338843
 30
0.0
 10
191.7291661931
 20
91.1448295646
 30
0.0
 10
191.9166795532
 20
91.2553602358
 30
0.0
 10
192.144638499
 20
91.3624921861
 30
0.0
 10
192.5212288604
 20
91.507624955
 30
0.0
 10
193.0828684862
 20
91.6698101429
 30
0.0
 10
193.8523084681
 20
91.8314905067
 30
0.0
 10
194.7276602737
 20
91.9635960919
 30
0.0
 10
195.6830567972
 20
92.0619925052
 30
0.0
 10
196.6902712299
 20
92.1234943299
 30
0.0
 10
197.3760889502
 20
92.1386150041
 30
0.0
 10
197.7224003539
 20
92.1395487211
 30
0.0
  0
SPLINE
  5
29C
100
AcDbEntity
  8
DTM_AXIS
100
AcDbSpline
 62
7
  6
CONTINUOUS
 70
0
 71
3
 72
30
 73
26
 74
0
 42
0.0000001
 43
0.0000001
 44
0.0000000001
 40
0.0
 40
0.0
 40
0.0
 40
0.0
 40
0.0699491034
 40
0.1007997034
 40
0.128772144
 40
0.1538190705
 40
0.1759453279
 40
0.1952303806
 40
0.2118663412
 40
0.2262198205
 40
0.2389141497
 40
0.250873834
 40
0.2632048114
 40
0.2769168633
 40
0.2927348408
 40
0.3111021718
 40
0.332261292
 40
0.356324213
 40
0.3833177192
 40
0.4459105813
 40
0.5193544256
 40
0.6024997686
 40
0.6938944499
 40
0.791861668
 40
1.0
 40
1.0
 40
1.0
 40
1.0
 10
208.7054184219
 20
90.3029922941
 30
0.0
 10
209.1758050837
 20
90.4215540468
 30
0.0
 10
209.8493640441
 20
90.6118891953
 30
0.0
 10
210.6910528222
 20
90.9111930689
 30
0.0
 10
211.2285704882
 20
91.134241504
 30
0.0
 10
211.6967045211
 20
91.3641975474
 30
0.0
 10
212.0934007859
 20
91.6000397055
 30
0.0
 10
212.4171031328
 20
91.8409111581
 30
0.0
 10
212.6666624643
 20
92.0864634573
 30
0.0
 10
212.8407743465
 20
92.3372327403
 30
0.0
 10
212.9361635832
 20
92.5942958326
 30
0.0
 10
212.9469628735
 20
92.8551401212
 30
0.0
 10
212.8718718373
 20
93.1120331117
 30
0.0
 10
212.7163890837
 20
93.3604484002
 30
0.0
 10
212.4849110667
 20
93.6010422314
 30
0.0
 10
212.1790901987
 20
93.8347408401
 30
0.0
 10
211.8000273414
 20
94.0614729482
 30
0.0
 10
211.3491495881
 20
94.2805949299
 30
0.0
 10
210.6179180441
 20
94.5759644278
 30
0.0
 10
209.535684136
 20
94.9095006829
 30
0.0
 10
208.0529506874
 20
95.2480925153
 30
0.0
 10
206.356375984
 20
95.5344313113
 30
0.0
 10
204.4797610712
 20
95.7624695695
 30
0.0
 10
201.731701063
 20
95.9863283726
 30
0.0
 10
199.6075751866
 20
96.0456916416
 30
0.0
 10
198.1641368988
 20
96.0417998759
 30
0.0
  0
SPLINE
  5
29D
100
AcDbEntity
  8
DTM_AXIS
100
AcDbSpline
 62
7
  6
CONTINUOUS
 70
0
 71
3
 72
28
 73
24
 74
0
 42
0.0000001
 43
0.0000001
 44
0.0000000001
 40
0.0
 40
0.0
 40
0.0
 40
0.0
 40
0.0120820367
 40
0.023426236
 40
0.034543042
 40
0.0459757556
 40
0.0582226551
 40
0.0716844223
 40
0.0866535895
 40
0.103330089
 40
0.1218433075
 40
0.1422711383
 40
0.1646539796
 40
0.1890044191
 40
0.2435470589
 40
0.3056606274
 40
0.3749067429
 40
0.4507112814
 40
0.5323938581
 40
0.6191883426
 40
0.7102590097
 40
0.8047145238
 40
1.0
 40
1.0
 40
1.0
 40
1.0
 10
243.5955037005
 20
89.3782568719
 30
0.0
 10
243.6873437471
 20
89.5494979559
 30
0.0
 10
243.8377613934
 20
89.8979230947
 30
0.0
 10
243.9475019321
 20
90.4470718944
 30
0.0
 10
243.9289303394
 20
90.9968351132
 30
0.0
 10
243.7823644676
 20
91.5415542302
 30
0.0
 10
243.511233525
 20
92.0777842237
 30
0.0
 10
243.1189927122
 20
92.6046130679
 30
0.0
 10
242.6079002957
 20
93.1220863459
 30
0.0
 10
241.9794830779
 20
93.6300429948
 30
0.0
 10
241.2351673426
 20
94.127901495
 30
0.0
 10
240.3765999223
 20
94.6147500806
 30
0.0
 10
239.4057799757
 20
95.0895559737
 30
0.0
 10
237.9072437507
 20
95.7293193859
 30
0.0
 10
235.7642152987
 20
96.4787253402
 30
0.0
 10
232.8828460278
 20
97.2821477789
 30
0.0
 10
229.6305642998
 20
98.0114385531
 30
0.0
 10
226.0410221339
 20
98.6586454301
 30
0.0
 10
222.1513313549
 20
99.2165776588
 30
0.0
 10
218.0021431501
 20
99.6791048096
 30
0.0
 10
213.6368564785
 20
100.041209455
 30
0.0
 10
207.5216762194
 20
100.3884702415
 30
0.0
 10
202.860396094
 20
100.4811160539
 30
0.0
 10
199.7196465829
 20
100.4726480359
 30
0.0
  0
SPLINE
  5
29E
100
AcDbEntity
  8
DTM_AXIS
100
AcDbSpline
 62
7
  6
CONTINUOUS
 70
0
 71
3
 72
27
 73
23
 74
0
 42
0.0000001
 43
0.0000001
 44
0.0000000001
 40
0.0
 40
0.0
 40
0.0
 40
0.0
 40
0.0106659009
 40
0.02159738
 40
0.0332189569
 40
0.0458802788
 40
0.0598448052
 40
0.0752991632
 40
0.0923693602
 40
0.1111359714
 40
0.1316459111
 40
0.1539208901
 40
0.2037509332
 40
0.2604929642
 40
0.3238330251
 40
0.3933364872
 40
0.4684748155
 40
0.5486435047
 40
0.6331755834
 40
0.7213528342
 40
0.8124158258
 40
1.0
 40
1.0
 40
1.0
 40
1.0
 10
254.1776978406
 20
89.7860275589
 30
0.0
 10
254.1930232501
 20
89.9898125098
 30
0.0
 10
254.1796571314
 20
90.4071993941
 30
0.0
 10
254.0231666414
 20
91.0285848833
 30
0.0
 10
253.7332576423
 20
91.6419638577
 30
0.0
 10
253.3131531085
 20
92.2457862103
 30
0.0
 10
252.7651569511
 20
92.8399780625
 30
0.0
 10
252.0908699956
 20
93.4242884499
 30
0.0
 10
251.2917217166
 20
93.9981678123
 30
0.0
 10
250.3692899545
 20
94.560737484
 30
0.0
 10
249.3254592699
 20
95.110995765
 30
0.0
 10
247.7135463747
 20
95.8546478235
 30
0.0
 10
245.4029881054
 20
96.7322615044
 30
0.0
 10
242.2877032759
 20
97.6832773481
 30
0.0
 10
238.7607864686
 20
98.5586509482
 30
0.0
 10
234.8541495291
 20
99.3500422133
 30
0.0
 10
230.6031072876
 20
100.0497636733
 30
0.0
 10
226.0465695324
 20
100.6510963323
 30
0.0
 10
221.2263751216
 20
101.1482640033
 30
0.0
 10
216.1868355928
 20
101.5365645896
 30
0.0
 10
209.1677620937
 20
101.9076478277
 30
0.0
 10
203.8274320204
 20
102.0064778018
 30
0.0
 10
200.2333016664
 20
101.9967873886
 30
0.0
  0
SPLINE
  5
29F
100
AcDbEntity
  8
DTM_AXIS
100
AcDbSpline
 62
7
  6
CONTINUOUS
 70
0
 71
3
 72
28
 73
24
 74
0
 42
0.0000001
 43
0.0000001
 44
0.0000000001
 40
0.0
 40
0.0
 40
0.0
 40
0.0
 40
0.1905422831
 40
0.283903374
 40
0.3745782421
 40
0.461554232
 40
0.5438718234
 40
0.6206408866
 40
0.6910587071
 40
0.7544317325
 40
0.8102052154
 40
0.8351239242
 40
0.858024535
 40
0.8789047123
 40
0.8977892907
 40
0.914739802
 40
0.9298687493
 40
0.9433601943
 40
0.9554961022
 40
0.966680127
 40
0.9774360549
 40
0.9883546112
 40
1.0
 40
1.0
 40
1.0
 40
1.0
 10
199.7196465829
 20
100.4726480359
 30
0.0
 10
196.3463010969
 20
100.4635528979
 30
0.0
 10
191.3191924188
 20
100.328149535
 30
0.0
 10
184.7009584766
 20
99.9006305756
 30
0.0
 10
179.9220952184
 20
99.4656151251
 30
0.0
 10
175.3514682049
 20
98.9195883754
 30
0.0
 10
171.043209023
 20
98.2691994051
 30
0.0
 10
167.0483242224
 20
97.5224705219
 30
0.0
 10
163.4136965996
 20
96.688714487
 30
0.0
 10
160.1820085964
 20
95.7781833784
 30
0.0
 10
157.7717131989
 20
94.9364457008
 30
0.0
 10
156.0816658448
 20
94.2226855906
 30
0.0
 10
154.9850917152
 20
93.6952514295
 30
0.0
 10
154.0141371059
 20
93.1569999202
 30
0.0
 10
153.1713901041
 20
92.6093023868
 30
0.0
 10
152.4589652357
 20
92.0534037528
 30
0.0
 10
151.8786103923
 20
91.4901694457
 30
0.0
 10
151.4320289723
 20
90.9198999308
 30
0.0
 10
151.1216622205
 20
90.3423914411
 30
0.0
 10
150.9516360879
 20
89.7581767048
 30
0.0
 10
150.9267783872
 20
89.1709838214
 30
0.0
 10
151.0481492766
 20
88.5881198783
 30
0.0
 10
151.2165484886
 20
88.2222065695
 30
0.0
 10
151.3192062727
 20
88.0434123811
 30
0.0
  0
LINE
  5
2A0
100
AcDbEntity
  8
DTM_AXIS
100
AcDbLine
 62
7
  6
CONTINUOUS
 10
254.984689841
 20
89.8797351182
 11
254.9852346422
 21
89.8922242801
  0
SPLINE
  5
2A1
100
AcDbEntity
  8
DTM_AXIS
100
AcDbSpline
 62
7
  6
CONTINUOUS
 70
0
 71
3
 72
27
 73
23
 74
0
 42
0.0000001
 43
0.0000001
 44
0.0000000001
 40
0.0
 40
0.0
 40
0.0
 40
0.0
 40
0.0106425363
 40
0.0216163962
 40
0.0333313493
 40
0.0461201456
 40
0.0602312901
 40
0.0758398752
 40
0.0930636001
 40
0.1119772333
 40
0.1326236773
 40
0.155021888
 40
0.2050520585
 40
0.2619258274
 40
0.3253269242
 40
0.3948220427
 40
0.4698864849
 40
0.5499214638
 40
0.6342672006
 40
0.7222138445
 40
0.8130112579
 40
1.0
 40
1.0
 40
1.0
 40
1.0
 10
254.9852346422
 20
89.8922242801
 30
0.0
 10
254.9937900507
 20
90.0984938507
 30
0.0
 10
254.9659074782
 20
90.5206846694
 30
0.0
 10
254.7875743221
 20
91.1465348805
 30
0.0
 10
254.4758004549
 20
91.764091798
 30
0.0
 10
254.0336819254
 20
92.372033784
 30
0.0
 10
253.4633776603
 20
92.9703161527
 30
0.0
 10
252.7664337377
 20
93.5586357827
 30
0.0
 10
251.9442861602
 20
94.1363913609
 30
0.0
 10
250.9985459608
 20
94.7026710265
 30
0.0
 10
249.9311364765
 20
95.2564548548
 30
0.0
 10
248.2871106894
 20
96.0043329018
 30
0.0
 10
245.9362648626
 20
96.8869054507
 30
0.0
 10
242.7724036689
 20
97.8433531579
 30
0.0
 10
239.19648304
 20
98.7234338269
 30
0.0
 10
235.2405633719
 20
99.5188456817
 30
0.0
 10
230.9400789822
 20
100.2219427946
 30
0.0
 10
226.3340142419
 20
100.8260435152
 30
0.0
 10
221.4642532697
 20
101.3254047651
 30
0.0
 10
216.3751262173
 20
101.7153519147
 30
0.0
 10
209.2898676288
 20
102.0879141202
 30
0.0
 10
203.8998894422
 20
102.1871213356
 30
0.0
 10
200.2726422824
 20
102.1773416336
 30
0.0
  0
SPLINE
  5
2A2
100
AcDbEntity
  8
DTM_AXIS
100
AcDbSpline
 62
7
  6
CONTINUOUS
 70
0
 71
3
 72
24
 73
20
 74
0
 42
0.0000001
 43
0.0000001
 44
0.0000000001
 40
0.0
 40
0.0
 40
0.0
 40
0.0
 40
0.0389173179
 40
0.0730577092
 40
0.0890398724
 40
0.1047129939
 40
0.1204397549
 40
0.1365789608
 40
0.1713019108
 40
0.2110578116
 40
0.257173573
 40
0.3104014937
 40
0.3711148926
 40
0.4394406399
 40
0.5153388506
 40
0.5986501771
 40
0.6891246995
 40
0.7864404419
 40
1.0
 40
1.0
 40
1.0
 40
1.0
 10
248.8253448338
 20
92.1918012169
 30
0.0
 10
249.0644933123
 20
91.9427131792
 30
0.0
 10
249.4781071059
 20
91.4374990161
 30
0.0
 10
249.827273672
 20
90.7174364576
 30
0.0
 10
249.9586769891
 20
90.146409715
 30
0.0
 10
249.9884679563
 20
89.72528775
 30
0.0
 10
249.9512175697
 20
89.303378017
 30
0.0
 10
249.8094194652
 20
88.7276659406
 30
0.0
 10
249.4471521791
 20
87.9987674589
 30
0.0
 10
248.7658808416
 20
87.165831708
 30
0.0
 10
247.8357213583
 20
86.348334068
 30
0.0
 10
246.6602707853
 20
85.5467382805
 30
0.0
 10
245.2437739919
 20
84.7626822466
 30
0.0
 10
243.5919667029
 20
83.9994016166
 30
0.0
 10
241.7121932579
 20
83.2604245307
 30
0.0
 10
239.6132394398
 20
82.5494287805
 30
0.0
 10
237.3051676134
 20
81.8699479652
 30
0.0
 10
233.8557318179
 20
80.983065293
 30
0.0
 10
231.1535565122
 20
80.4201794707
 30
0.0
 10
229.2903007656
 20
80.0754444358
 30
0.0
  0
SPLINE
  5
2A3
100
AcDbEntity
  8
DTM_AXIS
100
AcDbSpline
 62
7
  6
CONTINUOUS
 70
0
 71
3
 72
17
 73
13
 74
0
 42
0.0000001
 43
0.0000001
 44
0.0000000001
 40
0.0
 40
0.0
 40
0.0
 40
0.0
 40
0.0411629241
 40
0.0822705885
 40
0.1242579793
 40
0.1679996069
 40
0.2635278107
 40
0.3736797635
 40
0.5012580928
 40
0.6477937018
 40
0.8139889399
 40
1.0
 40
1.0
 40
1.0
 40
1.0
 10
263.9049460856
 20
87.2851849795
 30
0.0
 10
263.9309790386
 20
87.4583367043
 30
0.0
 10
263.9567938444
 20
87.8090123725
 30
0.0
 10
263.9122400874
 20
88.3377700089
 30
0.0
 10
263.784446885
 20
88.8640719135
 30
0.0
 10
263.4957490308
 20
89.581531128
 30
0.0
 10
262.9051795779
 20
90.4757669916
 30
0.0
 10
261.9016793915
 20
91.4857359225
 30
0.0
 10
260.5898337285
 20
92.4682458908
 30
0.0
 10
258.9743783619
 20
93.4215371299
 30
0.0
 10
257.0612951116
 20
94.3430083538
 30
0.0
 10
255.6702615989
 20
94.9022328856
 30
0.0
 10
254.9288040765
 20
95.1784860414
 30
0.0
  0
SPLINE
  5
2A4
100
AcDbEntity
  8
DTM_AXIS
100
AcDbSpline
 62
7
  6
CONTINUOUS
 70
0
 71
3
 72
28
 73
24
 74
0
 42
0.0000001
 43
0.0000001
 44
0.0000000001
 40
0.0
 40
0.0
 40
0.0
 40
0.0
 40
0.1875830077
 40
0.2786454081
 40
0.3668220581
 40
0.4513535237
 40
0.5315215856
 40
0.6066592711
 40
0.6761620748
 40
0.7395014626
 40
0.7962428084
 40
0.8220396397
 40
0.846081737
 40
0.8683563712
 40
0.8888659689
 40
0.9076322439
 40
0.9247021143
 40
0.940156161
 40
0.9541203991
 40
0.9667814666
 40
0.9784028365
 40
0.9893341707
 40
1.0
 40
1.0
 40
1.0
 40
1.0
 10
194.054095766
 20
70.7207406893
 30
0.0
 10
189.6179243197
 20
70.7087799839
 30
0.0
 10
183.0264499751
 20
70.8307647309
 30
0.0
 10
174.362934037
 20
71.2887887982
 30
0.0
 10
168.1427231349
 20
71.7680636093
 30
0.0
 10
162.193251374
 20
72.3817127688
 30
0.0
 10
156.5691999576
 20
73.1239278271
 30
0.0
 10
151.3222520726
 20
73.9875950334
 30
0.0
 10
146.5002938993
 20
74.9643682632
 30
0.0
 10
142.1473725676
 20
76.0449320589
 30
0.0
 10
138.8453921525
 20
77.0524542017
 30
0.0
 10
136.4757406583
 20
77.9129734966
 30
0.0
 10
134.896193374
 20
78.557351497
 30
0.0
 10
133.4606723914
 20
79.2198189946
 30
0.0
 10
132.1722974178
 20
79.8989568523
 30
0.0
 10
131.0337781256
 20
80.5933374873
 30
0.0
 10
130.0474232386
 20
81.3016663646
 30
0.0
 10
129.215184285
 20
82.022872588
 30
0.0
 10
128.5388247128
 20
82.7562747585
 30
0.0
 10
128.0203206937
 20
83.5015638937
 30
0.0
 10
127.6625161001
 20
84.2586486029
 30
0.0
 10
127.4693892013
 20
85.0256153054
 30
0.0
 10
127.4529102547
 20
85.5407872354
 30
0.0
 10
127.4718350713
 20
85.7923145954
 30
0.0
  0
SPLINE
  5
2A5
100
AcDbEntity
  8
DTM_AXIS
100
AcDbSpline
 62
7
  6
CONTINUOUS
 70
0
 71
3
 72
11
 73
7
 74
0
 42
0.0000001
 43
0.0000001
 44
0.0000000001
 40
0.0
 40
0.0
 40
0.0
 40
0.0
 40
0.2509239469
 40
0.5026589645
 40
0.7516985602
 40
1.0
 40
1.0
 40
1.0
 40
1.0
 10
88.3405345088
 20
160.4107201043
 30
0.0
 10
87.5676666993
 20
160.4107201043
 30
0.0
 10
86.0175939748
 20
160.2547931907
 30
0.0
 10
83.7697695502
 20
159.6736203298
 30
0.0
 10
81.6171361409
 20
158.8347506466
 30
0.0
 10
80.2211849089
 20
158.2043170696
 30
0.0
 10
79.5213733839
 20
157.8958240114
 30
0.0
  0
SPLINE
  5
2A6
100
AcDbEntity
  8
DTM_AXIS
100
AcDbSpline
 62
7
  6
CONTINUOUS
 70
0
 71
3
 72
16
 73
12
 74
0
 42
0.0000001
 43
0.0000001
 44
0.0000000001
 40
0.0
 40
0.0
 40
0.0
 40
0.0
 40
0.1247573207
 40
0.2487416904
 40
0.3105052498
 40
0.3722049291
 40
0.4958052376
 40
0.6191376998
 40
0.7425117859
 40
0.8681256088
 40
1.0
 40
1.0
 40
1.0
 40
1.0
 10
175.598895925
 20
155.397664668
 30
0.0
 10
175.7197819155
 20
155.397664668
 30
0.0
 10
175.9614108638
 20
155.3733807032
 30
0.0
 10
176.2510082027
 20
155.2840620644
 30
0.0
 10
176.4664661709
 20
155.1778858994
 30
0.0
 10
176.6687808543
 20
155.0491212821
 30
0.0
 10
176.8978682225
 20
154.8549906352
 30
0.0
 10
177.1407898727
 20
154.5895290913
 30
0.0
 10
177.3400463443
 20
154.2865107627
 30
0.0
 10
177.4827976299
 20
153.9437024618
 30
0.0
 10
177.5296856422
 20
153.6964590521
 30
0.0
 10
177.5408225958
 20
153.56916309
 30
0.0
  0
SPLINE
  5
2A7
100
AcDbEntity
  8
DTM_AXIS
100
AcDbSpline
 62
7
  6
CONTINUOUS
 70
0
 71
3
 72
17
 73
13
 74
0
 42
0.0000001
 43
0.0000001
 44
0.0000000001
 40
0.0
 40
0.0
 40
0.0
 40
0.0
 40
0.1258020652
 40
0.190175613
 40
0.2545899066
 40
0.3819371588
 40
0.5060747801
 40
0.5668660021
 40
0.6270641841
 40
0.7481279934
 40
0.872394564
 40
1.0
 40
1.0
 40
1.0
 40
1.0
 10
48.6437457933
 20
157.8958284237
 30
0.0
 10
48.4713071961
 20
157.8958284237
 30
0.0
 10
48.2102844343
 20
157.8577993683
 30
0.0
 10
47.8748221338
 20
157.7617480945
 30
0.0
 10
47.5446703956
 20
157.6413900728
 30
0.0
 10
47.1549356741
 20
157.4487548869
 30
0.0
 10
46.8060760035
 20
157.196144098
 30
0.0
 10
46.56648655
 20
156.9597176692
 30
0.0
 10
46.3570061918
 20
156.7016399833
 30
0.0
 10
46.1402014279
 20
156.3412552802
 30
0.0
 10
45.9262234889
 20
155.8767237765
 30
0.0
 10
45.7933199169
 20
155.5580839002
 30
0.0
 10
45.7236586712
 20
155.3976438971
 30
0.0
  0
SPLINE
  5
2A8
100
AcDbEntity
  8
DTM_AXIS
100
AcDbSpline
 62
7
  6
CONTINUOUS
 70
0
 71
3
 72
16
 73
12
 74
0
 42
0.0000001
 43
0.0000001
 44
0.0000000001
 40
0.0
 40
0.0
 40
0.0
 40
0.0
 40
0.1247573207
 40
0.2487416904
 40
0.3105052498
 40
0.3722049291
 40
0.4958052376
 40
0.6191376998
 40
0.7425117859
 40
0.8681256088
 40
1.0
 40
1.0
 40
1.0
 40
1.0
 10
39.4134128991
 20
155.397664668
 30
0.0
 10
39.2925269087
 20
155.397664668
 30
0.0
 10
39.0508979604
 20
155.3733807032
 30
0.0
 10
38.7613006215
 20
155.2840620644
 30
0.0
 10
38.5458426533
 20
155.1778858994
 30
0.0
 10
38.3435279699
 20
155.0491212821
 30
0.0
 10
38.1144406017
 20
154.8549906352
 30
0.0
 10
37.8715189515
 20
154.5895290913
 30
0.0
 10
37.6722624798
 20
154.2865107627
 30
0.0
 10
37.5295111943
 20
153.9437024618
 30
0.0
 10
37.482623182
 20
153.6964590521
 30
0.0
 10
37.4714862284
 20
153.56916309
 30
0.0
  0
SPLINE
  5
2A9
100
AcDbEntity
  8
DTM_AXIS
100
AcDbSpline
 62
7
  6
CONTINUOUS
 70
0
 71
3
 72
17
 73
13
 74
0
 42
0.0000001
 43
0.0000001
 44
0.0000000001
 40
0.0
 40
0.0
 40
0.0
 40
0.0
 40
0.1258020652
 40
0.190175613
 40
0.2545899066
 40
0.3819371588
 40
0.5060747801
 40
0.5668660021
 40
0.6270641841
 40
0.7481279934
 40
0.872394564
 40
1.0
 40
1.0
 40
1.0
 40
1.0
 10
166.3685630308
 20
157.8958284237
 30
0.0
 10
166.5410016281
 20
157.8958284237
 30
0.0
 10
166.8020243899
 20
157.8577993683
 30
0.0
 10
167.1374866904
 20
157.7617480945
 30
0.0
 10
167.4676384286
 20
157.6413900728
 30
0.0
 10
167.8573731501
 20
157.4487548869
 30
0.0
 10
168.2062328207
 20
157.196144098
 30
0.0
 10
168.4458222742
 20
156.9597176692
 30
0.0
 10
168.6553026324
 20
156.7016399833
 30
0.0
 10
168.8721073962
 20
156.3412552802
 30
0.0
 10
169.0860853352
 20
155.8767237765
 30
0.0
 10
169.2189889073
 20
155.5580839002
 30
0.0
 10
169.288650153
 20
155.3976438971
 30
0.0
  0
SPLINE
  5
2AA
100
AcDbEntity
  8
DTM_AXIS
100
AcDbSpline
 62
7
  6
CONTINUOUS
 70
0
 71
3
 72
11
 73
7
 74
0
 42
0.0000001
 43
0.0000001
 44
0.0000000001
 40
0.0
 40
0.0
 40
0.0
 40
0.0
 40
0.2509239469
 40
0.5026589645
 40
0.7516985602
 40
1.0
 40
1.0
 40
1.0
 40
1.0
 10
126.6717743154
 20
160.4107201043
 30
0.0
 10
127.4446421249
 20
160.4107201043
 30
0.0
 10
128.9947148494
 20
160.2547931907
 30
0.0
 10
131.242539274
 20
159.6736203298
 30
0.0
 10
133.3951726833
 20
158.8347506466
 30
0.0
 10
134.7911239153
 20
158.2043170696
 30
0.0
 10
135.4909354403
 20
157.8958240114
 30
0.0
  0
ENDSEC
  0
SECTION
  2
OBJECTS
  0
DICTIONARY
  5
C
100
AcDbDictionary
280
0
281
1
  3
ACAD_GROUP
350
D
  3
ACAD_MLINESTYLE
350
17
  3
ACAD_LAYOUT
350
1A
  3
ACAD_PLOTSETTINGS
350
19
  3
ACAD_PLOTSTYLENAME
350
E
  3
ACAD_TABLESTYLE
350
       2AB
  0
DICTIONARY
  5
D
102
{ACAD_REACTORS
330
C
102
}
100
AcDbDictionary
280
0
281
1
  0
ACDBDICTIONARYWDFLT
  5
E
102
{ACAD_REACTORS
330
C
102
}
100
AcDbDictionary
281
1
  3
Normal
350
F
100
AcDbDictionaryWithDefault
340
F
  0
DICTIONARY
  5
17
102
{ACAD_REACTORS
330
C
102
}
100
AcDbDictionary
280
0
281
1
  3
Standard
350
18
  0
DICTIONARY
  5
2AB
330
C
100
AcDbDictionary
281
1
  3
Standard
350
       2AE
  3
Standard1
350
       2AF
  0
DICTIONARY
  5
19
102
{ACAD_REACTORS
330
C
102
}
100
AcDbDictionary
281
1
  0
DICTIONARY
  5
1A
102
{ACAD_REACTORS
330
C
102
}
100
AcDbDictionary
281
1
  3
Model
350
2AC
  3
Layout1
350
2AD
  0
ACDBPLACEHOLDER
  5
F
102
{ACAD_REACTORS
330
E
102
}
  0
MLINESTYLE
  5
18
102
{ACAD_REACTORS
330
17
102
}
100
AcDbMlineStyle
  2
STANDARD
 70
0
  3

 62
256
 51
90.0
 52
90.0
 71
2
 49
0.5
 62
256
  6
BYLAYER
 49
-0.5
 62
256
  6
BYLAYER
  0
LAYOUT
  5
2AC
102
{ACAD_REACTORS
330
1A
102
}
100
AcDbPlotSettings
  1

  2
none_device
  4
ISO_A4_(297.00_x_210.00_MM)
  6

 40
0.0
 41
0.0
 42
0.0
 43
0.0
 44
297.0
 45
210.0
 46
0.0
 47
0.0
 48
0.0
 49
0.0
140
0.0
141
0.0
142
1.0
143
1.0
 70
1024
 72
1
 73
0
 74
0
  7

 75
0
147
1.0
148
0.0
149
0.0
100
AcDbLayout
  1
Model
 70
0
 71
0
 10
0.0
 20
0.0
 11
297.0
 21
210.0
 12
0.0
 22
0.0
 32
0.0
 14
0.0
 24
0.0
 34
0.0
 15
0.0
 25
0.0
 35
0.0
146
0.0
 13
0.0
 23
0.0
 33
0.0
 16
1.0
 26
0.0
 36
0.0
 17
0.0
 27
1.0
 37
0.0
 76
0
330
20B
345
0
346
0
  0
LAYOUT
  5
2AD
102
{ACAD_REACTORS
330
1A
102
}
100
AcDbPlotSettings
  1

  2
none_device
  4
ISO_A4_(297.00_x_210.00_MM)
  6

 40
0.0
 41
0.0
 42
0.0
 43
0.0
 44
297.0
 45
210.0
 46
0.0
 47
0.0
 48
0.0
 49
0.0
140
0.0
141
0.0
142
1.0
143
1.0
 70
0
 72
1
 73
0
 74
0
  7

 75
0
147
1.0
148
0.0
149
0.0
100
AcDbLayout
  1
Layout1
 70
0
 71
1
 10
0.0
 20
0.0
 11
297.0
 21
210.0
 12
0.0
 22
0.0
 32
0.0
 14
0.0
 24
0.0
 34
0.0
 15
0.0
 25
0.0
 35
0.0
146
0.0
 13
0.0
 23
0.0
 33
0.0
 16
1.0
 26
0.0
 36
0.0
 17
0.0
 27
1.0
 37
0.0
 76
0
330
20C
345
0
346
0
  0
TABLESTYLE
  5
2AE
102
{ACAD_REACTORS
330
2AB
330
253
102
}
330
2AB
100
AcDbTableStyle
  3
Standard
 70
0
 71
0
 40
0.06
 41
0.06
280
1
281
1
  7
Standard
140
0.18
170
1
 62
0
 63
7
283
0
  7
Standard
140
0.18
170
1
 62
0
 63
7
283
0
  7
Standard
140
0.18
170
1
 62
0
 63
7
283
0
  0
TABLESTYLE
  5
2AF
102
{ACAD_REACTORS
330
2AB
102
}
330
2AB
100
AcDbTableStyle
  3
Standard1
 70
1
 71
0
 40
0.06
 41
0.06
280
1
281
1
  7
Standard
140
0.18
170
1
 62
0
 63
7
283
0
  7
Standard
140
0.18
170
1
 62
0
 63
7
283
0
  7
Standard
140
0.18
170
1
 62
0
 63
7
283
0
  0
ENDSEC
  0
EOF
