999
DXF file: O:\ORAC_PRODUCTEN\ORAC_LIJN6\C-Type\C361\c361-prod-inches.dxf
999
Pro/ENGINEER 2017260 by Parametric Technology Corporation
  0
SECTION
  2
HEADER
  9
$ACADVER
  1
AC1024
  9
$DWGCODEPAGE
  3
ANSI_1250
  9
$EXTMAX
 10
297.0
 20
210.0
 30
0.0
  9
$EXTMIN
 10
0.0
 20
0.0
 30
0.0
  9
$LIMMIN
 10
0.0
 20
0.0
  9
$LIMMAX
 10
297.0
 20
210.0
  9
$VIEWCTR
 10
148.5
 20
105.0
  9
$VIEWSIZE
 40
210.0
  9
$CLAYER
  8
0
  9
$LTSCALE
 40
16.335
  9
$CELTYPE
  6
BYLAYER
  9
$DIMSCALE
 40
1.0
  9
$DIMASZ
 40
3.5
  9
$DIMEXO
 40
1.0
  9
$DIMDLI
 40
11.286
  9
$DIMEXE
 40
1.5
  9
$DIMCEN
 40
2.673
  9
$DIMLFAC
 40
1.0
  9
$DIMBLK
  1
_FILLED
  9
$DIMALT
 70
0
  9
$DIMALTF
 40
25.4
  9
$DIMTXT
 40
2.5
  9
$DIMTOL
 70
1
  9
$DIMLIM
 70
0
  9
$DIMTFAC
 40
1.0
  9
$DIMTP
 40
0.001
  9
$DIMTM
 40
0.001
  9
$DIMGAP
 40
0.625
  9
$DIMDSEP
 70
44
  9
$AUNITS
 70
0
  9
$PDMODE
 70
3
  9
$PDSIZE
 40
8.0
  9
$HANDSEED
  5
2FE
  9
$TILEMODE
 70
1
  9
$MEASUREMENT
 70
1
  9
$INSUNITS
 70
4
  0
ENDSEC
  0
SECTION
  2
CLASSES
  0
CLASS
  1
ACDBDICTIONARYWDFLT
  2
AcDbDictionaryWithDefault
  3
AutoCAD 2000
 90
0
 91
1
280
0
281
0
  0
CLASS
  1
ACDBPLACEHOLDER
  2
AcDbPlaceHolder
  3
AutoCAD 2000
 90
0
 91
1
280
0
281
0
  0
CLASS
  1
LAYOUT
  2
AcDbLayout
  3
AutoCAD 2000
 90
0
 91
0
280
0
281
0
  0
CLASS
  1
TABLESTYLE
  2
AcDbTableStyle
  3
ObjectDBX Classes
 90
2047
 91
1
280
0
281
0
  0
CLASS
  1
ACAD_TABLE
  2
AcDbTable
  3
ObjectDBX Classes
 90
1025
 91
1
280
0
281
1
  0
ENDSEC
  0
SECTION
  2
TABLES
  0
TABLE
  2
VPORT
  5
8
100
AcDbSymbolTable
 70
2
  0
VPORT
  5
1F4
100
AcDbSymbolTableRecord
100
AcDbViewportTableRecord
  2
*ACTIVE
 70
0
 10
0.0
 20
0.0
 11
1.0
 21
1.0
 12
148.5
 22
105.0
 13
0.0
 23
0.0
 14
1.0
 24
1.0
 15
0.0
 25
0.0
 16
0.0
 26
0.0
 36
1.0
 17
0.0
 27
0.0
 37
0.0
 40
210.0
 41
1.4142857143
 42
50.0
 43
0.0
 44
0.0
 50
0.0
 51
0.0
 71
0
 72
100
 73
1
 74
1
 75
0
 76
0
 77
0
 78
0
  0
ENDTAB
  0
TABLE
  2
LTYPE
  5
5
100
AcDbSymbolTable
 70
6
  0
LTYPE
  5
14
100
AcDbSymbolTableRecord
100
AcDbLinetypeTableRecord
  2
BYBLOCK
 70
0
  3

 72
65
 73
0
 40
0.0
  0
LTYPE
  5
15
100
AcDbSymbolTableRecord
100
AcDbLinetypeTableRecord
  2
BYLAYER
 70
0
  3

 72
65
 73
0
 40
0.0
  0
LTYPE
  5
16
100
AcDbSymbolTableRecord
100
AcDbLinetypeTableRecord
  2
CONTINUOUS
 70
64
  3
Solid line
 72
65
 73
0
 40
0.0
  0
LTYPE
  5
1F5
100
AcDbSymbolTableRecord
100
AcDbLinetypeTableRecord
  2
CENTER
 70
64
  3
____ _ ____ _ ____ _ ____ _ ____ _ ____ _ ____
 72
65
 73
4
 40
0.6
 49
0.375
 74
0
 49
-0.075
 74
0
 49
0.075
 74
0
 49
-0.075
 74
0
  0
LTYPE
  5
1F6
100
AcDbSymbolTableRecord
100
AcDbLinetypeTableRecord
  2
HIDDEN
 70
64
  3
- - - - - - - - - - - - - - - - - - - -
 72
65
 73
2
 40
0.2
 49
0.1
 74
0
 49
-0.1
 74
0
  0
LTYPE
  5
1F7
100
AcDbSymbolTableRecord
100
AcDbLinetypeTableRecord
  2
PHANTOM
 70
64
  3
_____ _ _ _____ _ _ _____ _ _ _____
 72
65
 73
6
 40
0.8
 49
0.45
 74
0
 49
-0.05
 74
0
 49
0.1
 74
0
 49
-0.05
 74
0
 49
0.1
 74
0
 49
-0.05
 74
0
  0
LTYPE
  5
1F8
100
AcDbSymbolTableRecord
100
AcDbLinetypeTableRecord
  2
DOT
 70
64
  3
. . . . . . . . . . . . . . . . . . . .
 72
65
 73
2
 40
0.2
 49
0.1
 74
0
 49
-0.1
 74
0
  0
LTYPE
  5
1F9
100
AcDbSymbolTableRecord
100
AcDbLinetypeTableRecord
  2
DASHED
 70
64
  3
- - - - - - - - - - - - - - - - - - - -
 72
65
 73
2
 40
0.2
 49
0.1
 74
0
 49
-0.1
 74
0
  0
ENDTAB
  0
TABLE
  2
LAYER
  5
2
100
AcDbSymbolTable
 70
36
  0
LAYER
  5
10
100
AcDbSymbolTableRecord
100
AcDbLayerTableRecord
  2
0
 70
0
 62
7
  6
CONTINUOUS
370
-3
390
F
  0
LAYER
  5
1FA
100
AcDbSymbolTableRecord
100
AcDbLayerTableRecord
  2
DEFAULT_1
 70
0
 62
7
  6
CENTER
370
-3
390
F
  0
LAYER
  5
1FB
100
AcDbSymbolTableRecord
100
AcDbLayerTableRecord
  2
DEFAULT_2
 70
0
 62
8
  6
HIDDEN
370
-3
390
F
  0
LAYER
  5
1FC
100
AcDbSymbolTableRecord
100
AcDbLayerTableRecord
  2
DEFAULT_3
 70
0
 62
7
  6
PHANTOM
370
-3
390
F
  0
LAYER
  5
1FD
100
AcDbSymbolTableRecord
100
AcDbLayerTableRecord
  2
01___PRT_ALL_DTM_PLN
 70
0
 62
7
  6
CONTINUOUS
370
-3
390
F
  0
LAYER
  5
1FE
100
AcDbSymbolTableRecord
100
AcDbLayerTableRecord
  2
01___PRT_DEF_DTM_PLN
 70
0
 62
7
  6
CONTINUOUS
370
-3
390
F
  0
LAYER
  5
1FF
100
AcDbSymbolTableRecord
100
AcDbLayerTableRecord
  2
02___PRT_ALL_AXES
 70
0
 62
7
  6
CONTINUOUS
370
-3
390
F
  0
LAYER
  5
200
100
AcDbSymbolTableRecord
100
AcDbLayerTableRecord
  2
03___PRT_ALL_CURVES
 70
0
 62
7
  6
CONTINUOUS
370
-3
390
F
  0
LAYER
  5
201
100
AcDbSymbolTableRecord
100
AcDbLayerTableRecord
  2
04___PRT_ALL_DTM_PNT
 70
0
 62
7
  6
CONTINUOUS
370
-3
390
F
  0
LAYER
  5
202
100
AcDbSymbolTableRecord
100
AcDbLayerTableRecord
  2
05___PRT_ALL_DTM_CSYS
 70
0
 62
7
  6
CONTINUOUS
370
-3
390
F
  0
LAYER
  5
203
100
AcDbSymbolTableRecord
100
AcDbLayerTableRecord
  2
05___PRT_DEF_DTM_CSYS
 70
0
 62
7
  6
CONTINUOUS
370
-3
390
F
  0
LAYER
  5
204
100
AcDbSymbolTableRecord
100
AcDbLayerTableRecord
  2
06___PRT_ALL_SURFS
 70
0
 62
7
  6
CONTINUOUS
370
-3
390
F
  0
LAYER
  5
205
100
AcDbSymbolTableRecord
100
AcDbLayerTableRecord
  2
AXES
 70
0
 62
7
  6
CONTINUOUS
370
-3
390
F
  0
LAYER
  5
206
100
AcDbSymbolTableRecord
100
AcDbLayerTableRecord
  2
DTM_ALL
 70
0
 62
7
  6
CONTINUOUS
370
-3
390
F
  0
LAYER
  5
207
100
AcDbSymbolTableRecord
100
AcDbLayerTableRecord
  2
DTM_AXIS
 70
0
 62
7
  6
CONTINUOUS
370
-3
390
F
  0
LAYER
  5
208
100
AcDbSymbolTableRecord
100
AcDbLayerTableRecord
  2
DTM_CSYS
 70
0
 62
7
  6
CONTINUOUS
370
-3
390
F
  0
LAYER
  5
209
100
AcDbSymbolTableRecord
100
AcDbLayerTableRecord
  2
DTM_CURVE
 70
0
 62
7
  6
CONTINUOUS
370
-3
390
F
  0
LAYER
  5
20A
100
AcDbSymbolTableRecord
100
AcDbLayerTableRecord
  2
DTM_MASTER
 70
0
 62
7
  6
CONTINUOUS
370
-3
390
F
  0
LAYER
  5
20B
100
AcDbSymbolTableRecord
100
AcDbLayerTableRecord
  2
DTM_POINT
 70
0
 62
7
  6
CONTINUOUS
370
-3
390
F
  0
LAYER
  5
20C
100
AcDbSymbolTableRecord
100
AcDbLayerTableRecord
  2
DTM_QUILT
 70
0
 62
7
  6
CONTINUOUS
370
-3
390
F
  0
LAYER
  5
20D
100
AcDbSymbolTableRecord
100
AcDbLayerTableRecord
  2
GTOL
 70
0
 62
7
  6
CONTINUOUS
370
-3
390
F
  0
LAYER
  5
20E
100
AcDbSymbolTableRecord
100
AcDbLayerTableRecord
  2
NOTES
 70
0
 62
7
  6
CONTINUOUS
370
-3
390
F
  0
LAYER
  5
20F
100
AcDbSymbolTableRecord
100
AcDbLayerTableRecord
  2
REF_PLANS
 70
0
 62
7
  6
CONTINUOUS
370
-3
390
F
  0
LAYER
  5
210
100
AcDbSymbolTableRecord
100
AcDbLayerTableRecord
  2
XSEC_DATUMS
 70
0
 62
7
  6
CONTINUOUS
370
-3
390
F
  0
ENDTAB
  0
TABLE
  2
STYLE
  5
3
100
AcDbSymbolTable
 70
1
  0
STYLE
  5
11
100
AcDbSymbolTableRecord
100
AcDbTextStyleTableRecord
  2
STANDARD
 70
0
 40
0.0
 41
1.0
 50
0.0
 71
0
 42
0.2
  3
cgtime.ttf
  4

  0
STYLE
  5
211
100
AcDbSymbolTableRecord
100
AcDbTextStyleTableRecord
  2
TEXTSTYLE_1
 70
0
 40
0.0
 41
0.8
 50
0.0
 71
0
 42
0.2
  3
gdt
  4

  0
STYLE
  5
212
100
AcDbSymbolTableRecord
100
AcDbTextStyleTableRecord
  2
TEXTSTYLE_2
 70
0
 40
0.0
 41
1.0
 50
0.0
 71
0
 42
0.2
  3
trium.ttf
  4

  0
STYLE
  5
213
100
AcDbSymbolTableRecord
100
AcDbTextStyleTableRecord
  2
TEXTSTYLE_3
 70
0
 40
0.0
 41
1.0
 50
0.0
 71
0
 42
0.2
  3
calibri.ttf
  4

  0
ENDTAB
  0
TABLE
  2
VIEW
  5
6
100
AcDbSymbolTable
 70
0
  0
ENDTAB
  0
TABLE
  2
UCS
  5
7
100
AcDbSymbolTable
 70
0
  0
ENDTAB
  0
TABLE
  2
APPID
  5
9
100
AcDbSymbolTable
 70
1
  0
APPID
  5
214
100
AcDbSymbolTableRecord
100
AcDbRegAppTableRecord
  2
ACAD
 70
0
  0
ENDTAB
  0
TABLE
  2
BLOCK_RECORD
  5
1
100
AcDbSymbolTable
 70
0
  0
BLOCK_RECORD
  5
215
100
AcDbSymbolTableRecord
100
AcDbBlockTableRecord
  2
*Model_Space
  0
BLOCK_RECORD
  5
216
100
AcDbSymbolTableRecord
100
AcDbBlockTableRecord
  2
*Paper_Space
  0
BLOCK_RECORD
  5
217
100
AcDbSymbolTableRecord
100
AcDbBlockTableRecord
  2
_FILLED
  0
BLOCK_RECORD
  5
218
100
AcDbSymbolTableRecord
100
AcDbBlockTableRecord
  2
*D0
  0
BLOCK_RECORD
  5
219
100
AcDbSymbolTableRecord
100
AcDbBlockTableRecord
  2
*D1
  0
BLOCK_RECORD
  5
21A
100
AcDbSymbolTableRecord
100
AcDbBlockTableRecord
  2
*D2
  0
BLOCK_RECORD
  5
21B
100
AcDbSymbolTableRecord
100
AcDbBlockTableRecord
  2
*D3
  0
BLOCK_RECORD
  5
21C
100
AcDbSymbolTableRecord
100
AcDbBlockTableRecord
  2
*D4
  0
BLOCK_RECORD
  5
21D
100
AcDbSymbolTableRecord
100
AcDbBlockTableRecord
  2
*T1
  0
ENDTAB
  0
TABLE
  2
DIMSTYLE
  5
A
100
AcDbSymbolTable
 70
1
100
AcDbDimStyleTable
 71
0
  0
DIMSTYLE
105
21E
100
AcDbSymbolTableRecord
100
AcDbDimStyleTableRecord
  2
STANDARD
 70
0
  3

  4

 40
1.0
 41
3.5
 42
1.0
 43
0.38
 44
1.5
 45
0.0
 46
0.0
 47
0.001
 48
0.001
140
2.5
141
0.09
142
0.0
143
25.4
144
1.0
145
0.0
146
1.0
147
0.625
 71
1.0
 72
0.0
 73
1
 74
1
 75
0
 76
0
 77
0
 78
8
 79
2
170
0
171
2
172
0
173
0
174
0
175
0
176
0
177
0
178
0
270
2
179
3
271
3
272
3
273
2
274
2
275
0
280
0
281
0
282
0
283
1
284
8
285
0
286
0
287
3
288
0
340
11
278
44
341
217
342
217
343
217
344
217
  0
DIMSTYLE
105
21F
100
AcDbSymbolTableRecord
100
AcDbDimStyleTableRecord
  2
DIMSTYLE_1
 70
0
  3

  4

 40
1.0
 41
3.5
 42
1.0
 43
0.38
 44
1.5
 45
0.0
 46
0.0
 47
0.0
 48
0.0
140
2.5
141
0.09
142
0.0
143
25.4
144
1.0
145
0.0
146
1.0
147
1.25
 71
0.0
 72
0.0
 73
1
 74
1
 75
0
 76
0
 77
0
 78
8
 79
2
170
0
171
2
172
0
173
0
174
0
175
0
176
0
177
0
178
0
270
2
179
3
271
3
272
3
273
2
274
2
275
0
280
0
281
0
282
0
283
1
284
8
285
0
286
0
287
3
288
0
340
11
278
44
341
217
342
217
343
217
344
217
  0
DIMSTYLE
105
220
100
AcDbSymbolTableRecord
100
AcDbDimStyleTableRecord
  2
DIMSTYLE_2
 70
0
  3

  4

 40
1.0
 41
3.5
 42
1.0
 43
0.38
 44
1.5
 45
0.0
 46
0.0
 47
0.0
 48
0.0
140
2.5
141
0.09
142
0.0
143
25.4
144
1.0
145
0.0
146
1.0
147
1.25
 71
0.0
 72
0.0
 73
1
 74
1
 75
0
 76
0
 77
0
 78
8
 79
2
170
0
171
2
172
0
173
0
174
0
175
0
176
0
177
0
178
0
270
2
179
0
271
0
272
0
273
2
274
2
275
0
280
0
281
0
282
0
283
1
284
8
285
0
286
0
287
3
288
0
340
11
278
44
341
217
342
217
343
217
344
217
  0
ENDTAB
  0
ENDSEC
  0
SECTION
  2
BLOCKS
  0
BLOCK
  5
20
100
AcDbEntity
  8
0
100
AcDbBlockBegin
  2
*Model_Space
 70
0
 10
0.0
 20
0.0
 30
0.0
  3
*Model_Space
  1

  0
ENDBLK
  5
21
100
AcDbEntity
  8
0
100
AcDbBlockEnd
  0
BLOCK
  5
1C
100
AcDbEntity
  8
0
100
AcDbBlockBegin
  2
*Paper_Space
 70
0
 10
0.0
 20
0.0
 30
0.0
  3
*Paper_Space
  1

  0
ENDBLK
  5
1D
100
AcDbEntity
  8
0
100
AcDbBlockEnd
  0
BLOCK
  5
221
100
AcDbEntity
  8
0
100
AcDbBlockBegin
  2
_FILLED
 70
64
 10
0.0
 20
0.0
  3
_FILLED
  1

  0
SOLID
  5
222
100
AcDbEntity
  8
0
  6
BYBLOCK
 62
0
100
AcDbTrace
 10
0.0
 20
0.0
 11
-1.0
 21
0.2142857143
 12
-1.0
 22
-0.2142857143
 13
-1.0
 23
-0.2142857143
  0
ENDBLK
  5
223
100
AcDbEntity
  8
0
  6
BYBLOCK
 62
0
100
AcDbBlockEnd
  0
BLOCK
  5
224
100
AcDbEntity
  8
0
100
AcDbBlockBegin
 62
2
  6
CONTINUOUS
  2
*D0
 70
65
 10
0.0
 20
0.0
  3
*D0
  1

  0
TEXT
  5
225
100
AcDbEntity
  8
0
100
AcDbText
 62
2
  6
CONTINUOUS
 10
96.2946405552
 20
94.4716001334
  7
STANDARD
 40
2.5
  1
70
 72
5
 11
99.9327728509
 21
94.4716001334
100
AcDbText
  0
TEXT
  5
226
100
AcDbEntity
  8
0
100
AcDbText
 62
2
  6
CONTINUOUS
 10
99.9327728509
 20
94.4716001334
  7
STANDARD
 40
2.5
  1
mm
 72
5
 11
105.6039790766
 21
94.4716001334
100
AcDbText
  0
TEXT
  5
227
100
AcDbEntity
  8
0
100
AcDbText
 62
2
  6
CONTINUOUS
 10
96.163317598
 20
90.7216001334
  7
STANDARD
 40
2.5
  1
2-3/4"
 72
5
 11
105.7353020338
 21
90.7216001334
100
AcDbText
  0
LINE
  5
228
100
AcDbEntity
  8
0
100
AcDbLine
 62
2
  6
CONTINUOUS
 10
96.8463973916
 20
149.8245125577
 11
127.0099699876
 21
119.6609399617
  0
LINE
  5
229
100
AcDbEntity
  8
0
100
AcDbLine
 62
2
  6
CONTINUOUS
 10
46.8463973916
 20
99.8245125577
 11
77.0099699876
 21
69.6609399617
  0
LINE
  5
22A
100
AcDbEntity
  8
0
100
AcDbLine
 62
2
  6
CONTINUOUS
 10
125.9493098159
 20
120.7216001334
 11
103.4493098159
 21
98.2216001334
  0
LINE
  5
22B
100
AcDbEntity
  8
0
100
AcDbLine
 62
2
  6
CONTINUOUS
 10
75.9493098159
 20
70.7216001334
 11
94.913317598
 21
89.6856079155
  0
INSERT
  5
22C
100
AcDbEntity
  8
0
100
AcDbBlockReference
 62
2
  6
CONTINUOUS
  2
_FILLED
 10
125.9493098159
 20
120.7216001334
 41
3.5
 42
3.5
 43
3.5
 50
45.0
  0
INSERT
  5
22D
100
AcDbEntity
  8
0
100
AcDbBlockReference
 62
2
  6
CONTINUOUS
  2
_FILLED
 10
75.9493098159
 20
70.7216001334
 41
3.5
 42
3.5
 43
3.5
 50
225.0
  0
ENDBLK
  5
22E
100
AcDbEntity
  8
0
  6
BYBLOCK
 62
0
100
AcDbBlockEnd
  0
BLOCK
  5
22F
100
AcDbEntity
  8
0
100
AcDbBlockBegin
 62
2
  6
CONTINUOUS
  2
*D1
 70
65
 10
0.0
 20
0.0
  3
*D1
  1

  0
TEXT
  5
230
100
AcDbEntity
  8
0
100
AcDbText
 62
2
  6
CONTINUOUS
 10
27.5598337168
 20
124.2816193389
  7
STANDARD
 40
2.5
  1
50
 72
5
 11
31.1979660125
 21
124.2816193389
100
AcDbText
  0
TEXT
  5
231
100
AcDbEntity
  8
0
100
AcDbText
 62
2
  6
CONTINUOUS
 10
31.1979660125
 20
124.2816193389
  7
STANDARD
 40
2.5
  1
mm
 72
5
 11
36.8691722382
 21
124.2816193389
100
AcDbText
  0
TEXT
  5
232
100
AcDbEntity
  8
0
100
AcDbText
 62
2
  6
CONTINUOUS
 10
30.4635302149
 20
120.5316193389
  7
STANDARD
 40
2.5
  1
2"
 72
5
 11
33.9654757402
 21
120.5316193389
100
AcDbText
  0
LINE
  5
233
100
AcDbEntity
  8
0
100
AcDbLine
 62
2
  6
CONTINUOUS
 10
82.1392906104
 20
150.5316193389
 11
30.7145029775
 21
150.5316193389
  0
LINE
  5
234
100
AcDbEntity
  8
0
100
AcDbLine
 62
2
  6
CONTINUOUS
 10
45.1392906104
 20
100.5316193389
 11
30.7145029775
 21
100.5316193389
  0
LINE
  5
235
100
AcDbEntity
  8
0
100
AcDbLine
 62
2
  6
CONTINUOUS
 10
32.2145029775
 20
150.5316193389
 11
32.2145029775
 21
128.0316193389
  0
LINE
  5
236
100
AcDbEntity
  8
0
100
AcDbLine
 62
2
  6
CONTINUOUS
 10
32.2145029775
 20
100.5316193389
 11
32.2145029775
 21
119.2816193389
  0
INSERT
  5
237
100
AcDbEntity
  8
0
100
AcDbBlockReference
 62
2
  6
CONTINUOUS
  2
_FILLED
 10
32.2145029775
 20
150.5316193389
 41
3.5
 42
3.5
 43
3.5
 50
90.0
  0
INSERT
  5
238
100
AcDbEntity
  8
0
100
AcDbBlockReference
 62
2
  6
CONTINUOUS
  2
_FILLED
 10
32.2145029775
 20
100.5316193389
 41
3.5
 42
3.5
 43
3.5
 50
270.0
  0
ENDBLK
  5
239
100
AcDbEntity
  8
0
  6
BYBLOCK
 62
0
100
AcDbBlockEnd
  0
BLOCK
  5
23A
100
AcDbEntity
  8
0
100
AcDbBlockBegin
 62
2
  6
CONTINUOUS
  2
*D2
 70
65
 10
0.0
 20
0.0
  3
*D2
  1

  0
TEXT
  5
23B
100
AcDbEntity
  8
0
100
AcDbText
 62
2
  6
CONTINUOUS
 10
66.4846213497
 20
162.5679622255
  7
STANDARD
 40
2.5
  1
50
 72
5
 11
70.1227536454
 21
162.5679622255
100
AcDbText
  0
TEXT
  5
23C
100
AcDbEntity
  8
0
100
AcDbText
 62
2
  6
CONTINUOUS
 10
70.1227536454
 20
162.5679622255
  7
STANDARD
 40
2.5
  1
mm
 72
5
 11
75.7939598711
 21
162.5679622255
100
AcDbText
  0
TEXT
  5
23D
100
AcDbEntity
  8
0
100
AcDbText
 62
2
  6
CONTINUOUS
 10
69.3883178477
 20
158.8179622255
  7
STANDARD
 40
2.5
  1
2"
 72
5
 11
72.890263373
 21
158.8179622255
100
AcDbText
  0
LINE
  5
23E
100
AcDbEntity
  8
0
100
AcDbLine
 62
2
  6
CONTINUOUS
 10
46.1392906104
 20
133.5837480662
 11
46.1392906104
 21
165.3179622255
  0
LINE
  5
23F
100
AcDbEntity
  8
0
100
AcDbLine
 62
2
  6
CONTINUOUS
 10
96.1392906104
 20
151.5316193389
 11
96.1392906104
 21
165.3179622255
  0
LINE
  5
240
100
AcDbEntity
  8
0
100
AcDbLine
 62
2
  6
CONTINUOUS
 10
46.1392906104
 20
163.8179622255
 11
65.2346213497
 21
163.8179622255
  0
LINE
  5
241
100
AcDbEntity
  8
0
100
AcDbLine
 62
2
  6
CONTINUOUS
 10
96.1392906104
 20
163.8179622255
 11
77.0439598711
 21
163.8179622255
  0
INSERT
  5
242
100
AcDbEntity
  8
0
100
AcDbBlockReference
 62
2
  6
CONTINUOUS
  2
_FILLED
 10
46.1392906104
 20
163.8179622255
 41
3.5
 42
3.5
 43
3.5
 50
180.0
  0
INSERT
  5
243
100
AcDbEntity
  8
0
100
AcDbBlockReference
 62
2
  6
CONTINUOUS
  2
_FILLED
 10
96.1392906104
 20
163.8179622255
 41
3.5
 42
3.5
 43
3.5
  0
ENDBLK
  5
244
100
AcDbEntity
  8
0
  6
BYBLOCK
 62
0
100
AcDbBlockEnd
  0
BLOCK
  5
245
100
AcDbEntity
  8
0
100
AcDbBlockBegin
 62
2
  6
CONTINUOUS
  2
*D3
 70
65
 10
0.0
 20
0.0
  3
*D3
  1

  0
TEXT
  5
246
100
AcDbEntity
  8
0
100
AcDbText
 62
2
  6
CONTINUOUS
 10
34.9190376867
 20
143.1395035889
  7
STANDARD
 40
2.5
  1
16
 72
5
 11
38.5571699825
 21
143.1395035889
100
AcDbText
  0
TEXT
  5
247
100
AcDbEntity
  8
0
100
AcDbText
 62
2
  6
CONTINUOUS
 10
38.5571699825
 20
143.1395035889
  7
STANDARD
 40
2.5
  1
mm
 72
5
 11
44.2283762081
 21
143.1395035889
100
AcDbText
  0
TEXT
  5
248
100
AcDbEntity
  8
0
100
AcDbText
 62
2
  6
CONTINUOUS
 10
36.3052244572
 20
139.3895035889
  7
STANDARD
 40
2.5
  1
5/8"
 72
5
 11
42.8421894377
 21
139.3895035889
100
AcDbText
  0
LINE
  5
249
100
AcDbEntity
  8
0
100
AcDbLine
 62
2
  6
CONTINUOUS
 10
82.1392906104
 20
150.5316193389
 11
38.0737069474
 21
150.5316193389
  0
LINE
  5
24A
100
AcDbEntity
  8
0
100
AcDbLine
 62
2
  6
CONTINUOUS
 10
65.66546922
 20
134.3899051193
 11
38.0737069474
 21
134.3899051193
  0
LINE
  5
24B
100
AcDbEntity
  8
0
100
AcDbLine
 62
2
  6
CONTINUOUS
 10
39.5737069474
 20
150.5316193389
 11
39.5737069474
 21
146.8895035889
  0
LINE
  5
24C
100
AcDbEntity
  8
0
100
AcDbLine
 62
2
  6
CONTINUOUS
 10
39.5737069474
 20
134.3899051193
 11
39.5737069474
 21
138.1395035889
  0
INSERT
  5
24D
100
AcDbEntity
  8
0
100
AcDbBlockReference
 62
2
  6
CONTINUOUS
  2
_FILLED
 10
39.5737069474
 20
150.5316193389
 41
3.5
 42
3.5
 43
3.5
 50
90.0
  0
INSERT
  5
24E
100
AcDbEntity
  8
0
100
AcDbBlockReference
 62
2
  6
CONTINUOUS
  2
_FILLED
 10
39.5737069474
 20
134.3899051193
 41
3.5
 42
3.5
 43
3.5
 50
270.0
  0
ENDBLK
  5
24F
100
AcDbEntity
  8
0
  6
BYBLOCK
 62
0
100
AcDbBlockEnd
  0
BLOCK
  5
250
100
AcDbEntity
  8
0
100
AcDbBlockBegin
 62
2
  6
CONTINUOUS
  2
*D4
 70
65
 10
0.0
 20
0.0
  3
*D4
  1

  0
TEXT
  5
251
100
AcDbEntity
  8
0
100
AcDbText
 62
2
  6
CONTINUOUS
 10
52.4846213497
 20
156.2359376974
  7
STANDARD
 40
2.5
  1
22
 72
5
 11
56.1227536454
 21
156.2359376974
100
AcDbText
  0
TEXT
  5
252
100
AcDbEntity
  8
0
100
AcDbText
 62
2
  6
CONTINUOUS
 10
56.1227536454
 20
156.2359376974
  7
STANDARD
 40
2.5
  1
mm
 72
5
 11
61.7939598711
 21
156.2359376974
100
AcDbText
  0
TEXT
  5
253
100
AcDbEntity
  8
0
100
AcDbText
 62
2
  6
CONTINUOUS
 10
53.8708081201
 20
152.4859376974
  7
STANDARD
 40
2.5
  1
7/8"
 72
5
 11
60.4077731007
 21
152.4859376974
100
AcDbText
  0
LINE
  5
254
100
AcDbEntity
  8
0
100
AcDbLine
 62
2
  6
CONTINUOUS
 10
46.1392906104
 20
133.5837480662
 11
46.1392906104
 21
158.9859376974
  0
LINE
  5
255
100
AcDbEntity
  8
0
100
AcDbLine
 62
2
  6
CONTINUOUS
 10
68.1392906104
 20
138.9368567392
 11
68.1392906104
 21
158.9859376974
  0
LINE
  5
256
100
AcDbEntity
  8
0
100
AcDbLine
 62
2
  6
CONTINUOUS
 10
46.1392906104
 20
157.4859376974
 11
51.2346213497
 21
157.4859376974
  0
LINE
  5
257
100
AcDbEntity
  8
0
100
AcDbLine
 62
2
  6
CONTINUOUS
 10
68.1392906104
 20
157.4859376974
 11
63.0439598711
 21
157.4859376974
  0
INSERT
  5
258
100
AcDbEntity
  8
0
100
AcDbBlockReference
 62
2
  6
CONTINUOUS
  2
_FILLED
 10
46.1392906104
 20
157.4859376974
 41
3.5
 42
3.5
 43
3.5
 50
180.0
  0
INSERT
  5
259
100
AcDbEntity
  8
0
100
AcDbBlockReference
 62
2
  6
CONTINUOUS
  2
_FILLED
 10
68.1392906104
 20
157.4859376974
 41
3.5
 42
3.5
 43
3.5
  0
ENDBLK
  5
25A
100
AcDbEntity
  8
0
  6
BYBLOCK
 62
0
100
AcDbBlockEnd
  0
BLOCK
  5
25B
100
AcDbEntity
  8
0
100
AcDbBlockBegin
  2
*T1
 70
1
 10
0.0
 20
0.0
  3
*T1
  1

  0
LINE
  5
25C
100
AcDbEntity
  8
0
100
AcDbLine
 62
7
  6
CONTINUOUS
 10
0.0
 20
0.0
 11
148.0
 21
0.0
  0
LINE
  5
25D
100
AcDbEntity
  8
0
100
AcDbLine
 62
7
  6
CONTINUOUS
 10
0.0
 20
0.0
 11
0.0
 21
-43.0
  0
LINE
  5
25E
100
AcDbEntity
  8
0
100
AcDbLine
 62
7
  6
CONTINUOUS
 10
45.0
 20
-23.0
 11
148.0
 21
-23.0
  0
LINE
  5
25F
100
AcDbEntity
  8
0
100
AcDbLine
 62
7
  6
CONTINUOUS
 10
45.0
 20
-28.0
 11
148.0
 21
-28.0
  0
LINE
  5
260
100
AcDbEntity
  8
0
100
AcDbLine
 62
7
  6
CONTINUOUS
 10
0.0
 20
-43.0
 11
148.0
 21
-43.0
  0
LINE
  5
261
100
AcDbEntity
  8
0
100
AcDbLine
 62
7
  6
CONTINUOUS
 10
45.0
 20
0.0
 11
45.0
 21
-43.0
  0
LINE
  5
262
100
AcDbEntity
  8
0
100
AcDbLine
 62
7
  6
CONTINUOUS
 10
143.0
 20
0.0
 11
143.0
 21
-23.0
  0
LINE
  5
263
100
AcDbEntity
  8
0
100
AcDbLine
 62
7
  6
CONTINUOUS
 10
148.0
 20
0.0
 11
148.0
 21
-43.0
  0
TEXT
  5
264
100
AcDbEntity
  8
0
100
AcDbText
 62
7
  6
CONTINUOUS
 10
8.9659749243
 20
-10.675
  7
STANDARD
 40
8.0
  1
O
 72
5
 11
17.370644185
 21
-10.675
100
AcDbText
  0
TEXT
  5
265
100
AcDbEntity
  8
0
100
AcDbText
 62
7
  6
CONTINUOUS
 10
17.370644185
 20
-10.675
  7
STANDARD
 40
5.5
  1
RAC
 72
5
 11
33.9562472979
 21
-10.675
100
AcDbText
  0
TEXT
  5
266
100
AcDbEntity
  8
0
100
AcDbText
 62
7
  6
CONTINUOUS
 10
33.9562472979
 20
-5.925
  7
TEXTSTYLE_2
 40
3.0
  1
®
 72
5
 11
36.0340250757
 21
-5.925
100
AcDbText
  0
TEXT
  5
267
100
AcDbEntity
  8
0
100
AcDbText
 62
7
  6
CONTINUOUS
 10
9.5323389537
 20
-15.325
  7
TEXTSTYLE_2
 40
3.0
  1
D  E  C  O  R
 72
5
 11
34.3878945093
 21
-15.325
100
AcDbText
  0
TEXT
  5
268
100
AcDbEntity
  8
0
100
AcDbText
 62
7
  6
CONTINUOUS
 10
34.3878945093
 20
-15.325
  7
STANDARD
 40
2.5
  1
 
 72
5
 11
35.4676610463
 21
-15.325
100
AcDbText
  0
TEXT
  5
269
100
AcDbEntity
  8
0
100
AcDbText
 62
7
  6
CONTINUOUS
 10
52.5257352941
 20
-6.0
  7
TEXTSTYLE_3
 40
2.75
  1
Part name:
 72
5
 11
71.9375
 21
-6.0
100
AcDbText
  0
TEXT
  5
26A
100
AcDbEntity
  8
0
100
AcDbText
 62
7
  6
CONTINUOUS
 10
49.2788865546
 20
-12.875
  7
TEXTSTYLE_3
 40
2.75
  1
Designed by:
 72
5
 11
71.9375
 21
-12.875
100
AcDbText
  0
TEXT
  5
26B
100
AcDbEntity
  8
0
100
AcDbText
 62
7
  6
CONTINUOUS
 10
48.9553571429
 20
-19.75
  7
TEXTSTYLE_3
 40
2.75
  1
Designed on:
 72
5
 11
71.9375
 21
-19.75
100
AcDbText
  0
TEXT
  5
26C
100
AcDbEntity
  8
0
100
AcDbText
 62
2
  6
CONTINUOUS
 10
74.0625
 20
-6.0
  7
TEXTSTYLE_3
 40
2.75
  1
C361
 72
5
 11
82.9595588235
 21
-6.0
100
AcDbText
  0
TEXT
  5
26D
100
AcDbEntity
  8
0
100
AcDbText
 62
2
  6
CONTINUOUS
 10
74.0625
 20
-12.875
  7
TEXTSTYLE_3
 40
2.75
  1
Pierre Daems
 72
5
 11
97.7032563025
 21
-12.875
100
AcDbText
  0
TEXT
  5
26E
100
AcDbEntity
  8
0
100
AcDbText
 62
2
  6
CONTINUOUS
 10
74.0625
 20
-19.75
  7
TEXTSTYLE_3
 40
2.75
  1
12-Jul-2011
 72
5
 11
94.5488445378
 21
-19.75
100
AcDbText
  0
TEXT
  5
26F
100
AcDbEntity
  8
0
100
AcDbText
 62
2
  6
CONTINUOUS
 10
94.5488445378
 20
-19.75
  7
TEXTSTYLE_3
 40
2.75
  1
 
 72
5
 11
95.530987395
 21
-19.75
100
AcDbText
  0
TEXT
  5
270
100
AcDbEntity
  8
0
100
AcDbText
 62
2
  6
CONTINUOUS
 10
146.5625
 20
-17.5
  7
TEXTSTYLE_3
 40
1.5
  1
Version: 
 50
90.0
 72
5
 11
146.5625
 21
-9.0294117647
100
AcDbText
  0
TEXT
  5
271
100
AcDbEntity
  8
0
100
AcDbText
 62
2
  6
CONTINUOUS
 10
146.5625
 20
-9.0294117647
  7
TEXTSTYLE_3
 40
1.5
  1
1.0
 50
90.0
 72
5
 11
146.5625
 21
-6.0357142857
100
AcDbText
  0
TEXT
  5
272
100
AcDbEntity
  8
0
100
AcDbText
 62
2
  6
CONTINUOUS
 10
146.5625
 20
-6.0357142857
  7
TEXTSTYLE_3
 40
1.5
  1
 
 50
90.0
 72
5
 11
146.5625
 21
-5.5
100
AcDbText
  0
TEXT
  5
273
100
AcDbEntity
  8
0
100
AcDbText
 62
7
  6
CONTINUOUS
 10
9.6586134454
 20
-24.25
  7
TEXTSTYLE_3
 40
2.5
  1
Biekorfstraat 32
 72
5
 11
35.3413865546
 21
-24.25
100
AcDbText
  0
TEXT
  5
274
100
AcDbEntity
  8
0
100
AcDbText
 62
7
  6
CONTINUOUS
 10
2.2584033613
 20
-28.0
  7
TEXTSTYLE_3
 40
2.5
  1
8400 Oostende - Belgium
 72
5
 11
42.7415966387
 21
-28.0
100
AcDbText
  0
TEXT
  5
275
100
AcDbEntity
  8
0
100
AcDbText
 62
7
  6
CONTINUOUS
 10
4.2699579832
 20
-31.75
  7
TEXTSTYLE_3
 40
2.5
  1
Tel  +32 (0)59 80 32 52
 72
5
 11
40.7300420168
 21
-31.75
100
AcDbText
  0
TEXT
  5
276
100
AcDbEntity
  8
0
100
AcDbText
 62
7
  6
CONTINUOUS
 10
5.7405462185
 20
-35.5
  7
TEXTSTYLE_3
 40
2.5
  1
www.oracdecor.com
 72
5
 11
39.2594537815
 21
-35.5
100
AcDbText
  0
TEXT
  5
277
100
AcDbEntity
  8
0
100
AcDbText
 62
7
  6
CONTINUOUS
 10
5.5777310924
 20
-39.25
  7
TEXTSTYLE_3
 40
2.5
  1
info@oracdecor.com
 72
5
 11
39.4222689076
 21
-39.25
100
AcDbText
  0
TEXT
  5
278
100
AcDbEntity
  8
0
100
AcDbText
 62
7
  6
CONTINUOUS
 10
46.0625
 20
-26.75
  7
TEXTSTYLE_3
 40
2.5
  1
All dimensions are in mm unless otherwise specified   
 72
5
 11
132.3019957983
 21
-26.75
100
AcDbText
  0
TEXT
  5
279
100
AcDbEntity
  8
0
100
AcDbText
 62
7
  6
CONTINUOUS
 10
46.0625
 20
-31.7075
  7
TEXTSTYLE_3
 40
1.85
  1
All information in this document is Orac's exclusive property.  It may in no case 
 72
5
 11
140.0471638655
 21
-31.7075
100
AcDbText
  0
TEXT
  5
27A
100
AcDbEntity
  8
0
100
AcDbText
 62
7
  6
CONTINUOUS
 10
46.0625
 20
-34.8525
  7
TEXTSTYLE_3
 40
1.85
  1
be reproduced, even partly, be communicated to a third party or used for any 
 72
5
 11
138.8345588235
 21
-34.8525
100
AcDbText
  0
TEXT
  5
27B
100
AcDbEntity
  8
0
100
AcDbText
 62
7
  6
CONTINUOUS
 10
46.0625
 20
-37.9975
  7
TEXTSTYLE_3
 40
1.85
  1
possible purpose without ORAC's express written permission. 
 72
5
 11
119.4484243697
 21
-37.9975
100
AcDbText
  0
TEXT
  5
27C
100
AcDbEntity
  8
0
100
AcDbText
 62
7
  6
CONTINUOUS
 10
46.0625
 20
-41.1425
  7
TEXTSTYLE_3
 40
1.85
  1
Further legal information can be found at http://www.oracdecor.be/nl/disclaimer 
 72
5
 11
143.7316176471
 21
-41.1425
100
AcDbText
  0
ENDBLK
  5
27D
100
AcDbEntity
  8
0
  6
BYBLOCK
 62
0
100
AcDbBlockEnd
  0
ENDSEC
  0
SECTION
  2
ENTITIES
  0
DIMENSION
  5
27E
100
AcDbEntity
  8
0
100
AcDbDimension
 62
2
  6
CONTINUOUS
  2
*D0
 10
75.9493098159
 20
70.7216001334
 11
100.9493098159
 21
93.8466001334
 70
160
 71
2
 42
70.7106781187
  1
<>mm\P2-3/4"
  3
DIMSTYLE_1
100
AcDbAlignedDimension
 13
96.1392906104
 23
150.5316193389
 14
46.1392906104
 24
100.5316193389
 50
225.0
100
AcDbRotatedDimension
  0
DIMENSION
  5
27F
100
AcDbEntity
  8
0
100
AcDbDimension
 62
2
  6
CONTINUOUS
  2
*D1
 10
32.2145029775
 20
100.5316193389
 11
32.2145029775
 21
123.6566193389
 70
160
 71
2
 42
50.0
  1
<>mm\P2"
  3
DIMSTYLE_1
100
AcDbAlignedDimension
 13
83.1392906104
 23
150.5316193389
 14
46.1392906104
 24
100.5316193389
 50
270.0
100
AcDbRotatedDimension
  0
DIMENSION
  5
280
100
AcDbEntity
  8
0
100
AcDbDimension
 62
2
  6
CONTINUOUS
  2
*D2
 10
96.1392906104
 20
163.8179622255
 11
71.1392906104
 21
161.9429622255
 70
160
 71
2
 42
50.0
  1
<>mm\P2"
  3
DIMSTYLE_1
100
AcDbAlignedDimension
 13
46.1392906104
 23
132.5837480662
 14
96.1392906104
 24
150.5316193389
100
AcDbRotatedDimension
  0
DIMENSION
  5
281
100
AcDbEntity
  8
0
100
AcDbDimension
 62
2
  6
CONTINUOUS
  2
*D3
 10
39.5737069474
 20
134.3899051193
 11
39.5737069474
 21
142.5145035889
 70
160
 71
2
 42
16.1417142196
  1
<>mm\P5/8"
  3
DIMSTYLE_2
100
AcDbAlignedDimension
 13
83.1392906104
 23
150.5316193389
 14
66.66546922
 24
134.3899051193
 50
270.0
100
AcDbRotatedDimension
  0
DIMENSION
  5
282
100
AcDbEntity
  8
0
100
AcDbDimension
 62
2
  6
CONTINUOUS
  2
*D4
 10
68.1392906104
 20
157.4859376974
 11
57.1392906104
 21
155.6109376974
 70
160
 71
2
 42
22.0
  1
<>mm\P7/8"
  3
DIMSTYLE_1
100
AcDbAlignedDimension
 13
46.1392906104
 23
132.5837480662
 14
68.1392906104
 24
137.9368567392
100
AcDbRotatedDimension
  0
ACAD_TABLE
  5
283
100
AcDbEntity
  8
0
 62
2
  6
CONTINUOUS
100
AcDbBlockReference
  2
*T1
 10
143.9999958937
 20
47.9999925619
 30
0.0
100
AcDbTable
342
       2FC
343
21D
 11
1.0
 21
0.0
 31
0.0
 90
22
 91
4
 92
4
 93
0
 94
0
 95
0
 96
0
141
18.0
141
5.0
141
5.0
141
15.0
142
45.0
142
28.0
142
70.0
142
5.0
171
1
172
0
173
0
174
0
175
1
176
1
 91
41
178
0
145
0.0
301
CELL_VALUE
 90
4
  1
\A1;O\H5.5;RAC\fCG Triumvirate;\H3.0;\S®^ ;\PD  E  C  O  R\fCG Times;\H2.5; 
304
ACVALUE_END
170
5
140
8.0
 64
7
171
1
172
0
173
0
174
0
175
1
176
2
 91
57
178
0
145
0.0
  7
TEXTSTYLE_3
301
CELL_VALUE
 90
4
  1
Part name:\PDesigned by:\PDesigned on:
304
ACVALUE_END
170
6
140
2.75
 64
7
171
1
172
0
173
0
174
0
175
1
176
2
 91
49
178
0
145
0.0
  7
TEXTSTYLE_3
301
CELL_VALUE
 90
4
  1
C361\PPierre Daems\P12-Jul-2011 
304
ACVALUE_END
170
4
140
2.75
171
1
172
0
173
0
174
0
175
1
176
2
 91
49
178
0
145
0.0
  7
TEXTSTYLE_3
301
CELL_VALUE
 90
4
  1
Version: 1.0 
304
ACVALUE_END
170
6
140
1.5
171
1
172
0
173
0
174
0
175
1
176
3
 91
57
178
0
145
0.0
  7
TEXTSTYLE_3
301
CELL_VALUE
 90
4
  1
Biekorfstraat 32\P8400 Oostende - Belgium\PTel  +32 (0)59 80 32 52\Pwww.oracdecor.com\Pinfo@oracdecor.com
304
ACVALUE_END
170
5
140
2.5
 64
7
171
1
172
0
173
1
174
0
175
1
176
1
 91
1
178
0
145
0.0
170
1
171
1
172
0
173
1
174
0
175
1
176
1
 91
1
178
0
145
0.0
170
1
171
1
172
0
173
1
174
0
175
1
176
1
 91
1
178
0
145
0.0
170
1
171
1
172
0
173
1
174
0
175
1
176
1
 91
1
178
0
145
0.0
170
1
171
1
172
0
173
0
174
0
175
3
176
1
 91
57
178
0
145
0.0
  7
TEXTSTYLE_3
301
CELL_VALUE
 90
4
  1
All dimensions are in mm unless otherwise specified   
304
ACVALUE_END
170
1
140
2.5
 64
7
171
1
172
0
173
1
174
0
175
1
176
1
 91
1
178
0
145
0.0
170
1
171
1
172
0
173
1
174
0
175
1
176
1
 91
1
178
0
145
0.0
170
1
171
1
172
0
173
1
174
0
175
1
176
1
 91
1
178
0
145
0.0
170
1
171
1
172
0
173
0
174
0
175
3
176
1
 91
57
178
0
145
0.0
  7
TEXTSTYLE_3
301
CELL_VALUE
 90
4
  2
All information in this document is Orac's exclusive property.  It may in no case \Pbe reproduced, even partly, be communicated to a third party or used for any \Ppossible purpose without ORAC's express written permission. \PFurther legal information
  1
 can be found at http://www.oracdecor.be/nl/disclaimer 
304
ACVALUE_END
170
4
140
1.85
 64
7
171
1
172
0
173
1
174
0
175
1
176
1
 91
1
178
0
145
0.0
170
1
171
1
172
0
173
1
174
0
175
1
176
1
 91
1
178
0
145
0.0
170
1
  0
LINE
  5
284
100
AcDbEntity
  8
0
100
AcDbLine
 62
5
  6
CONTINUOUS
 10
0.0
 20
0.0
 11
0.0
 21
210.0
  0
LINE
  5
285
100
AcDbEntity
  8
0
100
AcDbLine
 62
7
  6
CONTINUOUS
 10
5.0
 20
5.0
 11
5.0
 21
195.0
  0
LINE
  5
286
100
AcDbEntity
  8
0
100
AcDbLine
 62
5
  6
CONTINUOUS
 10
0.0
 20
0.0
 11
297.0
 21
0.0
  0
LINE
  5
287
100
AcDbEntity
  8
0
100
AcDbLine
 62
7
  6
CONTINUOUS
 10
5.0
 20
5.0
 11
292.0
 21
5.0
  0
LINE
  5
288
100
AcDbEntity
  8
0
100
AcDbLine
 62
4
  6
CONTINUOUS
 10
148.5
 20
195.0
 11
148.5
 21
205.0
  0
LINE
  5
289
100
AcDbEntity
  8
0
100
AcDbLine
 62
7
  6
CONTINUOUS
 10
5.0
 20
195.0
 11
292.0
 21
195.0
  0
LINE
  5
28A
100
AcDbEntity
  8
0
100
AcDbLine
 62
5
  6
CONTINUOUS
 10
0.0
 20
210.0
 11
297.0
 21
210.0
  0
LINE
  5
28B
100
AcDbEntity
  8
0
100
AcDbLine
 62
7
  6
CONTINUOUS
 10
292.0
 20
5.0
 11
292.0
 21
195.0
  0
LINE
  5
28C
100
AcDbEntity
  8
0
100
AcDbLine
 62
5
  6
CONTINUOUS
 10
297.0
 20
0.0
 11
297.0
 21
210.0
  0
LINE
  5
28D
100
AcDbEntity
  8
0
100
AcDbLine
 62
7
  6
CONTINUOUS
 10
140.0898247673
 20
102.1477959982
 11
140.312105279
 21
90.1509935542
  0
LINE
  5
28E
100
AcDbEntity
  8
0
100
AcDbLine
 62
7
  6
CONTINUOUS
 10
147.9849323723
 20
119.6738265592
 11
148.2740687927
 21
102.7340476318
  0
LINE
  5
28F
100
AcDbEntity
  8
DTM_AXIS
100
AcDbLine
 62
7
  6
CONTINUOUS
 10
169.9408520049
 20
123.3890316656
 11
169.9059346781
 21
125.4347504166
  0
LINE
  5
290
100
AcDbEntity
  8
DTM_AXIS
100
AcDbLine
 62
7
  6
CONTINUOUS
 10
171.3362660538
 20
123.4849697689
 11
171.301348727
 21
125.5306885199
  0
LWPOLYLINE
  5
291
100
AcDbEntity
  8
DTM_AXIS
100
AcDbPolyline
 62
7
  6
CONTINUOUS
 90
37
 70
0
 10
169.9408519949
 20
123.3890315923
 10
169.941056874
 20
123.3698646186
 10
169.9399005564
 20
123.3040778681
 10
169.9358686228
 20
123.2384162958
 10
169.9289715049
 20
123.1730018413
 10
169.9192227919
 20
123.107946794
 10
169.9066421754
 20
123.0433766185
 10
169.8912552623
 20
122.9794173334
 10
169.8730894973
 20
122.9161811505
 10
169.8521792171
 20
122.8537888802
 10
169.8285657087
 20
122.7923642516
 10
169.8022929149
 20
122.7320220156
 10
169.7734119815
 20
122.672880308
 10
169.7419788891
 20
122.6150539075
 10
169.7080512993
 20
122.5586496104
 10
169.6716948639
 20
122.5037776942
 10
169.6329801463
 20
122.4505453301
 10
169.5919779946
 20
122.3990509777
 10
169.5487672303
 20
122.349395082
 10
169.5034320431
 20
122.3016754517
 10
169.4560567621
 20
122.2559819854
 10
169.4067326128
 20
122.2124040021
 10
169.3555557276
 20
122.1710274553
 10
169.3026228523
 20
122.1319315152
 10
169.2480365662
 20
122.0951929118
 10
169.1919028734
 20
122.0608837256
 10
169.134327989
 20
122.0290696451
 10
169.0754228764
 20
121.9998128617
 10
169.0153023878
 20
121.9731711297
 10
168.9540820485
 20
121.9491962294
 10
168.8918828534
 20
121.9279359109
 10
168.8288229634
 20
121.9094308333
 10
168.7650158973
 20
121.8937152745
 10
168.7005856666
 20
121.8808212151
 10
168.6356558338
 20
121.8707747663
 10
168.5703404795
 20
121.8635957217
 10
168.5047610584
 20
121.8593006427
  0
LINE
  5
292
100
AcDbEntity
  8
0
100
AcDbLine
 62
7
  6
CONTINUOUS
 10
275.3661202094
 20
65.1532047972
 11
225.419998083
 21
64.1986448237
  0
LINE
  5
293
100
AcDbEntity
  8
0
100
AcDbLine
 62
7
  6
CONTINUOUS
 10
176.4757304858
 20
133.8459100255
 11
176.346066854
 21
140.8440447845
  0
LINE
  5
294
100
AcDbEntity
  8
0
100
AcDbLine
 62
7
  6
CONTINUOUS
 10
275.2179332017
 20
73.1510730932
 11
273.9193340264
 21
73.1262545339
  0
LINE
  5
295
100
AcDbEntity
  8
0
100
AcDbLine
 62
7
  6
CONTINUOUS
 10
225.419998083
 20
64.1986448237
 11
140.312105279
 21
90.1509935542
  0
LINE
  5
296
100
AcDbEntity
  8
0
100
AcDbLine
 62
7
  6
CONTINUOUS
 10
177.9416762516
 20
108.6590733419
 11
177.4931763043
 21
132.865267688
  0
LINE
  5
297
100
AcDbEntity
  8
0
100
AcDbLine
 62
7
  6
CONTINUOUS
 10
187.5238220867
 20
103.8544148025
 11
187.5349361122
 21
103.2545746803
  0
LINE
  5
298
100
AcDbEntity
  8
0
100
AcDbLine
 62
7
  6
CONTINUOUS
 10
187.6349623425
 20
97.8560135805
 11
187.6460763681
 21
97.2561734583
  0
LINE
  5
299
100
AcDbEntity
  8
0
100
AcDbLine
 62
7
  6
CONTINUOUS
 10
275.1067929458
 20
79.1494743152
 11
273.8081937706
 21
79.1246557559
  0
LINE
  5
29A
100
AcDbEntity
  8
0
100
AcDbLine
 62
7
  6
CONTINUOUS
 10
189.3320586069
 20
141.0922303776
 11
189.9989001418
 21
105.1018230456
  0
LINE
  5
29B
100
AcDbEntity
  8
0
100
AcDbLine
 62
7
  6
CONTINUOUS
 10
190.0544702697
 20
102.1026224346
 11
190.1100403976
 21
99.1034218236
  0
LINE
  5
29C
100
AcDbEntity
  8
0
100
AcDbLine
 62
7
  6
CONTINUOUS
 10
190.1656105256
 20
96.1042212126
 11
190.2582274054
 21
91.1055535276
  0
LINE
  5
29D
100
AcDbEntity
  8
0
100
AcDbLine
 62
7
  6
CONTINUOUS
 10
190.2582274054
 20
91.1055535276
 11
275.3661202094
 21
65.1532047972
  0
LINE
  5
29E
100
AcDbEntity
  8
0
100
AcDbLine
 62
7
  6
CONTINUOUS
 10
190.2582274054
 20
91.1055535276
 11
140.312105279
 21
90.1509935542
  0
LINE
  5
29F
100
AcDbEntity
  8
0
100
AcDbLine
 62
7
  6
CONTINUOUS
 10
275.2735033296
 20
70.1518724822
 11
190.1656105256
 21
96.1042212126
  0
LINE
  5
2A0
100
AcDbEntity
  8
0
100
AcDbLine
 62
7
  6
CONTINUOUS
 10
272.7539691721
 20
71.3038247279
 11
187.6460763681
 21
97.2561734583
  0
LINE
  5
2A1
100
AcDbEntity
  8
0
100
AcDbLine
 62
7
  6
CONTINUOUS
 10
272.7428551465
 20
71.9036648501
 11
187.6349623425
 21
97.8560135805
  0
LINE
  5
2A2
100
AcDbEntity
  8
0
100
AcDbLine
 62
7
  6
CONTINUOUS
 10
188.8670113503
 20
96.0794026533
 11
190.1656105256
 21
96.1042212126
  0
LINE
  5
2A3
100
AcDbEntity
  8
0
100
AcDbLine
 62
7
  6
CONTINUOUS
 10
273.9193340264
 20
73.1262545339
 11
188.8114412224
 21
99.0786032643
  0
LINE
  5
2A4
100
AcDbEntity
  8
0
100
AcDbLine
 62
7
  6
CONTINUOUS
 10
275.2179332017
 20
73.1510730932
 11
190.1100403976
 21
99.1034218236
  0
LINE
  5
2A5
100
AcDbEntity
  8
0
100
AcDbLine
 62
7
  6
CONTINUOUS
 10
275.1623630738
 20
76.1502737042
 11
190.0544702697
 21
102.1026224346
  0
LINE
  5
2A6
100
AcDbEntity
  8
0
100
AcDbLine
 62
7
  6
CONTINUOUS
 10
272.6428289163
 20
77.3022259499
 11
187.5349361122
 21
103.2545746803
  0
LINE
  5
2A7
100
AcDbEntity
  8
0
100
AcDbLine
 62
7
  6
CONTINUOUS
 10
272.6317148907
 20
77.9020660721
 11
187.5238220867
 21
103.8544148025
  0
LINE
  5
2A8
100
AcDbEntity
  8
0
100
AcDbLine
 62
7
  6
CONTINUOUS
 10
190.1100403976
 20
99.1034218236
 11
188.8114412224
 21
99.0786032643
  0
LINE
  5
2A9
100
AcDbEntity
  8
0
100
AcDbLine
 62
7
  6
CONTINUOUS
 10
188.7558710944
 20
102.0778038753
 11
190.0544702697
 21
102.1026224346
  0
LINE
  5
2AA
100
AcDbEntity
  8
0
100
AcDbLine
 62
7
  6
CONTINUOUS
 10
273.8081937706
 20
79.1246557559
 11
188.7003009665
 21
105.0770044863
  0
LINE
  5
2AB
100
AcDbEntity
  8
0
100
AcDbLine
 62
7
  6
CONTINUOUS
 10
189.9989001418
 20
105.1018230456
 11
275.1067929458
 21
79.1494743152
  0
LINE
  5
2AC
100
AcDbEntity
  8
0
100
AcDbLine
 62
7
  6
CONTINUOUS
 10
140.0898247673
 20
102.1477959982
 11
174.2290966878
 21
104.593251421
  0
LINE
  5
2AD
100
AcDbEntity
  8
0
100
AcDbLine
 62
7
  6
CONTINUOUS
 10
189.9989001418
 20
105.1018230456
 11
188.7003009665
 21
105.0770044863
  0
LINE
  5
2AE
100
AcDbEntity
  8
0
100
AcDbLine
 62
7
  6
CONTINUOUS
 10
177.4931763043
 20
132.865267688
 11
176.4757304858
 21
133.8459100255
  0
LINE
  5
2AF
100
AcDbEntity
  8
0
100
AcDbLine
 62
7
  6
CONTINUOUS
 10
168.4462821393
 20
120.430280955
 11
147.9849323723
 21
119.6738265592
  0
LINE
  5
2B0
100
AcDbEntity
  8
DTM_AXIS
100
AcDbLine
 62
7
  6
CONTINUOUS
 10
168.5047610584
 20
121.8593006427
 11
148.0209472006
 21
121.1019851983
  0
LINE
  5
2B1
100
AcDbEntity
  8
DTM_AXIS
100
AcDbLine
 62
7
  6
CONTINUOUS
 10
171.301348727
 20
125.5306885199
 11
177.6247422209
 21
125.7644638504
  0
LINE
  5
2B2
100
AcDbEntity
  8
DTM_AXIS
100
AcDbLine
 62
7
  6
CONTINUOUS
 10
171.3502992092
 20
126.9593253891
 11
177.5983236168
 21
127.1903143308
  0
LINE
  5
2B3
100
AcDbEntity
  8
0
100
AcDbLine
 62
7
  6
CONTINUOUS
 10
189.3320586069
 20
141.0922303776
 11
274.4399514109
 21
115.1398816472
  0
LINE
  5
2B4
100
AcDbEntity
  8
0
100
AcDbLine
 62
7
  6
CONTINUOUS
 10
176.346066854
 20
140.8440447845
 11
189.3320586069
 21
141.0922303776
  0
LINE
  5
2B5
100
AcDbEntity
  8
0
100
AcDbLine
 62
7
  6
CONTINUOUS
 10
272.6317148907
 20
77.9020660721
 11
272.6428289163
 21
77.3022259499
  0
LINE
  5
2B6
100
AcDbEntity
  8
0
100
AcDbLine
 62
7
  6
CONTINUOUS
 10
272.7428551465
 20
71.9036648501
 11
272.7539691721
 21
71.3038247279
  0
LINE
  5
2B7
100
AcDbEntity
  8
0
100
AcDbLine
 62
7
  6
CONTINUOUS
 10
274.4399514109
 20
115.1398816472
 11
275.1067929458
 21
79.1494743152
  0
LINE
  5
2B8
100
AcDbEntity
  8
0
100
AcDbLine
 62
7
  6
CONTINUOUS
 10
275.1623630738
 20
76.1502737042
 11
275.2179332017
 21
73.1510730932
  0
LINE
  5
2B9
100
AcDbEntity
  8
0
100
AcDbLine
 62
7
  6
CONTINUOUS
 10
275.2735033296
 20
70.1518724822
 11
275.3661202094
 21
65.1532047972
  0
LINE
  5
2BA
100
AcDbEntity
  8
0
100
AcDbLine
 62
7
  6
CONTINUOUS
 10
46.1392906104
 20
134.0316193389
 11
46.1392906104
 21
100.5316193389
  0
LINE
  5
2BB
100
AcDbEntity
  8
0
100
AcDbLine
 62
7
  6
CONTINUOUS
 10
96.1392906104
 20
100.5316193389
 11
46.1392906104
 21
100.5316193389
  0
LINE
  5
2BC
100
AcDbEntity
  8
0
100
AcDbLine
 62
7
  6
CONTINUOUS
 10
94.8392906104
 20
105.5316193389
 11
96.1392906104
 21
105.5316193389
  0
LINE
  5
2BD
100
AcDbEntity
  8
0
100
AcDbLine
 62
7
  6
CONTINUOUS
 10
96.1392906104
 20
108.5316193389
 11
94.8392906104
 21
108.5316193389
  0
LINE
  5
2BE
100
AcDbEntity
  8
0
100
AcDbLine
 62
7
  6
CONTINUOUS
 10
94.8392906104
 20
111.5316193389
 11
96.1392906104
 21
111.5316193389
  0
LINE
  5
2BF
100
AcDbEntity
  8
0
100
AcDbLine
 62
7
  6
CONTINUOUS
 10
46.1392906104
 20
112.5316193389
 11
80.3486344354
 21
114.3244550795
  0
LINE
  5
2C0
100
AcDbEntity
  8
0
100
AcDbLine
 62
7
  6
CONTINUOUS
 10
46.1392906104
 20
113.9799336253
 11
80.3098130656
 21
115.7707348241
  0
LINE
  5
2C1
100
AcDbEntity
  8
0
100
AcDbLine
 62
7
  6
CONTINUOUS
 10
96.1392906104
 20
114.5316193389
 11
94.8392906104
 21
114.5316193389
  0
LINE
  5
2C2
100
AcDbEntity
  8
DTM_AXIS
100
AcDbLine
 62
7
  6
CONTINUOUS
 10
68.1392906104
 20
135.889676662
 11
68.1392906104
 21
137.9368567392
  0
LINE
  5
2C3
100
AcDbEntity
  8
DTM_AXIS
100
AcDbLine
 62
7
  6
CONTINUOUS
 10
69.5996080458
 20
135.9413412196
 11
69.5996080458
 21
137.9885212968
  0
LINE
  5
2C4
100
AcDbEntity
  8
0
100
AcDbLine
 62
7
  6
CONTINUOUS
 10
66.6519652651
 20
132.9417981341
 11
46.1392906104
 21
132.5837480662
  0
LINE
  5
2C5
100
AcDbEntity
  8
DTM_AXIS
100
AcDbLine
 62
7
  6
CONTINUOUS
 10
66.66546922
 20
134.3899051193
 11
46.1392906104
 21
134.0316193389
  0
LINE
  5
2C6
100
AcDbEntity
  8
0
100
AcDbLine
 62
7
  6
CONTINUOUS
 10
66.66546922
 20
134.3899051193
 11
46.1392906104
 21
134.0316193389
  0
LINE
  5
2C7
100
AcDbEntity
  8
DTM_AXIS
100
AcDbLine
 62
7
  6
CONTINUOUS
 10
82.678973175
 20
118.267308661
 11
82.678973175
 21
138.2168224643
  0
LINE
  5
2C8
100
AcDbEntity
  8
0
100
AcDbLine
 62
7
  6
CONTINUOUS
 10
83.1392906104
 20
143.5316193389
 11
83.1392906104
 21
150.5316193389
  0
LINE
  5
2C9
100
AcDbEntity
  8
0
100
AcDbLine
 62
7
  6
CONTINUOUS
 10
84.1392906104
 20
118.3189732185
 11
84.1392906104
 21
142.5316193389
  0
LINE
  5
2CA
100
AcDbEntity
  8
DTM_AXIS
100
AcDbLine
 62
7
  6
CONTINUOUS
 10
69.5996080458
 20
137.9885212968
 11
82.678973175
 21
138.2168224643
  0
LINE
  5
2CB
100
AcDbEntity
  8
DTM_AXIS
100
AcDbLine
 62
7
  6
CONTINUOUS
 10
69.6131120007
 20
139.4366282819
 11
82.66546922
 21
139.6644580247
  0
LINE
  5
2CC
100
AcDbEntity
  8
0
100
AcDbLine
 62
7
  6
CONTINUOUS
 10
84.1392906104
 20
142.5316193389
 11
83.1392906104
 21
143.5316193389
  0
LINE
  5
2CD
100
AcDbEntity
  8
0
100
AcDbLine
 62
7
  6
CONTINUOUS
 10
93.6392906104
 20
113.3316193389
 11
93.6392906104
 21
112.7316193389
  0
LINE
  5
2CE
100
AcDbEntity
  8
0
100
AcDbLine
 62
7
  6
CONTINUOUS
 10
93.6392906104
 20
107.3316193389
 11
93.6392906104
 21
106.7316193389
  0
LINE
  5
2CF
100
AcDbEntity
  8
0
100
AcDbLine
 62
7
  6
CONTINUOUS
 10
96.1392906104
 20
150.5316193389
 11
96.1392906104
 21
114.5316193389
  0
LINE
  5
2D0
100
AcDbEntity
  8
0
100
AcDbLine
 62
7
  6
CONTINUOUS
 10
96.1392906104
 20
111.5316193389
 11
96.1392906104
 21
108.5316193389
  0
LINE
  5
2D1
100
AcDbEntity
  8
0
100
AcDbLine
 62
7
  6
CONTINUOUS
 10
96.1392906104
 20
105.5316193389
 11
96.1392906104
 21
100.5316193389
  0
LINE
  5
2D2
100
AcDbEntity
  8
0
100
AcDbLine
 62
7
  6
CONTINUOUS
 10
83.1392906104
 20
150.5316193389
 11
96.1392906104
 21
150.5316193389
  0
ARC
  5
2D3
100
AcDbEntity
  8
0
100
AcDbCircle
 62
7
  6
CONTINUOUS
 10
173.9411605591
 20
108.583780775
 40
4.0010809351
100
AcDbArc
 50
274.1270172686
 51
1.0782202576
  0
ARC
  5
2D4
100
AcDbEntity
  8
DTM_AXIS
100
AcDbCircle
 62
7
  6
CONTINUOUS
 10
168.3315532692
 20
123.4327885667
 40
3.0049857954
100
AcDbArc
 50
272.188265418
 51
0.9949244264
  0
ARC
  5
2D5
100
AcDbEntity
  8
DTM_AXIS
100
AcDbCircle
 62
7
  6
CONTINUOUS
 10
171.4057198698
 20
125.4603459764
 40
1.5000035754
100
AcDbArc
 50
92.1173886338
 51
180.9777201635
  0
ARC
  5
2D6
100
AcDbEntity
  8
0
100
AcDbCircle
 62
7
  6
CONTINUOUS
 10
273.9630932738
 20
71.3277825183
 40
1.2093614303
100
AcDbArc
 50
181.1351197771
 51
200.9331908461
  0
ARC
  5
2D7
100
AcDbEntity
  8
0
100
AcDbCircle
 62
7
  6
CONTINUOUS
 10
273.851953018
 20
77.3261837403
 40
1.2093614303
100
AcDbArc
 50
181.135119777
 51
200.9331908462
  0
ARC
  5
2D8
100
AcDbEntity
  8
0
100
AcDbCircle
 62
7
  6
CONTINUOUS
 10
188.7339910021
 20
103.2825940742
 40
1.2049888638
100
AcDbArc
 50
253.0994235131
 51
271.0404294064
  0
ARC
  5
2D9
100
AcDbEntity
  8
0
100
AcDbCircle
 62
7
  6
CONTINUOUS
 10
188.8451312579
 20
97.2841928522
 40
1.2049888638
100
AcDbArc
 50
253.0994235131
 51
271.0404294064
  0
ARC
  5
2DA
100
AcDbEntity
  8
0
100
AcDbCircle
 62
7
  6
CONTINUOUS
 10
273.9429251145
 20
71.9262701815
 40
1.2002534275
100
AcDbArc
 50
91.1262610906
 51
181.0791345189
  0
ARC
  5
2DB
100
AcDbEntity
  8
0
100
AcDbCircle
 62
7
  6
CONTINUOUS
 10
273.8317848587
 20
77.9246714035
 40
1.2002534275
100
AcDbArc
 50
91.1262610904
 51
181.0791345191
  0
ARC
  5
2DC
100
AcDbEntity
  8
0
100
AcDbCircle
 62
7
  6
CONTINUOUS
 10
188.8350323105
 20
97.8786189119
 40
1.2002534275
100
AcDbArc
 50
91.1262610906
 51
181.0791345189
  0
ARC
  5
2DD
100
AcDbEntity
  8
0
100
AcDbCircle
 62
7
  6
CONTINUOUS
 10
188.7238920546
 20
103.8770201339
 40
1.2002534275
100
AcDbArc
 50
91.1262610896
 51
181.0791345199
  0
ARC
  5
2DE
100
AcDbEntity
  8
0
100
AcDbCircle
 62
7
  6
CONTINUOUS
 10
188.8448280658
 20
97.2779288346
 40
1.198927655
100
AcDbArc
 50
181.0397102428
 51
253.0262605697
  0
ARC
  5
2DF
100
AcDbEntity
  8
0
100
AcDbCircle
 62
7
  6
CONTINUOUS
 10
188.73368781
 20
103.2763300566
 40
1.198927655
100
AcDbArc
 50
181.0397102428
 51
253.0262605697
  0
ARC
  5
2E0
100
AcDbEntity
  8
0
100
AcDbCircle
 62
7
  6
CONTINUOUS
 10
80.1392906104
 20
118.3189732185
 40
4.0
100
AcDbArc
 50
273.0
 51
360.0
  0
ARC
  5
2E1
100
AcDbEntity
  8
DTM_AXIS
100
AcDbCircle
 62
7
  6
CONTINUOUS
 10
66.5996080457
 20
135.9413412197
 40
3.0000000001
100
AcDbArc
 50
271.0000000018
 51
359.9999999981
  0
ARC
  5
2E2
100
AcDbEntity
  8
DTM_AXIS
100
AcDbCircle
 62
7
  6
CONTINUOUS
 10
80.1789731748
 20
118.2673086612
 40
2.5000000002
100
AcDbArc
 50
273.0000000049
 51
359.9999999951
  0
ARC
  5
2E3
100
AcDbEntity
  8
DTM_AXIS
100
AcDbCircle
 62
7
  6
CONTINUOUS
 10
69.6392906104
 20
137.9368567392
 40
1.5
100
AcDbArc
 50
91.0
 51
180.0
  0
ARC
  5
2E4
100
AcDbEntity
  8
DTM_AXIS
100
AcDbCircle
 62
7
  6
CONTINUOUS
 10
69.6392906104
 20
137.9415848727
 40
1.5
100
AcDbArc
 50
91.0
 51
180.0
  0
ARC
  5
2E5
100
AcDbEntity
  8
DTM_AXIS
100
AcDbCircle
 62
7
  6
CONTINUOUS
 10
66.6392906104
 20
135.889676662
 40
1.5
100
AcDbArc
 50
271.0
 51
360.0
  0
ARC
  5
2E6
100
AcDbEntity
  8
DTM_AXIS
100
AcDbCircle
 62
7
  6
CONTINUOUS
 10
82.6392906104
 20
141.1642295674
 40
1.5
100
AcDbArc
 50
271.0
 51
360.0
  0
ARC
  5
2E7
100
AcDbEntity
  8
DTM_AXIS
100
AcDbCircle
 62
7
  6
CONTINUOUS
 10
82.6392906104
 20
141.1689577009
 40
1.5
100
AcDbArc
 50
271.0
 51
360.0
  0
ARC
  5
2E8
100
AcDbEntity
  8
0
100
AcDbCircle
 62
7
  6
CONTINUOUS
 10
94.8392906104
 20
106.7316193389
 40
1.2
100
AcDbArc
 50
180.0
 51
270.0
  0
ARC
  5
2E9
100
AcDbEntity
  8
0
100
AcDbCircle
 62
7
  6
CONTINUOUS
 10
94.8392906104
 20
107.3316193389
 40
1.2
100
AcDbArc
 50
90.0
 51
180.0
  0
ARC
  5
2EA
100
AcDbEntity
  8
0
100
AcDbCircle
 62
7
  6
CONTINUOUS
 10
94.8392906104
 20
112.7316193389
 40
1.2
100
AcDbArc
 50
180.0
 51
270.0
  0
ARC
  5
2EB
100
AcDbEntity
  8
0
100
AcDbCircle
 62
7
  6
CONTINUOUS
 10
94.8392906104
 20
113.3316193389
 40
1.2
100
AcDbArc
 50
90.0
 51
180.0
  0
SPLINE
  5
2EC
100
AcDbEntity
  8
DTM_AXIS
100
AcDbSpline
 62
7
  6
CONTINUOUS
 70
0
 71
3
 72
18
 73
14
 74
0
 42
0.0000001
 43
0.0000001
 44
0.0000000001
 40
0.0
 40
0.0
 40
0.0
 40
0.0
 40
0.0067429544
 40
0.0216127719
 40
0.0454082811
 40
0.0780989909
 40
0.1194610651
 40
0.1691609053
 40
0.2918145038
 40
0.4418311523
 40
0.61397892
 40
0.8022339709
 40
1.0
 40
1.0
 40
1.0
 40
1.0
 10
169.9408520078
 20
123.3890316656
 30
0.0
 10
169.9407981023
 20
123.39218507
 30
0.0
 10
169.951567674
 20
123.3988100921
 30
0.0
 10
169.9703447004
 20
123.4040901537
 30
0.0
 10
170.0038847227
 20
123.4113670934
 30
0.0
 10
170.0487769972
 20
123.4180760431
 30
0.0
 10
170.106374636
 20
123.4251689549
 30
0.0
 10
170.2057770641
 20
123.4351265954
 30
0.0
 10
170.3561735267
 20
123.4466789964
 30
0.0
 10
170.5638591854
 20
123.4588589594
 30
0.0
 10
170.8023650149
 20
123.4696364959
 30
0.0
 10
171.0632842013
 20
123.4786001877
 30
0.0
 10
171.243784671
 20
123.4830839574
 30
0.0
 10
171.3362660538
 20
123.4849697689
 30
0.0
  0
SPLINE
  5
2ED
100
AcDbEntity
  8
DTM_AXIS
100
AcDbSpline
 62
7
  6
CONTINUOUS
 70
0
 71
3
 72
17
 73
13
 74
0
 42
0.0000001
 43
0.0000001
 44
0.0000000001
 40
0.0
 40
0.0
 40
0.0
 40
0.0
 40
0.0082115657
 40
0.0238037099
 40
0.0480554502
 40
0.0810718879
 40
0.1725372809
 40
0.2953350373
 40
0.4451858147
 40
0.6167656661
 40
0.8039400621
 40
1.0
 40
1.0
 40
1.0
 40
1.0
 10
168.4952324217
 20
121.8589177904
 30
0.0
 10
168.491299991
 20
121.8587722144
 30
0.0
 10
168.4824102499
 20
121.8487264502
 30
0.0
 10
168.4755858745
 20
121.8275647603
 30
0.0
 10
168.4674139968
 20
121.7931533447
 30
0.0
 10
168.4571286818
 20
121.7228055558
 30
0.0
 10
168.4470353434
 20
121.6045075776
 30
0.0
 10
168.4390982649
 20
121.4302534291
 30
0.0
 10
168.4347959358
 20
121.2173695341
 30
0.0
 10
168.4344507261
 20
120.9736357609
 30
0.0
 10
168.4381219863
 20
120.7077730338
 30
0.0
 10
168.4431264422
 20
120.5241832592
 30
0.0
 10
168.4462821393
 20
120.430280955
 30
0.0
  0
SPLINE
  5
2EE
100
AcDbEntity
  8
DTM_AXIS
100
AcDbSpline
 62
7
  6
CONTINUOUS
 70
0
 71
3
 72
17
 73
13
 74
0
 42
0.0000001
 43
0.0000001
 44
0.0000000001
 40
0.0
 40
0.0
 40
0.0
 40
0.0
 40
0.1960602397
 40
0.3832348936
 40
0.554814931
 40
0.7046657906
 40
0.8274635109
 40
0.9189287424
 40
0.9519450503
 40
0.9761966294
 40
0.9917885906
 40
1.0
 40
1.0
 40
1.0
 40
1.0
 10
171.301348727
 20
125.5306885199
 30
0.0
 10
171.2981930246
 20
125.6245909823
 30
0.0
 10
171.293188562
 20
125.8081810516
 30
0.0
 10
171.289517305
 20
126.0740441752
 30
0.0
 10
171.2898625308
 20
126.317778235
 30
0.0
 10
171.2941648921
 20
126.5306622742
 30
0.0
 10
171.3021020016
 20
126.7049163845
 30
0.0
 10
171.3121953952
 20
126.8232142341
 30
0.0
 10
171.3224807286
 20
126.8935617901
 30
0.0
 10
171.3306526689
 20
126.9279730046
 30
0.0
 10
171.3374769828
 20
126.9491343843
 30
0.0
 10
171.3463668472
 20
126.959180015
 30
0.0
 10
171.3502992112
 20
126.959325387
 30
0.0
  0
SPLINE
  5
2EF
100
AcDbEntity
  8
DTM_AXIS
100
AcDbSpline
 62
7
  6
CONTINUOUS
 70
0
 71
3
 72
18
 73
14
 74
0
 42
0.0000001
 43
0.0000001
 44
0.0000000001
 40
0.0
 40
0.0
 40
0.0
 40
0.0
 40
0.1977658936
 40
0.3860208237
 40
0.558168503
 40
0.7081851072
 40
0.8308387263
 40
0.8805385993
 40
0.9219007197
 40
0.9545914891
 40
0.9783870711
 40
0.9932569731
 40
1.0
 40
1.0
 40
1.0
 40
1.0
 10
171.301348727
 20
125.5306885199
 30
0.0
 10
171.208867412
 20
125.5288027098
 30
0.0
 10
171.0283670708
 20
125.5243189443
 30
0.0
 10
170.7674480578
 20
125.5153552616
 30
0.0
 10
170.5289423586
 20
125.5045777362
 30
0.0
 10
170.3212567602
 20
125.492397783
 30
0.0
 10
170.1708603036
 20
125.4808453963
 30
0.0
 10
170.0714578265
 20
125.4708877623
 30
0.0
 10
170.0138601371
 20
125.4637948639
 30
0.0
 10
169.9689677473
 20
125.4570858962
 30
0.0
 10
169.9354276975
 20
125.4498090078
 30
0.0
 10
169.916650425
 20
125.4445288535
 30
0.0
 10
169.9058809312
 20
125.4379039444
 30
0.0
 10
169.9059346765
 20
125.4347505035
 30
0.0
  0
SPLINE
  5
2F0
100
AcDbEntity
  8
DTM_AXIS
100
AcDbSpline
 62
7
  6
CONTINUOUS
 70
0
 71
3
 72
20
 73
16
 74
0
 42
0.0000001
 43
0.0000001
 44
0.0000000001
 40
0.0
 40
0.0
 40
0.0
 40
0.0
 40
0.0020793881
 40
0.0060387248
 40
0.0206947722
 40
0.0445496008
 40
0.0774725352
 40
0.119189113
 40
0.1693262183
 40
0.227425749
 40
0.2929523448
 40
0.4437968832
 40
0.6162773884
 40
0.8039996128
 40
1.0
 40
1.0
 40
1.0
 40
1.0
 10
84.1392906104
 20
138.2684870219
 30
0.0
 10
84.1392906104
 20
138.2674723211
 30
0.0
 10
84.1367850065
 20
138.2650835541
 30
0.0
 10
84.127594124
 20
138.2617106059
 30
0.0
 10
84.106920717
 20
138.2574253341
 30
0.0
 10
84.0725308778
 20
138.2530152139
 30
0.0
 10
84.0245933328
 20
138.2484559718
 30
0.0
 10
83.9638918442
 20
138.2440735399
 30
0.0
 10
83.8908261926
 20
138.2398547217
 30
0.0
 10
83.8061286302
 20
138.235884173
 30
0.0
 10
83.6722890141
 20
138.2307247331
 30
0.0
 10
83.4826086065
 20
138.2253745568
 30
0.0
 10
83.2332686815
 20
138.2206878841
 30
0.0
 10
82.961866646
 20
138.2176927183
 30
0.0
 10
82.7746174997
 20
138.2169096757
 30
0.0
 10
82.678973175
 20
138.2168224643
 30
0.0
  0
SPLINE
  5
2F1
100
AcDbEntity
  8
DTM_AXIS
100
AcDbSpline
 62
7
  6
CONTINUOUS
 70
0
 71
3
 72
21
 73
17
 74
0
 42
0.0000001
 43
0.0000001
 44
0.0000000001
 40
0.0
 40
0.0
 40
0.0
 40
0.0
 40
0.0017516314
 40
0.0055461343
 40
0.011625117
 40
0.0200232018
 40
0.0437519139
 40
0.0765729698
 40
0.1182025058
 40
0.1682659044
 40
0.2263071169
 40
0.2917948481
 40
0.44264263
 40
0.6152783786
 40
0.8033660385
 40
1.0
 40
1.0
 40
1.0
 40
1.0
 10
66.66546922
 20
134.3899051193
 30
0.0
 10
66.6646228467
 20
134.3898903458
 30
0.0
 10
66.6628874818
 20
134.3870606252
 30
0.0
 10
66.6615926645
 20
134.3820233463
 30
0.0
 10
66.6598648658
 20
134.3731329408
 30
0.0
 10
66.6575919122
 20
134.354933008
 30
0.0
 10
66.6550372856
 20
134.3235468571
 30
0.0
 10
66.6525033398
 20
134.2762105641
 30
0.0
 10
66.6502605117
 20
134.216059933
 30
0.0
 10
66.648373649
 20
134.1437283671
 30
0.0
 10
66.6468635199
 20
134.0598481036
 30
0.0
 10
66.6453116137
 20
133.927260669
 30
0.0
 10
66.6445734547
 20
133.7392827578
 30
0.0
 10
66.6453522143
 20
133.4920582542
 30
0.0
 10
66.6477695047
 20
133.2227163499
 30
0.0
 10
66.650392647
 20
133.0368114479
 30
0.0
 10
66.6519652651
 20
132.9417981341
 30
0.0
  0
SPLINE
  5
2F2
100
AcDbEntity
  8
DTM_AXIS
100
AcDbSpline
 62
7
  6
CONTINUOUS
 70
0
 71
3
 72
21
 73
17
 74
0
 42
0.0000001
 43
0.0000001
 44
0.0000000001
 40
0.0
 40
0.0
 40
0.0
 40
0.0
 40
0.0017075703
 40
0.0054817119
 40
0.0115477379
 40
0.0199361782
 40
0.0436505544
 40
0.0764605869
 40
0.1180811827
 40
0.168137448
 40
0.2261734758
 40
0.2916583434
 40
0.4425095642
 40
0.6151653308
 40
0.8032954093
 40
1.0
 40
1.0
 40
1.0
 40
1.0
 10
80.3486344354
 20
114.3244550795
 30
0.0
 10
80.3494576561
 20
114.3244982227
 30
0.0
 10
80.3509926385
 20
114.3274296343
 30
0.0
 10
80.3520427153
 20
114.3324405494
 30
0.0
 10
80.353367244
 20
114.3413908367
 30
0.0
 10
80.3548802895
 20
114.3596184918
 30
0.0
 10
80.3561899404
 20
114.3910407192
 30
0.0
 10
80.35691158
 20
114.4383684093
 30
0.0
 10
80.3568989668
 20
114.4984867782
 30
0.0
 10
80.356113325
 20
114.5707523943
 30
0.0
 10
80.3545573047
 20
114.6545373325
 30
0.0
 10
80.3513032956
 20
114.7869535331
 30
0.0
 10
80.3452989332
 20
114.974651037
 30
0.0
 10
80.3357376419
 20
115.221466055
 30
0.0
 10
80.3238278737
 20
115.4903390246
 30
0.0
 10
80.3146993349
 20
115.675899069
 30
0.0
 10
80.3098130656
 20
115.7707348241
 30
0.0
  0
SPLINE
  5
2F3
100
AcDbEntity
  8
DTM_AXIS
100
AcDbSpline
 62
7
  6
CONTINUOUS
 70
0
 71
3
 72
21
 73
17
 74
0
 42
0.0000001
 43
0.0000001
 44
0.0000000001
 40
0.0
 40
0.0
 40
0.0
 40
0.0
 40
0.1967914626
 40
0.3850401685
 40
0.5578026004
 40
0.7087069938
 40
0.774189615
 40
0.8322024755
 40
0.8822156247
 40
0.9237759423
 40
0.9565131768
 40
0.9801490057
 40
0.9884992885
 40
0.9945308973
 40
0.9982803409
 40
1.0
 40
1.0
 40
1.0
 40
1.0
 10
82.678973175
 20
138.2168224643
 30
0.0
 10
82.6805453898
 20
138.3118826759
 30
0.0
 10
82.6831690763
 20
138.4978843289
 30
0.0
 10
82.685586621
 20
138.7673585501
 30
0.0
 10
82.686365154
 20
139.0146734247
 30
0.0
 10
82.6856258447
 20
139.2026796498
 30
0.0
 10
82.6840722506
 20
139.3352374887
 30
0.0
 10
82.6825609067
 20
139.4190515088
 30
0.0
 10
82.6806737159
 20
139.4912893434
 30
0.0
 10
82.6784292483
 20
139.5513232444
 30
0.0
 10
82.6758993739
 20
139.5985258999
 30
0.0
 10
82.6733383591
 20
139.6297937352
 30
0.0
 10
82.6710762053
 20
139.6478967738
 30
0.0
 10
82.669333487
 20
139.6567147444
 30
0.0
 10
82.6680725563
 20
139.6616930916
 30
0.0
 10
82.6662998894
 20
139.6644725186
 30
0.0
 10
82.66546922
 20
139.6644580247
 30
0.0
  0
SPLINE
  5
2F4
100
AcDbEntity
  8
DTM_AXIS
100
AcDbSpline
 62
7
  6
CONTINUOUS
 70
0
 71
3
 72
21
 73
17
 74
0
 42
0.0000001
 43
0.0000001
 44
0.0000000001
 40
0.0
 40
0.0
 40
0.0
 40
0.0
 40
0.1966339662
 40
0.3847216264
 40
0.5573573735
 40
0.7082051524
 40
0.773692885
 40
0.8317341008
 40
0.8817975031
 40
0.923427041
 40
0.9562480955
 40
0.979976804
 40
0.9883748869
 40
0.9944538676
 40
0.9982483701
 40
1.0
 40
1.0
 40
1.0
 40
1.0
 10
69.5996080458
 20
137.9885212968
 30
0.0
 10
69.5980354276
 20
138.0835346128
 30
0.0
 10
69.5954122851
 20
138.2694395172
 30
0.0
 10
69.5929949944
 20
138.5387814231
 30
0.0
 10
69.5922162351
 20
138.7860059246
 30
0.0
 10
69.5929543944
 20
138.9739838343
 30
0.0
 10
69.5945063006
 20
139.1065712697
 30
0.0
 10
69.5960164294
 20
139.1904515372
 30
0.0
 10
69.5979032921
 20
139.2627831073
 30
0.0
 10
69.6001461195
 20
139.3229337406
 30
0.0
 10
69.602680067
 20
139.3702700316
 30
0.0
 10
69.6052346901
 20
139.4016561803
 30
0.0
 10
69.6075076487
 20
139.4198561079
 30
0.0
 10
69.6092354412
 20
139.4287465135
 30
0.0
 10
69.6105302661
 20
139.4337837871
 30
0.0
 10
69.6122656281
 20
139.4366135085
 30
0.0
 10
69.6131120007
 20
139.4366282819
 30
0.0
  0
SPLINE
  5
2F5
100
AcDbEntity
  8
DTM_AXIS
100
AcDbSpline
 62
7
  6
CONTINUOUS
 70
0
 71
3
 72
20
 73
16
 74
0
 42
0.0000001
 43
0.0000001
 44
0.0000000001
 40
0.0
 40
0.0
 40
0.0
 40
0.0
 40
0.0020793889
 40
0.0060387262
 40
0.0206947745
 40
0.0445496005
 40
0.0774725299
 40
0.1191891045
 40
0.1693262144
 40
0.2274257529
 40
0.292952352
 40
0.4437968809
 40
0.616277386
 40
0.8039996133
 40
1.0
 40
1.0
 40
1.0
 40
1.0
 10
68.1392906104
 20
135.889676662
 30
0.0
 10
68.1392906104
 20
135.8906913632
 30
0.0
 10
68.141796215
 20
135.8930801309
 30
0.0
 10
68.1509871003
 20
135.8964530754
 30
0.0
 10
68.1716605051
 20
135.9007383509
 30
0.0
 10
68.2060503419
 20
135.9051484693
 30
0.0
 10
68.2539878812
 20
135.9097077127
 30
0.0
 10
68.3146893681
 20
135.9140901446
 30
0.0
 10
68.3877550241
 20
135.9183089625
 30
0.0
 10
68.4724525941
 20
135.9222795105
 30
0.0
 10
68.606292211
 20
135.9274389499
 30
0.0
 10
68.7959726155
 20
135.9327891278
 30
0.0
 10
69.0453125373
 20
135.9374758001
 30
0.0
 10
69.3167145739
 20
135.9404709653
 30
0.0
 10
69.5039637214
 20
135.9412540082
 30
0.0
 10
69.5996080458
 20
135.9413412196
 30
0.0
  0
SPLINE
  5
2F6
100
AcDbEntity
  8
DTM_AXIS
100
AcDbSpline
 62
7
  6
CONTINUOUS
 70
0
 71
3
 72
20
 73
16
 74
0
 42
0.0000001
 43
0.0000001
 44
0.0000000001
 40
0.0
 40
0.0
 40
0.0
 40
0.0
 40
0.1960003919
 40
0.3837226163
 40
0.5562031206
 40
0.7070476551
 40
0.7725742531
 40
0.8306737874
 40
0.8808108957
 40
0.9225274753
 40
0.955450409
 40
0.9793052338
 40
0.993961277
 40
0.9979206139
 40
1.0
 40
1.0
 40
1.0
 40
1.0
 10
69.5996080458
 20
137.9885212968
 30
0.0
 10
69.5039637188
 20
137.9884340854
 30
0.0
 10
69.3167145702
 20
137.9876510432
 30
0.0
 10
69.0453125329
 20
137.9846558776
 30
0.0
 10
68.7959726103
 20
137.9799692048
 30
0.0
 10
68.606292204
 20
137.9746190277
 30
0.0
 10
68.472452587
 20
137.9694595881
 30
0.0
 10
68.3877550205
 20
137.9654890395
 30
0.0
 10
68.3146893645
 20
137.9612702218
 30
0.0
 10
68.2539878747
 20
137.9568877888
 30
0.0
 10
68.2060503291
 20
137.9523285501
 30
0.0
 10
68.1716604986
 20
137.9479184221
 30
0.0
 10
68.1509870877
 20
137.9436331638
 30
0.0
 10
68.141796216
 20
137.9402602029
 30
0.0
 10
68.1392906104
 20
137.937871439
 30
0.0
 10
68.1392906104
 20
137.9368567392
 30
0.0
  0
SPLINE
  5
2F7
100
AcDbEntity
  8
DTM_AXIS
100
AcDbSpline
 62
7
  6
CONTINUOUS
 70
0
 71
3
 72
20
 73
16
 74
0
 42
0.0000001
 43
0.0000001
 44
0.0000000001
 40
0.0
 40
0.0
 40
0.0
 40
0.0
 40
0.0020793881
 40
0.0060387248
 40
0.0206947722
 40
0.0445496008
 40
0.0774725352
 40
0.119189113
 40
0.1693262183
 40
0.227425749
 40
0.2929523448
 40
0.4437968832
 40
0.6162773884
 40
0.8039996128
 40
1.0
 40
1.0
 40
1.0
 40
1.0
 10
84.1392906104
 20
118.3189732185
 30
0.0
 10
84.1392906104
 20
118.3179585177
 30
0.0
 10
84.1367850065
 20
118.3155697508
 30
0.0
 10
84.127594124
 20
118.3121968025
 30
0.0
 10
84.106920717
 20
118.3079115307
 30
0.0
 10
84.0725308778
 20
118.3035014105
 30
0.0
 10
84.0245933328
 20
118.2989421684
 30
0.0
 10
83.9638918442
 20
118.2945597365
 30
0.0
 10
83.8908261926
 20
118.2903409183
 30
0.0
 10
83.8061286302
 20
118.2863703696
 30
0.0
 10
83.6722890141
 20
118.2812109297
 30
0.0
 10
83.4826086065
 20
118.2758607534
 30
0.0
 10
83.2332686815
 20
118.2711740807
 30
0.0
 10
82.961866646
 20
118.2681789149
 30
0.0
 10
82.7746174997
 20
118.2673958723
 30
0.0
 10
82.678973175
 20
118.267308661
 30
0.0
  0
ELLIPSE
  5
2F8
100
AcDbEntity
  8
0
100
AcDbEllipse
 62
7
  6
CONTINUOUS
 10
148.0497165966
 20
119.6020240695
 30
0.0
 11
-0.0286960144
 21
1.4999634148
 31
0.0
 40
0.042309428
 41
0.0008345869
 42
1.52209912
  0
ENDSEC
  0
SECTION
  2
OBJECTS
  0
DICTIONARY
  5
C
100
AcDbDictionary
280
0
281
1
  3
ACAD_GROUP
350
D
  3
ACAD_MLINESTYLE
350
17
  3
ACAD_LAYOUT
350
1A
  3
ACAD_PLOTSETTINGS
350
19
  3
ACAD_PLOTSTYLENAME
350
E
  3
ACAD_TABLESTYLE
350
       2F9
  0
DICTIONARY
  5
D
102
{ACAD_REACTORS
330
C
102
}
100
AcDbDictionary
280
0
281
1
  0
ACDBDICTIONARYWDFLT
  5
E
102
{ACAD_REACTORS
330
C
102
}
100
AcDbDictionary
281
1
  3
Normal
350
F
100
AcDbDictionaryWithDefault
340
F
  0
DICTIONARY
  5
17
102
{ACAD_REACTORS
330
C
102
}
100
AcDbDictionary
280
0
281
1
  3
Standard
350
18
  0
DICTIONARY
  5
2F9
330
C
100
AcDbDictionary
281
1
  3
Standard
350
       2FC
  3
Standard1
350
       2FD
  0
DICTIONARY
  5
19
102
{ACAD_REACTORS
330
C
102
}
100
AcDbDictionary
281
1
  0
DICTIONARY
  5
1A
102
{ACAD_REACTORS
330
C
102
}
100
AcDbDictionary
281
1
  3
Model
350
2FA
  3
Layout1
350
2FB
  0
ACDBPLACEHOLDER
  5
F
102
{ACAD_REACTORS
330
E
102
}
  0
MLINESTYLE
  5
18
102
{ACAD_REACTORS
330
17
102
}
100
AcDbMlineStyle
  2
STANDARD
 70
0
  3

 62
256
 51
90.0
 52
90.0
 71
2
 49
0.5
 62
256
  6
BYLAYER
 49
-0.5
 62
256
  6
BYLAYER
  0
LAYOUT
  5
2FA
102
{ACAD_REACTORS
330
1A
102
}
100
AcDbPlotSettings
  1

  2
none_device
  4
ISO_A4_(297.00_x_210.00_MM)
  6

 40
0.0
 41
0.0
 42
0.0
 43
0.0
 44
297.0
 45
210.0
 46
0.0
 47
0.0
 48
0.0
 49
0.0
140
0.0
141
0.0
142
1.0
143
1.0
 70
1024
 72
1
 73
0
 74
0
  7

 75
0
147
1.0
148
0.0
149
0.0
100
AcDbLayout
  1
Model
 70
0
 71
0
 10
0.0
 20
0.0
 11
297.0
 21
210.0
 12
0.0
 22
0.0
 32
0.0
 14
0.0
 24
0.0
 34
0.0
 15
0.0
 25
0.0
 35
0.0
146
0.0
 13
0.0
 23
0.0
 33
0.0
 16
1.0
 26
0.0
 36
0.0
 17
0.0
 27
1.0
 37
0.0
 76
0
330
215
345
0
346
0
  0
LAYOUT
  5
2FB
102
{ACAD_REACTORS
330
1A
102
}
100
AcDbPlotSettings
  1

  2
none_device
  4
ISO_A4_(297.00_x_210.00_MM)
  6

 40
0.0
 41
0.0
 42
0.0
 43
0.0
 44
297.0
 45
210.0
 46
0.0
 47
0.0
 48
0.0
 49
0.0
140
0.0
141
0.0
142
1.0
143
1.0
 70
0
 72
1
 73
0
 74
0
  7

 75
0
147
1.0
148
0.0
149
0.0
100
AcDbLayout
  1
Layout1
 70
0
 71
1
 10
0.0
 20
0.0
 11
297.0
 21
210.0
 12
0.0
 22
0.0
 32
0.0
 14
0.0
 24
0.0
 34
0.0
 15
0.0
 25
0.0
 35
0.0
146
0.0
 13
0.0
 23
0.0
 33
0.0
 16
1.0
 26
0.0
 36
0.0
 17
0.0
 27
1.0
 37
0.0
 76
0
330
216
345
0
346
0
  0
TABLESTYLE
  5
2FC
102
{ACAD_REACTORS
330
2F9
330
283
102
}
330
2F9
100
AcDbTableStyle
  3
Standard
 70
0
 71
0
 40
0.06
 41
0.06
280
1
281
1
  7
Standard
140
0.18
170
1
 62
0
 63
7
283
0
  7
Standard
140
0.18
170
1
 62
0
 63
7
283
0
  7
Standard
140
0.18
170
1
 62
0
 63
7
283
0
  0
TABLESTYLE
  5
2FD
102
{ACAD_REACTORS
330
2F9
102
}
330
2F9
100
AcDbTableStyle
  3
Standard1
 70
1
 71
0
 40
0.06
 41
0.06
280
1
281
1
  7
Standard
140
0.18
170
1
 62
0
 63
7
283
0
  7
Standard
140
0.18
170
1
 62
0
 63
7
283
0
  7
Standard
140
0.18
170
1
 62
0
 63
7
283
0
  0
ENDSEC
  0
EOF
