999
DXF file: O:\ORAC_PRODUCTEN\ORAC_LIJN6\C-Type\C326\c326-prod-mm.dxf
999
Pro/ENGINEER 2018500 by Parametric Technology Corporation
  0
SECTION
  2
HEADER
  9
$ACADVER
  1
AC1024
  9
$DWGCODEPAGE
  3
ANSI_1250
  9
$EXTMAX
 10
297.0
 20
210.0
 30
0.0
  9
$EXTMIN
 10
0.0
 20
0.0
 30
0.0
  9
$LIMMIN
 10
0.0
 20
0.0
  9
$LIMMAX
 10
297.0
 20
210.0
  9
$VIEWCTR
 10
148.5
 20
105.0
  9
$VIEWSIZE
 40
210.0
  9
$CLAYER
  8
0
  9
$LTSCALE
 40
16.335
  9
$CELTYPE
  6
BYLAYER
  9
$DIMSCALE
 40
1.0
  9
$DIMASZ
 40
3.5
  9
$DIMEXO
 40
1.0
  9
$DIMDLI
 40
11.286
  9
$DIMEXE
 40
1.5
  9
$DIMCEN
 40
2.673
  9
$DIMLFAC
 40
1.0
  9
$DIMBLK
  1
_FILLED
  9
$DIMALT
 70
0
  9
$DIMALTF
 40
0.0393700787
  9
$DIMTXT
 40
2.5
  9
$DIMTOL
 70
1
  9
$DIMLIM
 70
0
  9
$DIMTFAC
 40
1.0
  9
$DIMTP
 40
0.001
  9
$DIMTM
 40
0.001
  9
$DIMGAP
 40
0.625
  9
$DIMDSEP
 70
44
  9
$AUNITS
 70
0
  9
$PDMODE
 70
3
  9
$PDSIZE
 40
8.0
  9
$HANDSEED
  5
319
  9
$TILEMODE
 70
1
  9
$MEASUREMENT
 70
1
  9
$INSUNITS
 70
4
  0
ENDSEC
  0
SECTION
  2
CLASSES
  0
CLASS
  1
ACDBDICTIONARYWDFLT
  2
AcDbDictionaryWithDefault
  3
AutoCAD 2000
 90
0
 91
1
280
0
281
0
  0
CLASS
  1
ACDBPLACEHOLDER
  2
AcDbPlaceHolder
  3
AutoCAD 2000
 90
0
 91
1
280
0
281
0
  0
CLASS
  1
LAYOUT
  2
AcDbLayout
  3
AutoCAD 2000
 90
0
 91
0
280
0
281
0
  0
CLASS
  1
TABLESTYLE
  2
AcDbTableStyle
  3
ObjectDBX Classes
 90
2047
 91
1
280
0
281
0
  0
CLASS
  1
ACAD_TABLE
  2
AcDbTable
  3
ObjectDBX Classes
 90
1025
 91
1
280
0
281
1
  0
ENDSEC
  0
SECTION
  2
TABLES
  0
TABLE
  2
VPORT
  5
8
100
AcDbSymbolTable
 70
2
  0
VPORT
  5
1F4
100
AcDbSymbolTableRecord
100
AcDbViewportTableRecord
  2
*ACTIVE
 70
0
 10
0.0
 20
0.0
 11
1.0
 21
1.0
 12
148.5
 22
105.0
 13
0.0
 23
0.0
 14
1.0
 24
1.0
 15
0.0
 25
0.0
 16
0.0
 26
0.0
 36
1.0
 17
0.0
 27
0.0
 37
0.0
 40
210.0
 41
1.4142857143
 42
50.0
 43
0.0
 44
0.0
 50
0.0
 51
0.0
 71
0
 72
100
 73
1
 74
1
 75
0
 76
0
 77
0
 78
0
  0
ENDTAB
  0
TABLE
  2
LTYPE
  5
5
100
AcDbSymbolTable
 70
6
  0
LTYPE
  5
14
100
AcDbSymbolTableRecord
100
AcDbLinetypeTableRecord
  2
BYBLOCK
 70
0
  3

 72
65
 73
0
 40
0.0
  0
LTYPE
  5
15
100
AcDbSymbolTableRecord
100
AcDbLinetypeTableRecord
  2
BYLAYER
 70
0
  3

 72
65
 73
0
 40
0.0
  0
LTYPE
  5
16
100
AcDbSymbolTableRecord
100
AcDbLinetypeTableRecord
  2
CONTINUOUS
 70
64
  3
Solid line
 72
65
 73
0
 40
0.0
  0
LTYPE
  5
1F5
100
AcDbSymbolTableRecord
100
AcDbLinetypeTableRecord
  2
CENTER
 70
64
  3
____ _ ____ _ ____ _ ____ _ ____ _ ____ _ ____
 72
65
 73
4
 40
0.6
 49
0.375
 74
0
 49
-0.075
 74
0
 49
0.075
 74
0
 49
-0.075
 74
0
  0
LTYPE
  5
1F6
100
AcDbSymbolTableRecord
100
AcDbLinetypeTableRecord
  2
HIDDEN
 70
64
  3
- - - - - - - - - - - - - - - - - - - -
 72
65
 73
2
 40
0.2
 49
0.1
 74
0
 49
-0.1
 74
0
  0
LTYPE
  5
1F7
100
AcDbSymbolTableRecord
100
AcDbLinetypeTableRecord
  2
PHANTOM
 70
64
  3
_____ _ _ _____ _ _ _____ _ _ _____
 72
65
 73
6
 40
0.8
 49
0.45
 74
0
 49
-0.05
 74
0
 49
0.1
 74
0
 49
-0.05
 74
0
 49
0.1
 74
0
 49
-0.05
 74
0
  0
LTYPE
  5
1F8
100
AcDbSymbolTableRecord
100
AcDbLinetypeTableRecord
  2
DOT
 70
64
  3
. . . . . . . . . . . . . . . . . . . .
 72
65
 73
2
 40
0.2
 49
0.1
 74
0
 49
-0.1
 74
0
  0
LTYPE
  5
1F9
100
AcDbSymbolTableRecord
100
AcDbLinetypeTableRecord
  2
DASHED
 70
64
  3
- - - - - - - - - - - - - - - - - - - -
 72
65
 73
2
 40
0.2
 49
0.1
 74
0
 49
-0.1
 74
0
  0
ENDTAB
  0
TABLE
  2
LAYER
  5
2
100
AcDbSymbolTable
 70
36
  0
LAYER
  5
10
100
AcDbSymbolTableRecord
100
AcDbLayerTableRecord
  2
0
 70
0
 62
7
  6
CONTINUOUS
370
-3
390
F
  0
LAYER
  5
1FA
100
AcDbSymbolTableRecord
100
AcDbLayerTableRecord
  2
DEFAULT_1
 70
0
 62
7
  6
CENTER
370
-3
390
F
  0
LAYER
  5
1FB
100
AcDbSymbolTableRecord
100
AcDbLayerTableRecord
  2
DEFAULT_2
 70
0
 62
8
  6
HIDDEN
370
-3
390
F
  0
LAYER
  5
1FC
100
AcDbSymbolTableRecord
100
AcDbLayerTableRecord
  2
DEFAULT_3
 70
0
 62
7
  6
PHANTOM
370
-3
390
F
  0
LAYER
  5
1FD
100
AcDbSymbolTableRecord
100
AcDbLayerTableRecord
  2
DTM_ALL
 70
0
 62
7
  6
CONTINUOUS
370
-3
390
F
  0
LAYER
  5
1FE
100
AcDbSymbolTableRecord
100
AcDbLayerTableRecord
  2
DTM_AXIS
 70
0
 62
7
  6
CONTINUOUS
370
-3
390
F
  0
LAYER
  5
1FF
100
AcDbSymbolTableRecord
100
AcDbLayerTableRecord
  2
DTM_CSYS
 70
0
 62
7
  6
CONTINUOUS
370
-3
390
F
  0
LAYER
  5
200
100
AcDbSymbolTableRecord
100
AcDbLayerTableRecord
  2
DTM_CURVE
 70
0
 62
7
  6
CONTINUOUS
370
-3
390
F
  0
LAYER
  5
201
100
AcDbSymbolTableRecord
100
AcDbLayerTableRecord
  2
DTM_MASTER
 70
0
 62
7
  6
CONTINUOUS
370
-3
390
F
  0
LAYER
  5
202
100
AcDbSymbolTableRecord
100
AcDbLayerTableRecord
  2
DTM_POINT
 70
0
 62
7
  6
CONTINUOUS
370
-3
390
F
  0
LAYER
  5
203
100
AcDbSymbolTableRecord
100
AcDbLayerTableRecord
  2
DTM_QUILT
 70
0
 62
7
  6
CONTINUOUS
370
-3
390
F
  0
LAYER
  5
204
100
AcDbSymbolTableRecord
100
AcDbLayerTableRecord
  2
GTOL
 70
0
 62
7
  6
CONTINUOUS
370
-3
390
F
  0
LAYER
  5
205
100
AcDbSymbolTableRecord
100
AcDbLayerTableRecord
  2
NOTES
 70
0
 62
7
  6
CONTINUOUS
370
-3
390
F
  0
ENDTAB
  0
TABLE
  2
STYLE
  5
3
100
AcDbSymbolTable
 70
1
  0
STYLE
  5
11
100
AcDbSymbolTableRecord
100
AcDbTextStyleTableRecord
  2
STANDARD
 70
0
 40
0.0
 41
1.0
 50
0.0
 71
0
 42
0.2
  3
cgtime.ttf
  4

  0
STYLE
  5
206
100
AcDbSymbolTableRecord
100
AcDbTextStyleTableRecord
  2
TEXTSTYLE_1
 70
0
 40
0.0
 41
0.8
 50
0.0
 71
0
 42
0.2
  3
gdt
  4

  0
STYLE
  5
207
100
AcDbSymbolTableRecord
100
AcDbTextStyleTableRecord
  2
TEXTSTYLE_2
 70
0
 40
0.0
 41
1.0
 50
0.0
 71
0
 42
0.2
  3
trium.ttf
  4

  0
STYLE
  5
208
100
AcDbSymbolTableRecord
100
AcDbTextStyleTableRecord
  2
TEXTSTYLE_3
 70
0
 40
0.0
 41
1.0
 50
0.0
 71
0
 42
0.2
  3
calibri.ttf
  4

  0
ENDTAB
  0
TABLE
  2
VIEW
  5
6
100
AcDbSymbolTable
 70
0
  0
ENDTAB
  0
TABLE
  2
UCS
  5
7
100
AcDbSymbolTable
 70
0
  0
ENDTAB
  0
TABLE
  2
APPID
  5
9
100
AcDbSymbolTable
 70
1
  0
APPID
  5
209
100
AcDbSymbolTableRecord
100
AcDbRegAppTableRecord
  2
ACAD
 70
0
  0
ENDTAB
  0
TABLE
  2
BLOCK_RECORD
  5
1
100
AcDbSymbolTable
 70
0
  0
BLOCK_RECORD
  5
20A
100
AcDbSymbolTableRecord
100
AcDbBlockTableRecord
  2
*Model_Space
  0
BLOCK_RECORD
  5
20B
100
AcDbSymbolTableRecord
100
AcDbBlockTableRecord
  2
*Paper_Space
  0
BLOCK_RECORD
  5
20C
100
AcDbSymbolTableRecord
100
AcDbBlockTableRecord
  2
_FILLED
  0
BLOCK_RECORD
  5
20D
100
AcDbSymbolTableRecord
100
AcDbBlockTableRecord
  2
*D0
  0
BLOCK_RECORD
  5
20E
100
AcDbSymbolTableRecord
100
AcDbBlockTableRecord
  2
*D1
  0
BLOCK_RECORD
  5
20F
100
AcDbSymbolTableRecord
100
AcDbBlockTableRecord
  2
*D2
  0
BLOCK_RECORD
  5
210
100
AcDbSymbolTableRecord
100
AcDbBlockTableRecord
  2
*D3
  0
BLOCK_RECORD
  5
211
100
AcDbSymbolTableRecord
100
AcDbBlockTableRecord
  2
*D4
  0
BLOCK_RECORD
  5
212
100
AcDbSymbolTableRecord
100
AcDbBlockTableRecord
  2
*D5
  0
BLOCK_RECORD
  5
213
100
AcDbSymbolTableRecord
100
AcDbBlockTableRecord
  2
*D6
  0
BLOCK_RECORD
  5
214
100
AcDbSymbolTableRecord
100
AcDbBlockTableRecord
  2
*T1
  0
ENDTAB
  0
TABLE
  2
DIMSTYLE
  5
A
100
AcDbSymbolTable
 70
1
100
AcDbDimStyleTable
 71
0
  0
DIMSTYLE
105
215
100
AcDbSymbolTableRecord
100
AcDbDimStyleTableRecord
  2
STANDARD
 70
0
  3

  4

 40
1.0
 41
3.5
 42
1.0
 43
0.38
 44
1.5
 45
0.0
 46
0.0
 47
0.001
 48
0.001
140
2.5
141
0.09
142
0.0
143
25.4
144
1.0
145
0.0
146
1.0
147
0.625
 71
1.0
 72
0.0
 73
1
 74
1
 75
0
 76
0
 77
0
 78
8
 79
2
170
0
171
2
172
0
173
0
174
0
175
0
176
0
177
0
178
0
270
2
179
3
271
3
272
3
273
2
274
2
275
0
280
0
281
0
282
0
283
1
284
8
285
0
286
0
287
3
288
0
340
11
278
44
341
20C
342
20C
343
20C
344
20C
  0
DIMSTYLE
105
216
100
AcDbSymbolTableRecord
100
AcDbDimStyleTableRecord
  2
DIMSTYLE_1
 70
0
  3

  4

 40
1.0
 41
3.5
 42
1.0
 43
0.38
 44
1.5
 45
0.0
 46
0.0
 47
0.0
 48
0.0
140
2.5
141
0.09
142
0.0
143
25.4
144
1.0
145
0.0
146
1.0
147
1.25
 71
0.0
 72
0.0
 73
1
 74
1
 75
0
 76
0
 77
0
 78
8
 79
2
170
0
171
2
172
0
173
0
174
0
175
0
176
0
177
0
178
0
270
2
179
3
271
3
272
3
273
2
274
2
275
0
280
0
281
0
282
0
283
1
284
8
285
0
286
0
287
3
288
0
340
11
278
44
341
20C
342
20C
343
20C
344
20C
  0
DIMSTYLE
105
217
100
AcDbSymbolTableRecord
100
AcDbDimStyleTableRecord
  2
DIMSTYLE_2
 70
0
  3

  4

 40
1.0
 41
3.5
 42
1.0
 43
0.38
 44
1.5
 45
0.0
 46
0.0
 47
0.0
 48
0.0
140
2.5
141
0.09
142
0.0
143
25.4
144
1.0
145
0.0
146
1.0
147
1.25
 71
0.0
 72
0.0
 73
1
 74
1
 75
0
 76
0
 77
0
 78
8
 79
2
170
0
171
2
172
0
173
0
174
0
175
0
176
0
177
0
178
0
270
2
179
3
271
1
272
1
273
2
274
2
275
0
280
0
281
0
282
0
283
1
284
8
285
0
286
0
287
3
288
0
340
11
278
44
341
20C
342
20C
343
20C
344
20C
  0
DIMSTYLE
105
218
100
AcDbSymbolTableRecord
100
AcDbDimStyleTableRecord
  2
DIMSTYLE_3
 70
0
  3

  4

 40
1.0
 41
3.5
 42
1.0
 43
0.38
 44
1.5
 45
0.0
 46
0.0
 47
0.0
 48
0.0
140
2.5
141
0.09
142
0.0
143
25.4
144
1.0
145
0.0
146
1.0
147
1.25
 71
0.0
 72
0.0
 73
1
 74
1
 75
0
 76
0
 77
0
 78
8
 79
2
170
0
171
2
172
0
173
0
174
0
175
0
176
0
177
0
178
0
270
2
179
3
271
0
272
0
273
2
274
2
275
0
280
0
281
0
282
0
283
1
284
8
285
0
286
0
287
3
288
0
340
11
278
44
341
20C
342
20C
343
20C
344
20C
  0
ENDTAB
  0
ENDSEC
  0
SECTION
  2
BLOCKS
  0
BLOCK
  5
20
100
AcDbEntity
  8
0
100
AcDbBlockBegin
  2
*Model_Space
 70
0
 10
0.0
 20
0.0
 30
0.0
  3
*Model_Space
  1

  0
ENDBLK
  5
21
100
AcDbEntity
  8
0
100
AcDbBlockEnd
  0
BLOCK
  5
1C
100
AcDbEntity
  8
0
100
AcDbBlockBegin
  2
*Paper_Space
 70
0
 10
0.0
 20
0.0
 30
0.0
  3
*Paper_Space
  1

  0
ENDBLK
  5
1D
100
AcDbEntity
  8
0
100
AcDbBlockEnd
  0
BLOCK
  5
219
100
AcDbEntity
  8
0
100
AcDbBlockBegin
  2
_FILLED
 70
64
 10
0.0
 20
0.0
  3
_FILLED
  1

  0
SOLID
  5
21A
100
AcDbEntity
  8
0
  6
BYBLOCK
 62
0
100
AcDbTrace
 10
0.0
 20
0.0
 11
-1.0
 21
0.2142857143
 12
-1.0
 22
-0.2142857143
 13
-1.0
 23
-0.2142857143
  0
ENDBLK
  5
21B
100
AcDbEntity
  8
0
  6
BYBLOCK
 62
0
100
AcDbBlockEnd
  0
BLOCK
  5
21C
100
AcDbEntity
  8
0
100
AcDbBlockBegin
 62
2
  6
CONTINUOUS
  2
*D0
 70
65
 10
0.0
 20
0.0
  3
*D0
  1

  0
TEXT
  5
21D
100
AcDbEntity
  8
0
100
AcDbText
 62
2
  6
CONTINUOUS
 10
75.0352017032
 20
188.1059357258
  7
STANDARD
 40
2.5
  1
90
 72
5
 11
78.6733339989
 21
188.1059357258
100
AcDbText
  0
TEXT
  5
21E
100
AcDbEntity
  8
0
100
AcDbText
 62
2
  6
CONTINUOUS
 10
78.6733339989
 20
188.1059357258
  7
STANDARD
 40
2.5
  1
mm
 72
5
 11
84.3445402246
 21
188.1059357258
100
AcDbText
  0
TEXT
  5
21F
100
AcDbEntity
  8
0
100
AcDbText
 62
2
  6
CONTINUOUS
 10
74.3639954775
 20
184.3559357258
  7
STANDARD
 40
2.5
  1
 3-1/2"
 72
5
 11
85.0157464503
 21
184.3559357258
100
AcDbText
  0
LINE
  5
220
100
AcDbEntity
  8
0
100
AcDbLine
 62
2
  6
CONTINUOUS
 10
34.6898709639
 20
87.7327286235
 11
34.6898709639
 21
190.8559357258
  0
LINE
  5
221
100
AcDbEntity
  8
0
100
AcDbLine
 62
2
  6
CONTINUOUS
 10
124.6898709639
 20
174.4957192784
 11
124.6898709639
 21
190.8559357258
  0
LINE
  5
222
100
AcDbEntity
  8
0
100
AcDbLine
 62
2
  6
CONTINUOUS
 10
34.6898709639
 20
189.3559357258
 11
73.7852017032
 21
189.3559357258
  0
LINE
  5
223
100
AcDbEntity
  8
0
100
AcDbLine
 62
2
  6
CONTINUOUS
 10
124.6898709639
 20
189.3559357258
 11
85.5945402246
 21
189.3559357258
  0
INSERT
  5
224
100
AcDbEntity
  8
0
100
AcDbBlockReference
 62
2
  6
CONTINUOUS
  2
_FILLED
 10
34.6898709639
 20
189.3559357258
 41
3.5
 42
3.5
 43
3.5
 50
180.0
  0
INSERT
  5
225
100
AcDbEntity
  8
0
100
AcDbBlockReference
 62
2
  6
CONTINUOUS
  2
_FILLED
 10
124.6898709639
 20
189.3559357258
 41
3.5
 42
3.5
 43
3.5
  0
ENDBLK
  5
226
100
AcDbEntity
  8
0
  6
BYBLOCK
 62
0
100
AcDbBlockEnd
  0
BLOCK
  5
227
100
AcDbEntity
  8
0
100
AcDbBlockBegin
 62
2
  6
CONTINUOUS
  2
*D1
 70
65
 10
0.0
 20
0.0
  3
*D1
  1

  0
TEXT
  5
228
100
AcDbEntity
  8
0
100
AcDbText
 62
2
  6
CONTINUOUS
 10
9.1594587609
 20
119.7457192784
  7
STANDARD
 40
2.5
  1
105
 72
5
 11
14.6166572044
 21
119.7457192784
100
AcDbText
  0
TEXT
  5
229
100
AcDbEntity
  8
0
100
AcDbText
 62
2
  6
CONTINUOUS
 10
14.6166572044
 20
119.7457192784
  7
STANDARD
 40
2.5
  1
mm
 72
5
 11
20.2878634301
 21
119.7457192784
100
AcDbText
  0
TEXT
  5
22A
100
AcDbEntity
  8
0
100
AcDbText
 62
2
  6
CONTINUOUS
 10
9.9376688776
 20
115.9957192784
  7
STANDARD
 40
2.5
  1
4-1/8"
 72
5
 11
19.5096533134
 21
115.9957192784
100
AcDbText
  0
LINE
  5
22B
100
AcDbEntity
  8
0
100
AcDbLine
 62
2
  6
CONTINUOUS
 10
106.0917947526
 20
173.4957192784
 11
13.2236610955
 21
173.4957192784
  0
LINE
  5
22C
100
AcDbEntity
  8
0
100
AcDbLine
 62
2
  6
CONTINUOUS
 10
33.6898709639
 20
68.4957192784
 11
13.2236610955
 21
68.4957192784
  0
LINE
  5
22D
100
AcDbEntity
  8
0
100
AcDbLine
 62
2
  6
CONTINUOUS
 10
14.7236610955
 20
173.4957192784
 11
14.7236610955
 21
123.4957192784
  0
LINE
  5
22E
100
AcDbEntity
  8
0
100
AcDbLine
 62
2
  6
CONTINUOUS
 10
14.7236610955
 20
68.4957192784
 11
14.7236610955
 21
114.7457192784
  0
INSERT
  5
22F
100
AcDbEntity
  8
0
100
AcDbBlockReference
 62
2
  6
CONTINUOUS
  2
_FILLED
 10
14.7236610955
 20
173.4957192784
 41
3.5
 42
3.5
 43
3.5
 50
90.0
  0
INSERT
  5
230
100
AcDbEntity
  8
0
100
AcDbBlockReference
 62
2
  6
CONTINUOUS
  2
_FILLED
 10
14.7236610955
 20
68.4957192784
 41
3.5
 42
3.5
 43
3.5
 50
270.0
  0
ENDBLK
  5
231
100
AcDbEntity
  8
0
  6
BYBLOCK
 62
0
100
AcDbBlockEnd
  0
BLOCK
  5
232
100
AcDbEntity
  8
0
100
AcDbBlockBegin
 62
2
  6
CONTINUOUS
  2
*D2
 70
65
 10
0.0
 20
0.0
  3
*D2
  1

  0
TEXT
  5
233
100
AcDbEntity
  8
0
100
AcDbText
 62
2
  6
CONTINUOUS
 10
88.629090698
 20
106.0134920244
  7
STANDARD
 40
2.5
  1
138,3
 72
5
 11
97.1213085968
 21
106.0134920244
100
AcDbText
  0
TEXT
  5
234
100
AcDbEntity
  8
0
100
AcDbText
 62
2
  6
CONTINUOUS
 10
97.1213085968
 20
106.0134920244
  7
STANDARD
 40
2.5
  1
mm
 72
5
 11
102.7925148225
 21
106.0134920244
100
AcDbText
  0
TEXT
  5
235
100
AcDbEntity
  8
0
100
AcDbText
 62
2
  6
CONTINUOUS
 10
90.9248105423
 20
102.2634920244
  7
STANDARD
 40
2.5
  1
5-3/8"
 72
5
 11
100.4967949781
 21
102.2634920244
100
AcDbText
  0
LINE
  5
236
100
AcDbEntity
  8
0
100
AcDbLine
 62
2
  6
CONTINUOUS
 10
35.4491275663
 20
67.8449279049
 11
51.8496876638
 21
53.7873049642
  0
LINE
  5
237
100
AcDbEntity
  8
0
100
AcDbLine
 62
2
  6
CONTINUOUS
 10
125.4491275663
 20
172.8449279049
 11
141.8496876638
 21
158.7873049642
  0
LINE
  5
238
100
AcDbEntity
  8
0
100
AcDbLine
 62
2
  6
CONTINUOUS
 10
50.7108027602
 20
54.7634920244
 11
90.3536599031
 21
101.0134920244
  0
LINE
  5
239
100
AcDbEntity
  8
0
100
AcDbLine
 62
2
  6
CONTINUOUS
 10
140.7108027602
 20
159.7634920244
 11
97.8536599031
 21
109.7634920244
  0
INSERT
  5
23A
100
AcDbEntity
  8
0
100
AcDbBlockReference
 62
2
  6
CONTINUOUS
  2
_FILLED
 10
50.7108027602
 20
54.7634920244
 41
3.5
 42
3.5
 43
3.5
 50
229.398705355
  0
INSERT
  5
23B
100
AcDbEntity
  8
0
100
AcDbBlockReference
 62
2
  6
CONTINUOUS
  2
_FILLED
 10
140.7108027602
 20
159.7634920244
 41
3.5
 42
3.5
 43
3.5
 50
49.398705355
  0
ENDBLK
  5
23C
100
AcDbEntity
  8
0
  6
BYBLOCK
 62
0
100
AcDbBlockEnd
  0
BLOCK
  5
23D
100
AcDbEntity
  8
0
100
AcDbBlockBegin
 62
2
  6
CONTINUOUS
  2
*D3
 70
65
 10
0.0
 20
0.0
  3
*D3
  1

  0
TEXT
  5
23E
100
AcDbEntity
  8
0
100
AcDbText
 62
2
  6
CONTINUOUS
 10
66.0352017032
 20
179.6464278043
  7
STANDARD
 40
2.5
  1
72
 72
5
 11
69.6733339989
 21
179.6464278043
100
AcDbText
  0
TEXT
  5
23F
100
AcDbEntity
  8
0
100
AcDbText
 62
2
  6
CONTINUOUS
 10
69.6733339989
 20
179.6464278043
  7
STANDARD
 40
2.5
  1
mm
 72
5
 11
75.3445402246
 21
179.6464278043
100
AcDbText
  0
TEXT
  5
240
100
AcDbEntity
  8
0
100
AcDbText
 62
2
  6
CONTINUOUS
 10
65.903878746
 20
175.8964278043
  7
STANDARD
 40
2.5
  1
2-7/8"
 72
5
 11
75.4758631818
 21
175.8964278043
100
AcDbText
  0
LINE
  5
241
100
AcDbEntity
  8
0
100
AcDbLine
 62
2
  6
CONTINUOUS
 10
34.6898709639
 20
87.7327286235
 11
34.6898709639
 21
182.3964278043
  0
LINE
  5
242
100
AcDbEntity
  8
0
100
AcDbLine
 62
2
  6
CONTINUOUS
 10
106.6898709639
 20
172.9957192784
 11
106.6898709639
 21
182.3964278043
  0
LINE
  5
243
100
AcDbEntity
  8
0
100
AcDbLine
 62
2
  6
CONTINUOUS
 10
34.6898709639
 20
180.8964278043
 11
64.7852017032
 21
180.8964278043
  0
LINE
  5
244
100
AcDbEntity
  8
0
100
AcDbLine
 62
2
  6
CONTINUOUS
 10
106.6898709639
 20
180.8964278043
 11
76.5945402246
 21
180.8964278043
  0
INSERT
  5
245
100
AcDbEntity
  8
0
100
AcDbBlockReference
 62
2
  6
CONTINUOUS
  2
_FILLED
 10
34.6898709639
 20
180.8964278043
 41
3.5
 42
3.5
 43
3.5
 50
180.0
  0
INSERT
  5
246
100
AcDbEntity
  8
0
100
AcDbBlockReference
 62
2
  6
CONTINUOUS
  2
_FILLED
 10
106.6898709639
 20
180.8964278043
 41
3.5
 42
3.5
 43
3.5
  0
ENDBLK
  5
247
100
AcDbEntity
  8
0
  6
BYBLOCK
 62
0
100
AcDbBlockEnd
  0
BLOCK
  5
248
100
AcDbEntity
  8
0
100
AcDbBlockBegin
 62
2
  6
CONTINUOUS
  2
*D4
 70
65
 10
0.0
 20
0.0
  3
*D4
  1

  0
TEXT
  5
249
100
AcDbEntity
  8
0
100
AcDbText
 62
2
  6
CONTINUOUS
 10
19.9645698133
 20
128.8642239509
  7
STANDARD
 40
2.5
  1
87
 72
5
 11
23.602702109
 21
128.8642239509
100
AcDbText
  0
TEXT
  5
24A
100
AcDbEntity
  8
0
100
AcDbText
 62
2
  6
CONTINUOUS
 10
23.602702109
 20
128.8642239509
  7
STANDARD
 40
2.5
  1
mm
 72
5
 11
29.2739083347
 21
128.8642239509
100
AcDbText
  0
TEXT
  5
24B
100
AcDbEntity
  8
0
100
AcDbText
 62
2
  6
CONTINUOUS
 10
19.8332468561
 20
125.1142239509
  7
STANDARD
 40
2.5
  1
3-3/8"
 72
5
 11
29.4052312919
 21
125.1142239509
100
AcDbText
  0
LINE
  5
24C
100
AcDbEntity
  8
0
100
AcDbLine
 62
2
  6
CONTINUOUS
 10
106.0917947526
 20
173.4957192784
 11
23.119239074
 21
173.4957192784
  0
LINE
  5
24D
100
AcDbEntity
  8
0
100
AcDbLine
 62
2
  6
CONTINUOUS
 10
33.6898709639
 20
86.7327286235
 11
23.119239074
 21
86.7327286235
  0
LINE
  5
24E
100
AcDbEntity
  8
0
100
AcDbLine
 62
2
  6
CONTINUOUS
 10
24.619239074
 20
173.4957192784
 11
24.619239074
 21
132.6142239509
  0
LINE
  5
24F
100
AcDbEntity
  8
0
100
AcDbLine
 62
2
  6
CONTINUOUS
 10
24.619239074
 20
86.7327286235
 11
24.619239074
 21
123.8642239509
  0
INSERT
  5
250
100
AcDbEntity
  8
0
100
AcDbBlockReference
 62
2
  6
CONTINUOUS
  2
_FILLED
 10
24.619239074
 20
173.4957192784
 41
3.5
 42
3.5
 43
3.5
 50
90.0
  0
INSERT
  5
251
100
AcDbEntity
  8
0
100
AcDbBlockReference
 62
2
  6
CONTINUOUS
  2
_FILLED
 10
24.619239074
 20
86.7327286235
 41
3.5
 42
3.5
 43
3.5
 50
270.0
  0
ENDBLK
  5
252
100
AcDbEntity
  8
0
  6
BYBLOCK
 62
0
100
AcDbBlockEnd
  0
BLOCK
  5
253
100
AcDbEntity
  8
0
100
AcDbBlockBegin
 62
2
  6
CONTINUOUS
  2
*D5
 70
65
 10
0.0
 20
0.0
  3
*D5
  1

  0
TEXT
  5
254
100
AcDbEntity
  8
0
100
AcDbText
 62
2
  6
CONTINUOUS
 10
14.341934882
 20
51.1954128043
  7
STANDARD
 40
2.5
  1
10,5
 72
5
 11
21.015086633
 21
51.1954128043
100
AcDbText
  0
TEXT
  5
255
100
AcDbEntity
  8
0
100
AcDbText
 62
2
  6
CONTINUOUS
 10
21.015086633
 20
51.1954128043
  7
STANDARD
 40
2.5
  1
mm
 72
5
 11
26.6862928586
 21
51.1954128043
100
AcDbText
  0
TEXT
  5
256
100
AcDbEntity
  8
0
100
AcDbText
 62
2
  6
CONTINUOUS
 10
20.1493278781
 20
47.4454128043
  7
STANDARD
 40
2.5
  1
3/8"
 72
5
 11
26.6862928586
 21
47.4454128043
100
AcDbText
  0
LINE
  5
257
100
AcDbEntity
  8
0
100
AcDbLine
 62
2
  6
CONTINUOUS
 10
45.1898709639
 20
68.4957192784
 11
45.1898709639
 21
50.9454128043
  0
LINE
  5
258
100
AcDbEntity
  8
0
100
AcDbLine
 62
2
  6
CONTINUOUS
 10
34.6898709639
 20
67.4957192784
 11
34.6898709639
 21
50.9454128043
  0
LINE
  5
259
100
AcDbEntity
  8
0
100
AcDbLine
 62
2
  6
CONTINUOUS
 10
45.1898709639
 20
52.4454128043
 11
50.1898709639
 21
52.4454128043
  0
LINE
  5
25A
100
AcDbEntity
  8
0
100
AcDbLine
 62
2
  6
CONTINUOUS
 10
34.6898709639
 20
52.4454128043
 11
27.9362928586
 21
52.4454128043
  0
INSERT
  5
25B
100
AcDbEntity
  8
0
100
AcDbBlockReference
 62
2
  6
CONTINUOUS
  2
_FILLED
 10
45.1898709639
 20
52.4454128043
 41
3.5
 42
3.5
 43
3.5
 50
180.0
  0
INSERT
  5
25C
100
AcDbEntity
  8
0
100
AcDbBlockReference
 62
2
  6
CONTINUOUS
  2
_FILLED
 10
34.6898709639
 20
52.4454128043
 41
3.5
 42
3.5
 43
3.5
  0
ENDBLK
  5
25D
100
AcDbEntity
  8
0
  6
BYBLOCK
 62
0
100
AcDbBlockEnd
  0
BLOCK
  5
25E
100
AcDbEntity
  8
0
100
AcDbBlockBegin
 62
2
  6
CONTINUOUS
  2
*D6
 70
65
 10
0.0
 20
0.0
  3
*D6
  1

  0
TEXT
  5
25F
100
AcDbEntity
  8
0
100
AcDbText
 62
2
  6
CONTINUOUS
 10
137.4823059699
 20
169.0674478716
  7
STANDARD
 40
2.5
  1
10,2
 72
5
 11
144.1554577209
 21
169.0674478716
100
AcDbText
  0
TEXT
  5
260
100
AcDbEntity
  8
0
100
AcDbText
 62
2
  6
CONTINUOUS
 10
144.1554577209
 20
169.0674478716
  7
STANDARD
 40
2.5
  1
mm
 72
5
 11
149.8266639466
 21
169.0674478716
100
AcDbText
  0
TEXT
  5
261
100
AcDbEntity
  8
0
100
AcDbText
 62
2
  6
CONTINUOUS
 10
140.386002468
 20
165.3174478716
  7
STANDARD
 40
2.5
  1
3/8"
 72
5
 11
146.9229674485
 21
165.3174478716
100
AcDbText
  0
LINE
  5
262
100
AcDbEntity
  8
0
100
AcDbLine
 62
2
  6
CONTINUOUS
 10
125.6898709639
 20
173.4957192784
 11
145.1544849582
 21
173.4957192784
  0
LINE
  5
263
100
AcDbEntity
  8
0
100
AcDbLine
 62
2
  6
CONTINUOUS
 10
124.4902046325
 20
163.2795950298
 11
145.1544849582
 21
163.2795950298
  0
LINE
  5
264
100
AcDbEntity
  8
0
100
AcDbLine
 62
2
  6
CONTINUOUS
 10
143.6544849582
 20
173.4957192784
 11
143.6544849582
 21
178.4957192784
  0
LINE
  5
265
100
AcDbEntity
  8
0
100
AcDbLine
 62
2
  6
CONTINUOUS
 10
143.6544849582
 20
163.2795950298
 11
143.6544849582
 21
158.2795950298
  0
INSERT
  5
266
100
AcDbEntity
  8
0
100
AcDbBlockReference
 62
2
  6
CONTINUOUS
  2
_FILLED
 10
143.6544849582
 20
173.4957192784
 41
3.5
 42
3.5
 43
3.5
 50
270.0
  0
INSERT
  5
267
100
AcDbEntity
  8
0
100
AcDbBlockReference
 62
2
  6
CONTINUOUS
  2
_FILLED
 10
143.6544849582
 20
163.2795950298
 41
3.5
 42
3.5
 43
3.5
 50
90.0
  0
ENDBLK
  5
268
100
AcDbEntity
  8
0
  6
BYBLOCK
 62
0
100
AcDbBlockEnd
  0
BLOCK
  5
269
100
AcDbEntity
  8
0
100
AcDbBlockBegin
  2
*T1
 70
1
 10
0.0
 20
0.0
  3
*T1
  1

  0
LINE
  5
26A
100
AcDbEntity
  8
0
100
AcDbLine
 62
7
  6
CONTINUOUS
 10
0.0
 20
0.0
 11
148.0
 21
0.0
  0
LINE
  5
26B
100
AcDbEntity
  8
0
100
AcDbLine
 62
7
  6
CONTINUOUS
 10
0.0
 20
0.0
 11
0.0
 21
-43.0
  0
LINE
  5
26C
100
AcDbEntity
  8
0
100
AcDbLine
 62
7
  6
CONTINUOUS
 10
45.0
 20
-20.0
 11
148.0
 21
-20.0
  0
LINE
  5
26D
100
AcDbEntity
  8
0
100
AcDbLine
 62
7
  6
CONTINUOUS
 10
45.0
 20
-28.0
 11
148.0
 21
-28.0
  0
LINE
  5
26E
100
AcDbEntity
  8
0
100
AcDbLine
 62
7
  6
CONTINUOUS
 10
0.0
 20
-43.0
 11
148.0
 21
-43.0
  0
LINE
  5
26F
100
AcDbEntity
  8
0
100
AcDbLine
 62
7
  6
CONTINUOUS
 10
45.0
 20
0.0
 11
45.0
 21
-43.0
  0
LINE
  5
270
100
AcDbEntity
  8
0
100
AcDbLine
 62
7
  6
CONTINUOUS
 10
143.0
 20
0.0
 11
143.0
 21
-20.0
  0
LINE
  5
271
100
AcDbEntity
  8
0
100
AcDbLine
 62
7
  6
CONTINUOUS
 10
148.0
 20
0.0
 11
148.0
 21
-43.0
  0
TEXT
  5
272
100
AcDbEntity
  8
0
100
AcDbText
 62
7
  6
CONTINUOUS
 10
8.9659749243
 20
-9.175
  7
STANDARD
 40
8.0
  1
O
 72
5
 11
17.370644185
 21
-9.175
100
AcDbText
  0
TEXT
  5
273
100
AcDbEntity
  8
0
100
AcDbText
 62
7
  6
CONTINUOUS
 10
17.370644185
 20
-9.175
  7
STANDARD
 40
5.5
  1
RAC
 72
5
 11
33.9562472979
 21
-9.175
100
AcDbText
  0
TEXT
  5
274
100
AcDbEntity
  8
0
100
AcDbText
 62
7
  6
CONTINUOUS
 10
33.9562472979
 20
-4.425
  7
TEXTSTYLE_2
 40
3.0
  1
®
 72
5
 11
36.0340250757
 21
-4.425
100
AcDbText
  0
TEXT
  5
275
100
AcDbEntity
  8
0
100
AcDbText
 62
7
  6
CONTINUOUS
 10
9.5323389537
 20
-13.825
  7
TEXTSTYLE_2
 40
3.0
  1
D  E  C  O  R
 72
5
 11
34.3878945093
 21
-13.825
100
AcDbText
  0
TEXT
  5
276
100
AcDbEntity
  8
0
100
AcDbText
 62
7
  6
CONTINUOUS
 10
34.3878945093
 20
-13.825
  7
STANDARD
 40
2.5
  1
 
 72
5
 11
35.4676610463
 21
-13.825
100
AcDbText
  0
TEXT
  5
277
100
AcDbEntity
  8
0
100
AcDbText
 62
7
  6
CONTINUOUS
 10
52.8786764706
 20
-4.6
  7
TEXTSTYLE_3
 40
2.7
  1
Part name:
 72
5
 11
71.9375
 21
-4.6
100
AcDbText
  0
TEXT
  5
278
100
AcDbEntity
  8
0
100
AcDbText
 62
7
  6
CONTINUOUS
 10
49.6908613445
 20
-11.35
  7
TEXTSTYLE_3
 40
2.7
  1
Designed by:
 72
5
 11
71.9375
 21
-11.35
100
AcDbText
  0
TEXT
  5
279
100
AcDbEntity
  8
0
100
AcDbText
 62
7
  6
CONTINUOUS
 10
49.3732142857
 20
-18.1
  7
TEXTSTYLE_3
 40
2.7
  1
Designed on:
 72
5
 11
71.9375
 21
-18.1
100
AcDbText
  0
TEXT
  5
27A
100
AcDbEntity
  8
0
100
AcDbText
 62
2
  6
CONTINUOUS
 10
74.0625
 20
-4.6
  7
TEXTSTYLE_3
 40
2.7
  1
C326
 72
5
 11
82.7977941176
 21
-4.6
100
AcDbText
  0
TEXT
  5
27B
100
AcDbEntity
  8
0
100
AcDbText
 62
2
  6
CONTINUOUS
 10
74.0625
 20
-11.35
  7
TEXTSTYLE_3
 40
2.7
  1
ORAC
 72
5
 11
83.9209033613
 21
-11.35
100
AcDbText
  0
TEXT
  5
27C
100
AcDbEntity
  8
0
100
AcDbText
 62
2
  6
CONTINUOUS
 10
74.0625
 20
-18.1
  7
TEXTSTYLE_3
 40
2.7
  1
01-Apr-2019
 72
5
 11
95.787289916
 21
-18.1
100
AcDbText
  0
TEXT
  5
27D
100
AcDbEntity
  8
0
100
AcDbText
 62
2
  6
CONTINUOUS
 10
95.787289916
 20
-18.1
  7
TEXTSTYLE_3
 40
2.7
  1
 
 72
5
 11
96.7515756303
 21
-18.1
100
AcDbText
  0
TEXT
  5
27E
100
AcDbEntity
  8
0
100
AcDbText
 62
2
  6
CONTINUOUS
 10
146.5625
 20
-16.0
  7
TEXTSTYLE_3
 40
1.5
  1
Version: 
 50
90.0
 72
5
 11
146.5625
 21
-7.5294117647
100
AcDbText
  0
TEXT
  5
27F
100
AcDbEntity
  8
0
100
AcDbText
 62
2
  6
CONTINUOUS
 10
146.5625
 20
-7.5294117647
  7
TEXTSTYLE_3
 40
1.5
  1
1.0
 50
90.0
 72
5
 11
146.5625
 21
-4.5357142857
100
AcDbText
  0
TEXT
  5
280
100
AcDbEntity
  8
0
100
AcDbText
 62
2
  6
CONTINUOUS
 10
146.5625
 20
-4.5357142857
  7
TEXTSTYLE_3
 40
1.5
  1
 
 50
90.0
 72
5
 11
146.5625
 21
-4.0
100
AcDbText
  0
TEXT
  5
281
100
AcDbEntity
  8
0
100
AcDbText
 62
7
  6
CONTINUOUS
 10
9.6586134454
 20
-22.75
  7
TEXTSTYLE_3
 40
2.5
  1
Biekorfstraat 32
 72
5
 11
35.3413865546
 21
-22.75
100
AcDbText
  0
TEXT
  5
282
100
AcDbEntity
  8
0
100
AcDbText
 62
7
  6
CONTINUOUS
 10
2.2584033613
 20
-26.5
  7
TEXTSTYLE_3
 40
2.5
  1
8400 Oostende - Belgium
 72
5
 11
42.7415966387
 21
-26.5
100
AcDbText
  0
TEXT
  5
283
100
AcDbEntity
  8
0
100
AcDbText
 62
7
  6
CONTINUOUS
 10
4.2699579832
 20
-30.25
  7
TEXTSTYLE_3
 40
2.5
  1
Tel  +32 (0)59 80 32 52
 72
5
 11
40.7300420168
 21
-30.25
100
AcDbText
  0
TEXT
  5
284
100
AcDbEntity
  8
0
100
AcDbText
 62
7
  6
CONTINUOUS
 10
5.7405462185
 20
-34.0
  7
TEXTSTYLE_3
 40
2.5
  1
www.oracdecor.com
 72
5
 11
39.2594537815
 21
-34.0
100
AcDbText
  0
TEXT
  5
285
100
AcDbEntity
  8
0
100
AcDbText
 62
7
  6
CONTINUOUS
 10
5.5777310924
 20
-37.75
  7
TEXTSTYLE_3
 40
2.5
  1
info@oracdecor.com
 72
5
 11
39.4222689076
 21
-37.75
100
AcDbText
  0
TEXT
  5
286
100
AcDbEntity
  8
0
100
AcDbText
 62
7
  6
CONTINUOUS
 10
46.0625
 20
-23.375
  7
TEXTSTYLE_3
 40
2.5
  1
Unless otherwise specified: all dimensions are in millimeters 
 72
5
 11
143.4259453782
 21
-23.375
100
AcDbText
  0
TEXT
  5
287
100
AcDbEntity
  8
0
100
AcDbText
 62
7
  6
CONTINUOUS
 10
46.0625
 20
-27.125
  7
TEXTSTYLE_3
 40
2.5
  1
and inches, scale 1:1, length 2 meters
 72
5
 11
106.1675420168
 21
-27.125
100
AcDbText
  0
TEXT
  5
288
100
AcDbEntity
  8
0
100
AcDbText
 62
7
  6
CONTINUOUS
 10
46.0625
 20
-31.81
  7
TEXTSTYLE_3
 40
1.8
  1
All information in this document is Orac's exclusive property.  It may in no case 
 72
5
 11
137.5070378151
 21
-31.81
100
AcDbText
  0
TEXT
  5
289
100
AcDbEntity
  8
0
100
AcDbText
 62
7
  6
CONTINUOUS
 10
46.0625
 20
-34.87
  7
TEXTSTYLE_3
 40
1.8
  1
be reproduced, even partly, be communicated to a third party or used for any 
 72
5
 11
136.3272058824
 21
-34.87
100
AcDbText
  0
TEXT
  5
28A
100
AcDbEntity
  8
0
100
AcDbText
 62
7
  6
CONTINUOUS
 10
46.0625
 20
-37.93
  7
TEXTSTYLE_3
 40
1.8
  1
possible purpose without ORAC's express written permission. Further legal 
 72
5
 11
132.7952731092
 21
-37.93
100
AcDbText
  0
TEXT
  5
28B
100
AcDbEntity
  8
0
100
AcDbText
 62
7
  6
CONTINUOUS
 10
46.0625
 20
-40.99
  7
TEXTSTYLE_3
 40
1.8
  1
information can be found at https://www.oracdecor.com/en/general-sales-conditions
 72
5
 11
145.349894958
 21
-40.99
100
AcDbText
  0
ENDBLK
  5
28C
100
AcDbEntity
  8
0
  6
BYBLOCK
 62
0
100
AcDbBlockEnd
  0
ENDSEC
  0
SECTION
  2
ENTITIES
  0
DIMENSION
  5
28D
100
AcDbEntity
  8
0
100
AcDbDimension
 62
2
  6
CONTINUOUS
  2
*D0
 10
124.6898709639
 20
189.3559357258
 11
79.6898709639
 21
187.4809357258
 70
160
 71
2
 72
2
 41
0.9
 42
90.0
  1
<>mm\P 3-1/2"
  3
DIMSTYLE_1
100
AcDbAlignedDimension
 13
34.6898709639
 23
86.7327286235
 14
124.6898709639
 24
173.4957192784
100
AcDbRotatedDimension
  0
DIMENSION
  5
28E
100
AcDbEntity
  8
0
100
AcDbDimension
 62
2
  6
CONTINUOUS
  2
*D1
 10
14.7236610955
 20
68.4957192784
 11
14.7236610955
 21
119.1207192784
 70
160
 71
2
 72
2
 41
0.9
 42
105.0
  1
<>mm\P4-1/8"
  3
DIMSTYLE_1
100
AcDbAlignedDimension
 13
107.0917947526
 23
173.4957192784
 14
34.6898709639
 24
68.4957192784
 50
270.0
100
AcDbRotatedDimension
  0
DIMENSION
  5
28F
100
AcDbEntity
  8
0
100
AcDbDimension
 62
2
  6
CONTINUOUS
  2
*D2
 10
140.7108027602
 20
159.7634920244
 11
95.7108027602
 21
105.3884920244
 70
160
 71
2
 72
2
 41
0.9
 42
138.2931668594
  1
<>mm\P5-3/8"
  3
DIMSTYLE_2
100
AcDbAlignedDimension
 13
34.6898709639
 23
68.4957192784
 14
124.6898709639
 24
173.4957192784
 50
49.398705355
100
AcDbRotatedDimension
  0
DIMENSION
  5
290
100
AcDbEntity
  8
0
100
AcDbDimension
 62
2
  6
CONTINUOUS
  2
*D3
 10
106.6898709639
 20
180.8964278043
 11
70.6898709639
 21
179.0214278043
 70
160
 71
2
 72
2
 41
0.9
 42
72.0
  1
<>mm\P2-7/8"
  3
DIMSTYLE_1
100
AcDbAlignedDimension
 13
34.6898709639
 23
86.7327286235
 14
106.6898709639
 24
171.9957192784
100
AcDbRotatedDimension
  0
DIMENSION
  5
291
100
AcDbEntity
  8
0
100
AcDbDimension
 62
2
  6
CONTINUOUS
  2
*D4
 10
24.619239074
 20
86.7327286235
 11
24.619239074
 21
128.2392239509
 70
160
 71
2
 72
2
 41
0.9
 42
86.7629906549
  1
<>mm\P3-3/8"
  3
DIMSTYLE_3
100
AcDbAlignedDimension
 13
107.0917947526
 23
173.4957192784
 14
34.6898709639
 24
86.7327286235
 50
270.0
100
AcDbRotatedDimension
  0
DIMENSION
  5
292
100
AcDbEntity
  8
0
100
AcDbDimension
 62
2
  6
CONTINUOUS
  2
*D5
 10
34.6898709639
 20
52.4454128043
 11
20.5141138703
 21
50.5704128043
 70
160
 71
3
 72
2
 41
0.9
 42
10.5
  1
<>mm\P3/8"
  3
DIMSTYLE_1
100
AcDbAlignedDimension
 13
45.1898709639
 23
69.4957192784
 14
34.6898709639
 24
68.4957192784
 50
180.0
100
AcDbRotatedDimension
  0
DIMENSION
  5
293
100
AcDbEntity
  8
0
100
AcDbDimension
 62
2
  6
CONTINUOUS
  2
*D6
 10
143.6544849582
 20
163.2795950298
 11
143.6544849582
 21
168.4424478716
 70
160
 71
2
 72
2
 41
0.9
 42
10.2161242486
  1
<>mm\P3/8"
  3
DIMSTYLE_2
100
AcDbAlignedDimension
 13
124.6898709639
 23
173.4957192784
 14
123.4902046325
 24
163.2795950298
 50
270.0
100
AcDbRotatedDimension
  0
ACAD_TABLE
  5
294
100
AcDbEntity
  8
0
 62
2
  6
CONTINUOUS
100
AcDbBlockReference
  2
*T1
 10
144.0
 20
48.0
 30
0.0
100
AcDbTable
342
       317
343
214
 11
1.0
 21
0.0
 31
0.0
 90
22
 91
4
 92
4
 93
0
 94
0
 95
0
 96
0
141
15.0
141
5.0
141
8.0
141
15.0
142
45.0
142
28.0
142
70.0
142
5.0
171
1
172
0
173
0
174
0
175
1
176
1
 91
41
178
0
145
0.0
301
CELL_VALUE
 90
4
  1
\A1;O\H5.5;RAC\fCG Triumvirate;\H3.0;\S®^ ;\PD  E  C  O  R\fCG Times;\H2.5; 
304
ACVALUE_END
170
5
140
8.0
 64
7
171
1
172
0
173
0
174
0
175
1
176
2
 91
57
178
0
145
0.0
  7
TEXTSTYLE_3
301
CELL_VALUE
 90
4
  1
Part name:\PDesigned by:\PDesigned on:
304
ACVALUE_END
170
6
140
2.7
 64
7
171
1
172
0
173
0
174
0
175
1
176
2
 91
49
178
0
145
0.0
  7
TEXTSTYLE_3
301
CELL_VALUE
 90
4
  1
C326\PORAC\P01-Apr-2019 
304
ACVALUE_END
170
4
140
2.7
171
1
172
0
173
0
174
0
175
1
176
2
 91
49
178
0
145
0.0
  7
TEXTSTYLE_3
301
CELL_VALUE
 90
4
  1
Version: 1.0 
304
ACVALUE_END
170
6
140
1.5
171
1
172
0
173
0
174
0
175
1
176
3
 91
57
178
0
145
0.0
  7
TEXTSTYLE_3
301
CELL_VALUE
 90
4
  1
Biekorfstraat 32\P8400 Oostende - Belgium\PTel  +32 (0)59 80 32 52\Pwww.oracdecor.com\Pinfo@oracdecor.com
304
ACVALUE_END
170
5
140
2.5
 64
7
171
1
172
0
173
1
174
0
175
1
176
1
 91
1
178
0
145
0.0
170
1
171
1
172
0
173
1
174
0
175
1
176
1
 91
1
178
0
145
0.0
170
1
171
1
172
0
173
1
174
0
175
1
176
1
 91
1
178
0
145
0.0
170
1
171
1
172
0
173
1
174
0
175
1
176
1
 91
1
178
0
145
0.0
170
1
171
1
172
0
173
0
174
0
175
3
176
1
 91
57
178
0
145
0.0
  7
TEXTSTYLE_3
301
CELL_VALUE
 90
4
  1
Unless otherwise specified: all dimensions are in millimeters \Pand inches, scale 1:1, length 2 meters
304
ACVALUE_END
170
4
140
2.5
 64
7
171
1
172
0
173
1
174
0
175
1
176
1
 91
1
178
0
145
0.0
170
1
171
1
172
0
173
1
174
0
175
1
176
1
 91
1
178
0
145
0.0
170
1
171
1
172
0
173
1
174
0
175
1
176
1
 91
1
178
0
145
0.0
170
1
171
1
172
0
173
0
174
0
175
3
176
1
 91
57
178
0
145
0.0
  7
TEXTSTYLE_3
301
CELL_VALUE
 90
4
  2
All information in this document is Orac's exclusive property.  It may in no case \Pbe reproduced, even partly, be communicated to a third party or used for any \Ppossible purpose without ORAC's express written permission. Further legal \Pinformation
  1
 can be found at https://www.oracdecor.com/en/general-sales-conditions
304
ACVALUE_END
170
4
140
1.8
 64
7
171
1
172
0
173
1
174
0
175
1
176
1
 91
1
178
0
145
0.0
170
1
171
1
172
0
173
1
174
0
175
1
176
1
 91
1
178
0
145
0.0
170
1
  0
LINE
  5
295
100
AcDbEntity
  8
0
100
AcDbLine
 62
5
  6
CONTINUOUS
 10
0.0
 20
0.0
 11
0.0
 21
210.0
  0
LINE
  5
296
100
AcDbEntity
  8
0
100
AcDbLine
 62
7
  6
CONTINUOUS
 10
5.0
 20
5.0
 11
5.0
 21
195.0
  0
LINE
  5
297
100
AcDbEntity
  8
0
100
AcDbLine
 62
5
  6
CONTINUOUS
 10
0.0
 20
0.0
 11
297.0
 21
0.0
  0
LINE
  5
298
100
AcDbEntity
  8
0
100
AcDbLine
 62
7
  6
CONTINUOUS
 10
5.0
 20
5.0
 11
292.0
 21
5.0
  0
LINE
  5
299
100
AcDbEntity
  8
0
100
AcDbLine
 62
4
  6
CONTINUOUS
 10
148.5
 20
195.0
 11
148.5
 21
205.0
  0
LINE
  5
29A
100
AcDbEntity
  8
0
100
AcDbLine
 62
7
  6
CONTINUOUS
 10
5.0
 20
195.0
 11
292.0
 21
195.0
  0
LINE
  5
29B
100
AcDbEntity
  8
0
100
AcDbLine
 62
5
  6
CONTINUOUS
 10
0.0
 20
210.0
 11
297.0
 21
210.0
  0
LINE
  5
29C
100
AcDbEntity
  8
0
100
AcDbLine
 62
7
  6
CONTINUOUS
 10
292.0
 20
5.0
 11
292.0
 21
195.0
  0
LINE
  5
29D
100
AcDbEntity
  8
0
100
AcDbLine
 62
5
  6
CONTINUOUS
 10
297.0
 20
0.0
 11
297.0
 21
210.0
  0
LINE
  5
29E
100
AcDbEntity
  8
0
100
AcDbLine
 62
7
  6
CONTINUOUS
 10
128.3655168388
 20
87.7393889219
 11
128.3655168388
 21
95.8089980475
  0
LINE
  5
29F
100
AcDbEntity
  8
0
100
AcDbLine
 62
7
  6
CONTINUOUS
 10
128.3655168388
 20
99.3274095758
 11
128.3655168388
 21
105.9736206821
  0
LINE
  5
2A0
100
AcDbEntity
  8
0
100
AcDbLine
 62
7
  6
CONTINUOUS
 10
207.6587231004
 20
52.8616253781
 11
198.1645102438
 21
52.8558391162
  0
LINE
  5
2A1
100
AcDbEntity
  8
0
100
AcDbLine
 62
7
  6
CONTINUOUS
 10
138.8591205225
 20
99.1049543126
 11
138.8591205225
 21
88.7456319591
  0
LINE
  5
2A2
100
AcDbEntity
  8
0
100
AcDbLine
 62
7
  6
CONTINUOUS
 10
128.3655168388
 20
87.7393889219
 11
198.1645102438
 21
52.8558391162
  0
LINE
  5
2A3
100
AcDbEntity
  8
0
100
AcDbLine
 62
7
  6
CONTINUOUS
 10
207.6587231004
 20
52.8616253781
 11
137.8597296954
 21
87.7451751838
  0
LINE
  5
2A4
100
AcDbEntity
  8
0
100
AcDbLine
 62
7
  6
CONTINUOUS
 10
217.7906534006
 20
66.6769914395
 11
209.4839623586
 21
65.2065655835
  0
LINE
  5
2A5
100
AcDbEntity
  8
0
100
AcDbLine
 62
7
  6
CONTINUOUS
 10
208.6581139275
 20
53.8620821535
 11
138.8591205225
 21
88.7456319591
  0
LINE
  5
2A6
100
AcDbEntity
  8
0
100
AcDbLine
 62
7
  6
CONTINUOUS
 10
128.3655168388
 20
99.3274095758
 11
128.7652731696
 21
99.0967482735
  0
LINE
  5
2A7
100
AcDbEntity
  8
0
100
AcDbLine
 62
7
  6
CONTINUOUS
 10
138.8591205225
 20
99.1049543126
 11
208.6581139275
 21
64.221404507
  0
LINE
  5
2A8
100
AcDbEntity
  8
0
100
AcDbLine
 62
7
  6
CONTINUOUS
 10
139.6849689536
 20
100.0901153892
 11
209.4839623586
 21
65.2065655835
  0
LINE
  5
2A9
100
AcDbEntity
  8
0
100
AcDbLine
 62
7
  6
CONTINUOUS
 10
217.7906534006
 20
66.6769914395
 11
147.9916599956
 21
101.5605412451
  0
LINE
  5
2AA
100
AcDbEntity
  8
0
100
AcDbLine
 62
7
  6
CONTINUOUS
 10
218.5606995294
 20
67.9915450908
 11
148.7617061244
 21
102.8750948965
  0
LINE
  5
2AB
100
AcDbEntity
  8
0
100
AcDbLine
 62
7
  6
CONTINUOUS
 10
173.861604738
 20
152.9528185868
 11
163.6427001105
 21
148.8159977679
  0
LINE
  5
2AC
100
AcDbEntity
  8
0
100
AcDbLine
 62
7
  6
CONTINUOUS
 10
137.8597296954
 20
87.7451751838
 11
128.3655168388
 21
87.7393889219
  0
LINE
  5
2AD
100
AcDbEntity
  8
0
100
AcDbLine
 62
7
  6
CONTINUOUS
 10
166.2713952748
 20
139.6592108605
 11
168.6039677251
 21
130.9513739646
  0
LINE
  5
2AE
100
AcDbEntity
  8
0
100
AcDbLine
 62
7
  6
CONTINUOUS
 10
175.7366420395
 20
158.0472859457
 11
175.7366420395
 21
155.735089251
  0
LINE
  5
2AF
100
AcDbEntity
  8
0
100
AcDbLine
 62
7
  6
CONTINUOUS
 10
183.706390718
 20
147.6642024551
 11
166.862354292
 21
140.845393287
  0
LINE
  5
2B0
100
AcDbEntity
  8
0
100
AcDbLine
 62
7
  6
CONTINUOUS
 10
184.3314031518
 20
158.0525240355
 11
184.3314031518
 21
148.5916260098
  0
LINE
  5
2B1
100
AcDbEntity
  8
0
100
AcDbLine
 62
7
  6
CONTINUOUS
 10
200.3216563841
 20
191.267479145
 11
200.3216563841
 21
186.5934192385
  0
LINE
  5
2B2
100
AcDbEntity
  8
0
100
AcDbLine
 62
7
  6
CONTINUOUS
 10
147.9916599956
 20
101.5605412451
 11
139.6849689536
 21
100.0901153892
  0
LINE
  5
2B3
100
AcDbEntity
  8
0
100
AcDbLine
 62
7
  6
CONTINUOUS
 10
237.6323094025
 20
94.8278821254
 11
167.8333159975
 21
129.7114319311
  0
LINE
  5
2B4
100
AcDbEntity
  8
0
100
AcDbLine
 62
7
  6
CONTINUOUS
 10
238.4029611301
 20
96.0678241589
 11
168.6039677251
 21
130.9513739646
  0
LINE
  5
2B5
100
AcDbEntity
  8
0
100
AcDbLine
 62
7
  6
CONTINUOUS
 10
208.6581139275
 20
64.221404507
 11
208.6581139275
 21
53.8620821535
  0
LINE
  5
2B6
100
AcDbEntity
  8
0
100
AcDbLine
 62
7
  6
CONTINUOUS
 10
166.2713952748
 20
139.6592108605
 11
236.0703886798
 21
104.7756610548
  0
LINE
  5
2B7
100
AcDbEntity
  8
0
100
AcDbLine
 62
7
  6
CONTINUOUS
 10
166.862354292
 20
140.845393287
 11
236.661347697
 21
105.9618434814
  0
LINE
  5
2B8
100
AcDbEntity
  8
0
100
AcDbLine
 62
7
  6
CONTINUOUS
 10
137.2218779519
 20
108.2470837359
 11
129.1599659744
 21
106.2919502375
  0
LINE
  5
2B9
100
AcDbEntity
  8
0
100
AcDbLine
 62
7
  6
CONTINUOUS
 10
218.3106912705
 20
192.7782141314
 11
218.3106912705
 21
183.5433605577
  0
LINE
  5
2BA
100
AcDbEntity
  8
0
100
AcDbLine
 62
7
  6
CONTINUOUS
 10
253.505384123
 20
112.7806526495
 11
183.706390718
 21
147.6642024551
  0
LINE
  5
2BB
100
AcDbEntity
  8
0
100
AcDbLine
 62
7
  6
CONTINUOUS
 10
254.1303965568
 20
113.7080762042
 11
184.3314031518
 21
148.5916260098
  0
LINE
  5
2BC
100
AcDbEntity
  8
0
100
AcDbLine
 62
7
  6
CONTINUOUS
 10
184.3314031518
 20
158.0525240355
 11
254.1303965568
 21
123.1689742298
  0
LINE
  5
2BD
100
AcDbEntity
  8
0
100
AcDbLine
 62
7
  6
CONTINUOUS
 10
253.505384123
 20
112.7806526495
 11
236.661347697
 21
105.9618434814
  0
LINE
  5
2BE
100
AcDbEntity
  8
0
100
AcDbLine
 62
7
  6
CONTINUOUS
 10
186.8241206431
 20
159.9917186189
 11
256.6231140481
 21
125.1081688133
  0
LINE
  5
2BF
100
AcDbEntity
  8
0
100
AcDbLine
 62
7
  6
CONTINUOUS
 10
236.0703886798
 20
104.7756610548
 11
238.4029611301
 21
96.0678241589
  0
LINE
  5
2C0
100
AcDbEntity
  8
0
100
AcDbLine
 62
7
  6
CONTINUOUS
 10
254.1303965568
 20
123.1689742298
 11
254.1303965568
 21
113.7080762042
  0
LINE
  5
2C1
100
AcDbEntity
  8
0
100
AcDbLine
 62
7
  6
CONTINUOUS
 10
286.9107491483
 20
147.6793653493
 11
217.1117557433
 21
182.562915155
  0
LINE
  5
2C2
100
AcDbEntity
  8
0
100
AcDbLine
 62
7
  6
CONTINUOUS
 10
288.1096846755
 20
148.659810752
 11
218.3106912705
 21
183.5433605577
  0
LINE
  5
2C3
100
AcDbEntity
  8
0
100
AcDbLine
 62
7
  6
CONTINUOUS
 10
206.7837428599
 20
192.7711890158
 11
209.3686586579
 21
191.4793216896
  0
LINE
  5
2C4
100
AcDbEntity
  8
0
100
AcDbLine
 62
7
  6
CONTINUOUS
 10
208.6166002484
 20
191.7136215939
 11
206.7837428599
 21
192.7711890158
  0
LINE
  5
2C5
100
AcDbEntity
  8
0
100
AcDbLine
 62
7
  6
CONTINUOUS
 10
200.7233353317
 20
192.7674954916
 11
206.7837428599
 21
192.7711890158
  0
LINE
  5
2C6
100
AcDbEntity
  8
0
100
AcDbLine
 62
7
  6
CONTINUOUS
 10
211.2441602807
 20
192.7739074237
 11
218.3106912705
 21
192.7782141314
  0
LINE
  5
2C7
100
AcDbEntity
  8
0
100
AcDbLine
 62
7
  6
CONTINUOUS
 10
218.3106912705
 20
192.7782141314
 11
288.1096846755
 21
157.8946643257
  0
LINE
  5
2C8
100
AcDbEntity
  8
0
100
AcDbLine
 62
7
  6
CONTINUOUS
 10
288.1096846755
 20
157.8946643257
 11
288.1096846755
 21
148.659810752
  0
LINE
  5
2C9
100
AcDbEntity
  8
0
100
AcDbLine
 62
7
  6
CONTINUOUS
 10
34.6898709639
 20
80.0855051129
 11
35.0898709639
 21
79.8545650052
  0
LINE
  5
2CA
100
AcDbEntity
  8
0
100
AcDbLine
 62
7
  6
CONTINUOUS
 10
44.1898709639
 20
68.4957192784
 11
34.6898709639
 21
68.4957192784
  0
LINE
  5
2CB
100
AcDbEntity
  8
0
100
AcDbLine
 62
7
  6
CONTINUOUS
 10
34.6898709639
 20
68.4957192784
 11
34.6898709639
 21
76.5665576318
  0
LINE
  5
2CC
100
AcDbEntity
  8
0
100
AcDbLine
 62
7
  6
CONTINUOUS
 10
34.6898709639
 20
80.0855051129
 11
34.6898709639
 21
86.7327286235
  0
LINE
  5
2CD
100
AcDbEntity
  8
0
100
AcDbLine
 62
7
  6
CONTINUOUS
 10
45.1898709639
 20
79.8566196472
 11
45.1898709639
 21
69.4957192784
  0
LINE
  5
2CE
100
AcDbEntity
  8
0
100
AcDbLine
 62
7
  6
CONTINUOUS
 10
54.3279771245
 20
82.3070139471
 11
46.0162227862
 21
80.8414274002
  0
LINE
  5
2CF
100
AcDbEntity
  8
0
100
AcDbLine
 62
7
  6
CONTINUOUS
 10
43.5516304215
 20
89.001139645
 11
35.4848043515
 21
87.0506224175
  0
LINE
  5
2D0
100
AcDbEntity
  8
0
100
AcDbLine
 62
7
  6
CONTINUOUS
 10
80.2136907442
 20
133.6913508965
 11
69.9885572416
 21
129.5601287988
  0
LINE
  5
2D1
100
AcDbEntity
  8
0
100
AcDbLine
 62
7
  6
CONTINUOUS
 10
72.6188547121
 20
120.4003447499
 11
74.9528489686
 21
111.6897596
  0
LINE
  5
2D2
100
AcDbEntity
  8
0
100
AcDbLine
 62
7
  6
CONTINUOUS
 10
90.0644775573
 20
128.3959283271
 11
73.2101739449
 21
121.5863476495
  0
LINE
  5
2D3
100
AcDbEntity
  8
0
100
AcDbLine
 62
7
  6
CONTINUOUS
 10
82.0898709639
 20
138.7854513674
 11
82.0898709639
 21
136.4729024602
  0
LINE
  5
2D4
100
AcDbEntity
  8
0
100
AcDbLine
 62
7
  6
CONTINUOUS
 10
90.6898709639
 20
138.7854513674
 11
90.6898709639
 21
129.3231121817
  0
LINE
  5
2D5
100
AcDbEntity
  8
0
100
AcDbLine
 62
7
  6
CONTINUOUS
 10
106.6898709639
 20
171.9957192784
 11
106.6898709639
 21
167.3209473815
  0
LINE
  5
2D6
100
AcDbEntity
  8
0
100
AcDbLine
 62
7
  6
CONTINUOUS
 10
124.6898709639
 20
173.4957192784
 11
124.6898709639
 21
164.2594589776
  0
LINE
  5
2D7
100
AcDbEntity
  8
0
100
AcDbLine
 62
7
  6
CONTINUOUS
 10
107.0917947526
 20
173.4957192784
 11
113.1558963677
 21
173.4957192784
  0
LINE
  5
2D8
100
AcDbEntity
  8
0
100
AcDbLine
 62
7
  6
CONTINUOUS
 10
117.6190326105
 20
173.4957192784
 11
124.6898709639
 21
173.4957192784
  0
LINE
  5
2D9
100
AcDbEntity
  8
0
100
AcDbLine
 62
7
  6
CONTINUOUS
 10
114.9898709639
 20
172.4368735516
 11
113.1558963677
 21
173.4957192784
  0
ARC
  5
2DA
100
AcDbEntity
  8
0
100
AcDbCircle
 62
7
  6
CONTINUOUS
 10
192.7967196276
 20
183.3803613636
 40
15.5394879292
100
AcDbArc
 50
255.6602847747
 51
263.5276712895
  0
ARC
  5
2DB
100
AcDbEntity
  8
0
100
AcDbCircle
 62
7
  6
CONTINUOUS
 10
186.3387272707
 20
158.0501569354
 40
10.6016061272
100
AcDbArc
 50
75.7508623359
 51
180.0155153996
  0
ARC
  5
2DC
100
AcDbEntity
  8
0
100
AcDbCircle
 62
7
  6
CONTINUOUS
 10
167.2481877199
 20
139.9128412108
 40
9.6055548305
100
AcDbArc
 50
112.0463397456
 51
193.0799616825
  0
ARC
  5
2DD
100
AcDbEntity
  8
0
100
AcDbCircle
 62
7
  6
CONTINUOUS
 10
197.3195922381
 20
186.5935265384
 40
3.0020641479
100
AcDbArc
 50
319.6650098451
 51
359.9979521315
  0
ARC
  5
2DE
100
AcDbEntity
  8
0
100
AcDbCircle
 62
7
  6
CONTINUOUS
 10
203.3236454719
 20
191.2673869401
 40
3.0019890892
100
AcDbArc
 50
150.0195240779
 51
179.9982401829
  0
ARC
  5
2DF
100
AcDbEntity
  8
0
100
AcDbCircle
 62
7
  6
CONTINUOUS
 10
154.9679360546
 20
137.0597116402
 40
3.0018222555
100
AcDbArc
 50
299.6630971128
 51
13.0790790883
  0
ARC
  5
2E0
100
AcDbEntity
  8
0
100
AcDbCircle
 62
7
  6
CONTINUOUS
 10
172.7348431977
 20
155.7351004124
 40
3.0017937175
100
AcDbArc
 50
292.0468399979
 51
359.9997869595
  0
ARC
  5
2E1
100
AcDbEntity
  8
0
100
AcDbCircle
 62
7
  6
CONTINUOUS
 10
136.5139001554
 20
111.1638421995
 40
3.0014756508
100
AcDbArc
 50
283.6434103245
 51
353.1770283289
  0
ARC
  5
2E2
100
AcDbEntity
  8
0
100
AcDbCircle
 62
7
  6
CONTINUOUS
 10
191.3796401992
 20
170.9217019147
 40
3.0006078062
100
AcDbArc
 50
263.597669726
 51
352.2919619284
  0
ARC
  5
2E3
100
AcDbEntity
  8
0
100
AcDbCircle
 62
7
  6
CONTINUOUS
 10
129.8670061299
 20
103.3768925806
 40
2.999577791
100
AcDbArc
 50
103.6336686809
 51
120.0375114608
  0
ARC
  5
2E4
100
AcDbEntity
  8
0
100
AcDbCircle
 62
7
  6
CONTINUOUS
 10
256.1307899136
 20
123.1695160486
 40
2.0003025746
100
AcDbArc
 50
75.750859165
 51
180.0155189116
  0
ARC
  5
2E5
100
AcDbEntity
  8
0
100
AcDbCircle
 62
7
  6
CONTINUOUS
 10
186.3317965086
 20
158.0530658542
 40
2.0003025746
100
AcDbArc
 50
75.750859165
 51
180.0155189116
  0
ARC
  5
2E6
100
AcDbEntity
  8
0
100
AcDbCircle
 62
7
  6
CONTINUOUS
 10
127.8644312329
 20
97.5382606096
 40
1.8002922095
100
AcDbArc
 50
286.1599167446
 51
59.9710938343
  0
ARC
  5
2E7
100
AcDbEntity
  8
0
100
AcDbCircle
 62
7
  6
CONTINUOUS
 10
209.5148000469
 20
193.2703794002
 40
1.7972917808
100
AcDbArc
 50
240.0164195716
 51
343.9071366634
  0
ARC
  5
2E8
100
AcDbEntity
  8
0
100
AcDbCircle
 62
7
  6
CONTINUOUS
 10
253.1297969639
 20
113.7080799105
 40
1.0005979058
100
AcDbArc
 50
292.0468391889
 51
359.9997877685
  0
ARC
  5
2E9
100
AcDbEntity
  8
0
100
AcDbCircle
 62
7
  6
CONTINUOUS
 10
183.3308035589
 20
148.5916297162
 40
1.0005979058
100
AcDbArc
 50
292.0468391889
 51
359.9997877685
  0
ARC
  5
2EA
100
AcDbEntity
  8
0
100
AcDbCircle
 62
7
  6
CONTINUOUS
 10
237.0369145476
 20
105.0344353131
 40
1.000570748
100
AcDbArc
 50
112.0461716866
 51
194.9886296389
  0
ARC
  5
2EB
100
AcDbEntity
  8
0
100
AcDbCircle
 62
7
  6
CONTINUOUS
 10
167.2379211426
 20
139.9179851187
 40
1.000570748
100
AcDbArc
 50
112.0461716866
 51
194.9886296389
  0
ARC
  5
2EC
100
AcDbEntity
  8
0
100
AcDbCircle
 62
7
  6
CONTINUOUS
 10
237.4365170606
 20
95.8090222727
 40
1.0004924019
100
AcDbArc
 50
281.2854660538
 51
14.9913694996
  0
ARC
  5
2ED
100
AcDbEntity
  8
0
100
AcDbCircle
 62
7
  6
CONTINUOUS
 10
167.6375236557
 20
130.6925720783
 40
1.0004924018
100
AcDbArc
 50
281.285466048
 51
14.9913695054
  0
ARC
  5
2EE
100
AcDbEntity
  8
0
100
AcDbCircle
 62
7
  6
CONTINUOUS
 10
209.6586048517
 20
64.2214522785
 40
1.000485253
100
AcDbArc
 50
100.0530394118
 51
180.0027357661
  0
ARC
  5
2EF
100
AcDbEntity
  8
0
100
AcDbCircle
 62
7
  6
CONTINUOUS
 10
139.8596114467
 20
99.1050020842
 40
1.000485253
100
AcDbArc
 50
100.0530394118
 51
180.0027357662
  0
ARC
  5
2F0
100
AcDbEntity
  8
0
100
AcDbCircle
 62
7
  6
CONTINUOUS
 10
217.616022038
 20
67.6620985
 40
1.0004729092
100
AcDbArc
 50
280.0524741937
 51
19.225693932
  0
ARC
  5
2F1
100
AcDbEntity
  8
0
100
AcDbCircle
 62
7
  6
CONTINUOUS
 10
147.8170286329
 20
102.5456483056
 40
1.0004729092
100
AcDbArc
 50
280.0524741941
 51
19.2256939317
  0
ARC
  5
2F2
100
AcDbEntity
  8
0
100
AcDbCircle
 62
7
  6
CONTINUOUS
 10
207.6577456821
 20
53.861961476
 40
1.0003550956
100
AcDbArc
 50
270.0559831127
 51
0.0069117613
  0
ARC
  5
2F3
100
AcDbEntity
  8
0
100
AcDbCircle
 62
7
  6
CONTINUOUS
 10
137.8587522771
 20
88.7455112817
 40
1.0003550956
100
AcDbArc
 50
270.0559831127
 51
0.0069117613
  0
ARC
  5
2F4
100
AcDbEntity
  8
0
100
AcDbCircle
 62
7
  6
CONTINUOUS
 10
287.1094771882
 20
148.6595746852
 40
1.0001810526
100
AcDbArc
 50
258.5391726209
 51
0.0135228277
  0
ARC
  5
2F5
100
AcDbEntity
  8
0
100
AcDbCircle
 62
7
  6
CONTINUOUS
 10
217.3104837832
 20
183.5431244908
 40
1.0001810526
100
AcDbArc
 50
258.5391726209
 51
0.0135228277
  0
ARC
  5
2F6
100
AcDbEntity
  8
0
100
AcDbCircle
 62
7
  6
CONTINUOUS
 10
99.1755915879
 20
164.1599238111
 40
15.5902378446
100
AcDbArc
 50
255.6412384815
 51
263.4884963861
  0
ARC
  5
2F7
100
AcDbEntity
  8
0
100
AcDbCircle
 62
7
  6
CONTINUOUS
 10
92.6898709639
 20
138.7854513674
 40
10.6
100
AcDbArc
 50
75.6929374406
 51
180.0
  0
ARC
  5
2F8
100
AcDbEntity
  8
0
100
AcDbCircle
 62
7
  6
CONTINUOUS
 10
73.5847805384
 20
120.659163795
 40
9.6
100
AcDbArc
 50
112.0
 51
193.0899115989
  0
ARC
  5
2F9
100
AcDbEntity
  8
0
100
AcDbCircle
 62
7
  6
CONTINUOUS
 10
36.1898709639
 20
84.1346524121
 40
3.0
100
AcDbArc
 50
103.5929316358
 51
120.0
  0
ARC
  5
2FA
100
AcDbEntity
  8
0
100
AcDbCircle
 62
7
  6
CONTINUOUS
 10
109.6898709639
 20
171.9957192784
 40
3.0
100
AcDbArc
 50
150.0
 51
180.0
  0
ARC
  5
2FB
100
AcDbEntity
  8
0
100
AcDbCircle
 62
7
  6
CONTINUOUS
 10
103.6898709639
 20
167.3209473815
 40
3.0
100
AcDbArc
 50
319.6377023805
 51
360.0
  0
ARC
  5
2FC
100
AcDbEntity
  8
0
100
AcDbCircle
 62
7
  6
CONTINUOUS
 10
42.846563809
 20
91.9171096504
 40
3.0
100
AcDbArc
 50
283.5929316358
 51
353.1696478308
  0
ARC
  5
2FD
100
AcDbEntity
  8
0
100
AcDbCircle
 62
7
  6
CONTINUOUS
 10
61.3121807024
 20
117.8055181851
 40
3.0
100
AcDbArc
 50
299.6220333844
 51
13.0899115989
  0
ARC
  5
2FE
100
AcDbEntity
  8
0
100
AcDbCircle
 62
7
  6
CONTINUOUS
 10
79.0898709639
 20
136.4729024602
 40
3.0
100
AcDbArc
 50
292.0
 51
360.0
  0
ARC
  5
2FF
100
AcDbEntity
  8
0
100
AcDbCircle
 62
7
  6
CONTINUOUS
 10
97.7450268014
 20
151.6512222566
 40
3.0
100
AcDbArc
 50
263.5422756738
 51
352.2746945512
  0
ARC
  5
300
100
AcDbEntity
  8
0
100
AcDbCircle
 62
7
  6
CONTINUOUS
 10
92.6898709639
 20
138.7854513674
 40
2.0
100
AcDbArc
 50
75.6929374406
 51
180.0
  0
ARC
  5
301
100
AcDbEntity
  8
0
100
AcDbCircle
 62
7
  6
CONTINUOUS
 10
34.1898709639
 20
78.2957192784
 40
1.8
100
AcDbArc
 50
286.1276202132
 51
60.0
  0
ARC
  5
302
100
AcDbEntity
  8
0
100
AcDbCircle
 62
7
  6
CONTINUOUS
 10
115.8898709639
 20
173.9957192784
 40
1.8
100
AcDbArc
 50
240.0
 51
343.8723797868
  0
ARC
  5
303
100
AcDbEntity
  8
0
100
AcDbCircle
 62
7
  6
CONTINUOUS
 10
44.1898709639
 20
69.4957192784
 40
1.0
100
AcDbArc
 50
270.0
 51
360.0
  0
ARC
  5
304
100
AcDbEntity
  8
0
100
AcDbCircle
 62
7
  6
CONTINUOUS
 10
54.1543289468
 20
83.2918217001
 40
1.0
100
AcDbArc
 50
280.0
 51
19.2370203149
  0
ARC
  5
305
100
AcDbEntity
  8
0
100
AcDbCircle
 62
7
  6
CONTINUOUS
 10
73.9869231423
 20
111.4309405549
 40
1.0
100
AcDbArc
 50
281.2332946318
 51
15.0
  0
ARC
  5
306
100
AcDbEntity
  8
0
100
AcDbCircle
 62
7
  6
CONTINUOUS
 10
89.6898709639
 20
129.3231121817
 40
1.0
100
AcDbArc
 50
292.0
 51
360.0
  0
ARC
  5
307
100
AcDbEntity
  8
0
100
AcDbCircle
 62
7
  6
CONTINUOUS
 10
123.6898709639
 20
164.2594589776
 40
1.0
100
AcDbArc
 50
258.4825523124
 51
360.0
  0
ARC
  5
308
100
AcDbEntity
  8
0
100
AcDbCircle
 62
7
  6
CONTINUOUS
 10
73.5847805384
 20
120.659163795
 40
1.0
100
AcDbArc
 50
112.0
 51
195.0
  0
ARC
  5
309
100
AcDbEntity
  8
0
100
AcDbCircle
 62
7
  6
CONTINUOUS
 10
46.1898709639
 20
79.8566196472
 40
1.0
100
AcDbArc
 50
100.0
 51
180.0
  0
SPLINE
  5
30A
100
AcDbEntity
  8
0
100
AcDbSpline
 62
7
  6
CONTINUOUS
 70
0
 71
3
 72
38
 73
34
 74
0
 42
0.0000001
 43
0.0000001
 44
0.0000000001
 40
0.0
 40
0.0
 40
0.0
 40
0.0
 40
0.0353540189
 40
0.068047425
 40
0.0986882123
 40
0.1279376802
 40
0.156482449
 40
0.1849937882
 40
0.2140466132
 40
0.2438242057
 40
0.2743388761
 40
0.3056227408
 40
0.337743126
 40
0.3708144352
 40
0.3877652412
 40
0.4050184252
 40
0.42256114
 40
0.4403427156
 40
0.4763156497
 40
0.5122175043
 40
0.5472798594
 40
0.5808850323
 40
0.6128404877
 40
0.6433734307
 40
0.7008411871
 40
0.7544824133
 40
0.7805896143
 40
0.8070434141
 40
0.8632593631
 40
0.8939888894
 40
0.9268713197
 40
0.9621259476
 40
1.0
 40
1.0
 40
1.0
 40
1.0
 10
286.9107491483
 20
147.6793653493
 30
0.0
 10
286.397547504
 20
147.7836751974
 30
0.0
 10
285.4003895469
 20
147.9427597059
 30
0.0
 10
283.9378625897
 20
148.0231002338
 30
0.0
 10
282.5656130243
 20
147.9370579279
 30
0.0
 10
281.2758049325
 20
147.6872000358
 30
0.0
 10
280.0608677448
 20
147.2770340995
 30
0.0
 10
278.9139310271
 20
146.7109931097
 30
0.0
 10
277.8302361314
 20
145.9986763237
 30
0.0
 10
276.8146668642
 20
145.1453913621
 30
0.0
 10
275.8822596881
 20
144.1559485644
 30
0.0
 10
275.0499258585
 20
143.0372515861
 30
0.0
 10
274.3348995212
 20
141.7961800347
 30
0.0
 10
273.8552337174
 20
140.6745528112
 30
0.0
 10
273.5461601068
 20
139.7266143145
 30
0.0
 10
273.3531809672
 20
138.9843396266
 30
0.0
 10
273.1944912056
 20
138.2216277552
 30
0.0
 10
273.0173664608
 20
137.1802866295
 30
0.0
 10
272.844741052
 20
135.8632364559
 30
0.0
 10
272.6535349361
 20
134.2908227537
 30
0.0
 10
272.4190376348
 20
132.7591843261
 30
0.0
 10
272.0805527412
 20
131.3046049006
 30
0.0
 10
271.5763479815
 20
129.9684573741
 30
0.0
 10
270.733184505
 20
128.3996629966
 30
0.0
 10
269.3849603311
 20
126.7584623834
 30
0.0
 10
267.7045722959
 20
125.5680735984
 30
0.0
 10
266.2556443725
 20
124.9443324248
 30
0.0
 10
264.7009855559
 20
124.5053430502
 30
0.0
 10
263.0155074587
 20
124.3442094347
 30
0.0
 10
261.2408349036
 20
124.3843129588
 30
0.0
 10
259.780336258
 20
124.5072864255
 30
0.0
 10
258.2260119811
 20
124.7378651745
 30
0.0
 10
257.1668021368
 20
124.9697810485
 30
0.0
 10
256.6231140481
 20
125.1081688133
 30
0.0
  0
SPLINE
  5
30B
100
AcDbEntity
  8
0
100
AcDbSpline
 62
7
  6
CONTINUOUS
 70
0
 71
3
 72
19
 73
15
 74
0
 42
0.0000001
 43
0.0000001
 44
0.0000000001
 40
0.0
 40
0.0
 40
0.0
 40
0.0
 40
0.1207715719
 40
0.1833093284
 40
0.2468704843
 40
0.3756016951
 40
0.5043203127
 40
0.63069141
 40
0.6926948841
 40
0.7539169274
 40
0.8146311933
 40
0.8753399514
 40
0.9367961221
 40
1.0
 40
1.0
 40
1.0
 40
1.0
 10
237.6323094025
 20
94.8278821254
 30
0.0
 10
236.1813254146
 20
94.5386871884
 30
0.0
 10
234.0222433716
 20
93.8546735507
 30
0.0
 10
231.2854692946
 20
92.5629030541
 30
0.0
 10
228.5838690742
 20
90.9914811458
 30
0.0
 10
225.440424667
 20
88.596747062
 30
0.0
 10
222.2008222587
 20
85.1600317632
 30
0.0
 10
220.0675235318
 20
81.8810159349
 30
0.0
 10
218.8226154618
 20
79.0821521981
 30
0.0
 10
218.1481570148
 20
76.9262158717
 30
0.0
 10
217.7535604296
 20
74.7172350784
 30
0.0
 10
217.6653743432
 20
72.4708932883
 30
0.0
 10
217.9102944473
 20
70.2050525639
 30
0.0
 10
218.3056462712
 20
68.7226160539
 30
0.0
 10
218.5606995294
 20
67.9915450908
 30
0.0
  0
SPLINE
  5
30C
100
AcDbEntity
  8
0
100
AcDbSpline
 62
7
  6
CONTINUOUS
 70
0
 71
3
 72
17
 73
13
 74
0
 42
0.0000001
 43
0.0000001
 44
0.0000000001
 40
0.0
 40
0.0
 40
0.0
 40
0.0
 40
0.125252903
 40
0.2502543622
 40
0.3752448147
 40
0.5003010178
 40
0.5628240975
 40
0.6253083262
 40
0.6877789253
 40
0.7502556535
 40
0.8751656903
 40
1.0
 40
1.0
 40
1.0
 40
1.0
 10
199.6079852745
 20
184.6504242613
 30
0.0
 10
199.1936178526
 20
184.1624191619
 30
0.0
 10
198.4108508586
 20
183.148021387
 30
0.0
 10
197.3838802271
 20
181.5250563011
 30
0.0
 10
196.5118755342
 20
179.814890519
 30
0.0
 10
195.9186399965
 20
178.3289346303
 30
0.0
 10
195.5260056698
 20
177.1122270613
 30
0.0
 10
195.2735653558
 20
176.1874900661
 30
0.0
 10
195.0600015832
 20
175.2533641941
 30
0.0
 10
194.8194686962
 20
173.9988782865
 30
0.0
 10
194.5932705992
 20
172.4185719119
 30
0.0
 10
194.4389464302
 20
171.1515034481
 30
0.0
 10
194.3532220256
 20
170.5192330777
 30
0.0
  0
SPLINE
  5
30D
100
AcDbEntity
  8
0
100
AcDbSpline
 62
7
  6
CONTINUOUS
 70
0
 71
3
 72
15
 73
11
 74
0
 42
0.0000001
 43
0.0000001
 44
0.0000000001
 40
0.0
 40
0.0
 40
0.0
 40
0.0
 40
0.1210832622
 40
0.2426289771
 40
0.3648678507
 40
0.488024425
 40
0.6125208728
 40
0.7390712473
 40
0.8680007207
 40
1.0
 40
1.0
 40
1.0
 40
1.0
 10
156.4535342827
 20
134.4512784366
 30
0.0
 10
155.3969710516
 20
133.8496108847
 30
0.0
 10
153.3382201836
 20
132.5379513014
 30
0.0
 10
150.452848351
 20
130.2709549629
 30
0.0
 10
147.7868227954
 20
127.7188906586
 30
0.0
 10
145.3714226351
 20
124.8881379125
 30
0.0
 10
143.2586673368
 20
121.770982349
 30
0.0
 10
141.4991616268
 20
118.3742674145
 30
0.0
 10
140.1717863824
 20
114.7042080054
 30
0.0
 10
139.6516911539
 20
112.1233410985
 30
0.0
 10
139.4941342331
 20
110.8072588842
 30
0.0
  0
SPLINE
  5
30E
100
AcDbEntity
  8
0
100
AcDbSpline
 62
7
  6
CONTINUOUS
 70
0
 71
3
 72
38
 73
34
 74
0
 42
0.0000001
 43
0.0000001
 44
0.0000000001
 40
0.0
 40
0.0
 40
0.0
 40
0.0
 40
0.0353540189
 40
0.068047425
 40
0.0986882123
 40
0.1279376802
 40
0.156482449
 40
0.1849937882
 40
0.2140466132
 40
0.2438242057
 40
0.2743388761
 40
0.3056227408
 40
0.337743126
 40
0.3708144352
 40
0.3877652412
 40
0.4050184252
 40
0.42256114
 40
0.4403427156
 40
0.4763156497
 40
0.5122175043
 40
0.5472798594
 40
0.5808850323
 40
0.6128404877
 40
0.6433734307
 40
0.7008411871
 40
0.7544824133
 40
0.7805896143
 40
0.8070434141
 40
0.8632593631
 40
0.8939888894
 40
0.9268713197
 40
0.9621259476
 40
1.0
 40
1.0
 40
1.0
 40
1.0
 10
217.1117557433
 20
182.562915155
 30
0.0
 10
216.598554099
 20
182.667225003
 30
0.0
 10
215.6013961419
 20
182.8263095115
 30
0.0
 10
214.1388691847
 20
182.9066500394
 30
0.0
 10
212.7666196193
 20
182.8206077335
 30
0.0
 10
211.4768115275
 20
182.5707498414
 30
0.0
 10
210.2618743398
 20
182.1605839052
 30
0.0
 10
209.114937622
 20
181.5945429154
 30
0.0
 10
208.0312427264
 20
180.8822261293
 30
0.0
 10
207.0156734592
 20
180.0289411678
 30
0.0
 10
206.0832662831
 20
179.03949837
 30
0.0
 10
205.2509324535
 20
177.9208013918
 30
0.0
 10
204.5359061162
 20
176.6797298404
 30
0.0
 10
204.0562403124
 20
175.5581026169
 30
0.0
 10
203.7471667018
 20
174.6101641201
 30
0.0
 10
203.5541875622
 20
173.8678894322
 30
0.0
 10
203.3954978006
 20
173.1051775608
 30
0.0
 10
203.2183730558
 20
172.0638364352
 30
0.0
 10
203.045747647
 20
170.7467862616
 30
0.0
 10
202.8545415311
 20
169.1743725593
 30
0.0
 10
202.6200442298
 20
167.6427341318
 30
0.0
 10
202.2815593362
 20
166.1881547062
 30
0.0
 10
201.7773545765
 20
164.8520071798
 30
0.0
 10
200.9341911
 20
163.2832128023
 30
0.0
 10
199.5859669261
 20
161.642012189
 30
0.0
 10
197.9055788909
 20
160.4516234041
 30
0.0
 10
196.4566509675
 20
159.8278822304
 30
0.0
 10
194.9019921509
 20
159.3888928558
 30
0.0
 10
193.2165140537
 20
159.2277592403
 30
0.0
 10
191.4418414986
 20
159.2678627644
 30
0.0
 10
189.981342853
 20
159.3908362311
 30
0.0
 10
188.4270185761
 20
159.6214149802
 30
0.0
 10
187.3678087318
 20
159.8533308542
 30
0.0
 10
186.8241206431
 20
159.9917186189
 30
0.0
  0
SPLINE
  5
30F
100
AcDbEntity
  8
0
100
AcDbSpline
 62
7
  6
CONTINUOUS
 70
0
 71
3
 72
19
 73
15
 74
0
 42
0.0000001
 43
0.0000001
 44
0.0000000001
 40
0.0
 40
0.0
 40
0.0
 40
0.0
 40
0.1207715719
 40
0.1833093284
 40
0.2468704843
 40
0.3756016951
 40
0.5043203127
 40
0.63069141
 40
0.6926948841
 40
0.7539169274
 40
0.8146311933
 40
0.8753399514
 40
0.9367961221
 40
1.0
 40
1.0
 40
1.0
 40
1.0
 10
167.8333159975
 20
129.7114319311
 30
0.0
 10
166.3823320096
 20
129.4222369941
 30
0.0
 10
164.2232499666
 20
128.7382233564
 30
0.0
 10
161.4864758896
 20
127.4464528597
 30
0.0
 10
158.7848756692
 20
125.8750309515
 30
0.0
 10
155.641431262
 20
123.4802968677
 30
0.0
 10
152.4018288537
 20
120.0435815688
 30
0.0
 10
150.2685301268
 20
116.7645657405
 30
0.0
 10
149.0236220568
 20
113.9657020038
 30
0.0
 10
148.3491636098
 20
111.8097656774
 30
0.0
 10
147.9545670246
 20
109.600784884
 30
0.0
 10
147.8663809382
 20
107.354443094
 30
0.0
 10
148.1113010423
 20
105.0886023696
 30
0.0
 10
148.5066528662
 20
103.6061658596
 30
0.0
 10
148.7617061244
 20
102.8750948965
 30
0.0
  0
SPLINE
  5
310
100
AcDbEntity
  8
0
100
AcDbSpline
 62
7
  6
CONTINUOUS
 70
0
 71
3
 72
13
 73
9
 74
0
 42
0.0000001
 43
0.0000001
 44
0.0000000001
 40
0.0
 40
0.0
 40
0.0
 40
0.0
 40
0.1951006443
 40
0.3930887786
 40
0.5608704788
 40
0.7272044206
 40
0.9137995577
 40
1.0
 40
1.0
 40
1.0
 40
1.0
 10
123.4902046325
 20
163.2795950298
 30
0.0
 10
120.1455794732
 20
163.9611274376
 30
0.0
 10
114.8559755818
 20
163.0965210377
 30
0.0
 10
109.3113208731
 20
156.2783894717
 30
0.0
 10
109.4142173574
 20
146.3810724922
 30
0.0
 10
104.6971120998
 20
140.5009370515
 30
0.0
 10
99.2829066121
 20
139.6734576044
 30
0.0
 10
94.7407966575
 20
140.3264225695
 30
0.0
 10
93.1841078769
 20
140.7234219229
 30
0.0
  0
SPLINE
  5
311
100
AcDbEntity
  8
0
100
AcDbSpline
 62
7
  6
CONTINUOUS
 70
0
 71
3
 72
11
 73
7
 74
0
 42
0.0000001
 43
0.0000001
 44
0.0000000001
 40
0.0
 40
0.0
 40
0.0
 40
0.0
 40
0.3251808832
 40
0.660469013
 40
0.9957571427
 40
1.0
 40
1.0
 40
1.0
 40
1.0
 10
62.7950092987
 20
115.197603433
 30
0.0
 10
60.0471006656
 20
113.6351760193
 30
0.0
 10
54.8624272957
 20
109.733907963
 30
0.0
 10
48.6939183373
 20
101.9113724595
 30
0.0
 10
46.2756796709
 20
95.23630245
 30
0.0
 10
45.8307109754
 20
91.6057298884
 30
0.0
 10
45.8252717435
 20
91.560319739
 30
0.0
  0
SPLINE
  5
312
100
AcDbEntity
  8
0
100
AcDbSpline
 62
7
  6
CONTINUOUS
 70
0
 71
3
 72
10
 73
6
 74
0
 42
0.0000001
 43
0.0000001
 44
0.0000000001
 40
0.0
 40
0.0
 40
0.0
 40
0.0
 40
0.4057735395
 40
0.8046192471
 40
1.0
 40
1.0
 40
1.0
 40
1.0
 10
74.1817274947
 20
110.4500984349
 30
0.0
 10
69.5836350713
 20
109.5368745853
 30
0.0
 10
60.2818722608
 20
104.3486566995
 30
0.0
 10
53.6766194783
 20
93.136975268
 30
0.0
 10
54.2839528342
 20
85.9554809544
 30
0.0
 10
55.0984926305
 20
83.6212984646
 30
0.0
  0
SPLINE
  5
313
100
AcDbEntity
  8
0
100
AcDbSpline
 62
7
  6
CONTINUOUS
 70
0
 71
3
 72
13
 73
9
 74
0
 42
0.0000001
 43
0.0000001
 44
0.0000000001
 40
0.0
 40
0.0
 40
0.0
 40
0.0
 40
0.0713751237
 40
0.3218650581
 40
0.5811908849
 40
0.7826369518
 40
0.9425584872
 40
1.0
 40
1.0
 40
1.0
 40
1.0
 10
105.9757648401
 20
165.3780914458
 30
0.0
 10
105.7386267415
 20
165.0990833539
 30
0.0
 10
104.7035920007
 20
163.8130467655
 30
0.0
 10
103.1265041955
 20
161.2834063903
 30
0.0
 10
101.8053494714
 20
157.8730534081
 30
0.0
 10
101.1644602731
 20
154.7616593654
 30
0.0
 10
100.8996203961
 20
152.6384246312
 30
0.0
 10
100.7572177533
 20
151.5385345533
 30
0.0
 10
100.7177985802
 20
151.2479506965
 30
0.0
  0
ENDSEC
  0
SECTION
  2
OBJECTS
  0
DICTIONARY
  5
C
100
AcDbDictionary
280
0
281
1
  3
ACAD_GROUP
350
D
  3
ACAD_MLINESTYLE
350
17
  3
ACAD_LAYOUT
350
1A
  3
ACAD_PLOTSETTINGS
350
19
  3
ACAD_PLOTSTYLENAME
350
E
  3
ACAD_TABLESTYLE
350
       314
  0
DICTIONARY
  5
D
102
{ACAD_REACTORS
330
C
102
}
100
AcDbDictionary
280
0
281
1
  0
ACDBDICTIONARYWDFLT
  5
E
102
{ACAD_REACTORS
330
C
102
}
100
AcDbDictionary
281
1
  3
Normal
350
F
100
AcDbDictionaryWithDefault
340
F
  0
DICTIONARY
  5
17
102
{ACAD_REACTORS
330
C
102
}
100
AcDbDictionary
280
0
281
1
  3
Standard
350
18
  0
DICTIONARY
  5
314
330
C
100
AcDbDictionary
281
1
  3
Standard
350
       317
  3
Standard1
350
       318
  0
DICTIONARY
  5
19
102
{ACAD_REACTORS
330
C
102
}
100
AcDbDictionary
281
1
  0
DICTIONARY
  5
1A
102
{ACAD_REACTORS
330
C
102
}
100
AcDbDictionary
281
1
  3
Model
350
315
  3
Layout1
350
316
  0
ACDBPLACEHOLDER
  5
F
102
{ACAD_REACTORS
330
E
102
}
  0
MLINESTYLE
  5
18
102
{ACAD_REACTORS
330
17
102
}
100
AcDbMlineStyle
  2
STANDARD
 70
0
  3

 62
256
 51
90.0
 52
90.0
 71
2
 49
0.5
 62
256
  6
BYLAYER
 49
-0.5
 62
256
  6
BYLAYER
  0
LAYOUT
  5
315
102
{ACAD_REACTORS
330
1A
102
}
100
AcDbPlotSettings
  1

  2
none_device
  4
ISO_A4_(297.00_x_210.00_MM)
  6

 40
0.0
 41
0.0
 42
0.0
 43
0.0
 44
297.0
 45
210.0
 46
0.0
 47
0.0
 48
0.0
 49
0.0
140
0.0
141
0.0
142
1.0
143
1.0
 70
1024
 72
1
 73
0
 74
0
  7

 75
0
147
1.0
148
0.0
149
0.0
100
AcDbLayout
  1
Model
 70
0
 71
0
 10
0.0
 20
0.0
 11
297.0
 21
210.0
 12
0.0
 22
0.0
 32
0.0
 14
0.0
 24
0.0
 34
0.0
 15
0.0
 25
0.0
 35
0.0
146
0.0
 13
0.0
 23
0.0
 33
0.0
 16
1.0
 26
0.0
 36
0.0
 17
0.0
 27
1.0
 37
0.0
 76
0
330
20A
345
0
346
0
  0
LAYOUT
  5
316
102
{ACAD_REACTORS
330
1A
102
}
100
AcDbPlotSettings
  1

  2
none_device
  4
ISO_A4_(297.00_x_210.00_MM)
  6

 40
0.0
 41
0.0
 42
0.0
 43
0.0
 44
297.0
 45
210.0
 46
0.0
 47
0.0
 48
0.0
 49
0.0
140
0.0
141
0.0
142
1.0
143
1.0
 70
0
 72
1
 73
0
 74
0
  7

 75
0
147
1.0
148
0.0
149
0.0
100
AcDbLayout
  1
Layout1
 70
0
 71
1
 10
0.0
 20
0.0
 11
297.0
 21
210.0
 12
0.0
 22
0.0
 32
0.0
 14
0.0
 24
0.0
 34
0.0
 15
0.0
 25
0.0
 35
0.0
146
0.0
 13
0.0
 23
0.0
 33
0.0
 16
1.0
 26
0.0
 36
0.0
 17
0.0
 27
1.0
 37
0.0
 76
0
330
20B
345
0
346
0
  0
TABLESTYLE
  5
317
102
{ACAD_REACTORS
330
314
330
294
102
}
330
314
100
AcDbTableStyle
  3
Standard
 70
0
 71
0
 40
0.06
 41
0.06
280
1
281
1
  7
Standard
140
0.18
170
1
 62
0
 63
7
283
0
  7
Standard
140
0.18
170
1
 62
0
 63
7
283
0
  7
Standard
140
0.18
170
1
 62
0
 63
7
283
0
  0
TABLESTYLE
  5
318
102
{ACAD_REACTORS
330
314
102
}
330
314
100
AcDbTableStyle
  3
Standard1
 70
1
 71
0
 40
0.06
 41
0.06
280
1
281
1
  7
Standard
140
0.18
170
1
 62
0
 63
7
283
0
  7
Standard
140
0.18
170
1
 62
0
 63
7
283
0
  7
Standard
140
0.18
170
1
 62
0
 63
7
283
0
  0
ENDSEC
  0
EOF
