999
DXF file: O:\ORAC_PRODUCTEN\ORAC_EXTRUSIE\SX\122\sx122-prod-inches.dxf
999
Pro/ENGINEER 2016130 by Parametric Technology Corporation
  0
SECTION
  2
HEADER
  9
$ACADVER
  1
AC1024
  9
$DWGCODEPAGE
  3
ANSI_1250
  9
$EXTMAX
 10
297.0
 20
210.0
 30
0.0
  9
$EXTMIN
 10
0.0
 20
0.0
 30
0.0
  9
$LIMMIN
 10
0.0
 20
0.0
  9
$LIMMAX
 10
297.0
 20
210.0
  9
$VIEWCTR
 10
148.5
 20
105.0
  9
$VIEWSIZE
 40
210.0
  9
$CLAYER
  8
0
  9
$LTSCALE
 40
16.335
  9
$CELTYPE
  6
BYLAYER
  9
$DIMSCALE
 40
1.0
  9
$DIMASZ
 40
3.5
  9
$DIMEXO
 40
1.0
  9
$DIMDLI
 40
11.286
  9
$DIMEXE
 40
1.5
  9
$DIMCEN
 40
2.673
  9
$DIMLFAC
 40
1.0
  9
$DIMBLK
  1
_FILLED
  9
$DIMALT
 70
0
  9
$DIMALTF
 40
0.0393700787
  9
$DIMTXT
 40
2.5
  9
$DIMTOL
 70
1
  9
$DIMLIM
 70
0
  9
$DIMTFAC
 40
1.0
  9
$DIMTP
 40
0.001
  9
$DIMTM
 40
0.001
  9
$DIMGAP
 40
0.625
  9
$DIMDSEP
 70
44
  9
$AUNITS
 70
0
  9
$PDMODE
 70
3
  9
$PDSIZE
 40
8.0
  9
$HANDSEED
  5
299
  9
$TILEMODE
 70
1
  9
$MEASUREMENT
 70
1
  9
$INSUNITS
 70
4
  0
ENDSEC
  0
SECTION
  2
CLASSES
  0
CLASS
  1
ACDBDICTIONARYWDFLT
  2
AcDbDictionaryWithDefault
  3
AutoCAD 2000
 90
0
 91
1
280
0
281
0
  0
CLASS
  1
ACDBPLACEHOLDER
  2
AcDbPlaceHolder
  3
AutoCAD 2000
 90
0
 91
1
280
0
281
0
  0
CLASS
  1
LAYOUT
  2
AcDbLayout
  3
AutoCAD 2000
 90
0
 91
0
280
0
281
0
  0
CLASS
  1
TABLESTYLE
  2
AcDbTableStyle
  3
ObjectDBX Classes
 90
2047
 91
1
280
0
281
0
  0
CLASS
  1
ACAD_TABLE
  2
AcDbTable
  3
ObjectDBX Classes
 90
1025
 91
1
280
0
281
1
  0
ENDSEC
  0
SECTION
  2
TABLES
  0
TABLE
  2
VPORT
  5
8
100
AcDbSymbolTable
 70
2
  0
VPORT
  5
1F4
100
AcDbSymbolTableRecord
100
AcDbViewportTableRecord
  2
*ACTIVE
 70
0
 10
0.0
 20
0.0
 11
1.0
 21
1.0
 12
148.5
 22
105.0
 13
0.0
 23
0.0
 14
1.0
 24
1.0
 15
0.0
 25
0.0
 16
0.0
 26
0.0
 36
1.0
 17
0.0
 27
0.0
 37
0.0
 40
210.0
 41
1.4142857143
 42
50.0
 43
0.0
 44
0.0
 50
0.0
 51
0.0
 71
0
 72
100
 73
1
 74
1
 75
0
 76
0
 77
0
 78
0
  0
ENDTAB
  0
TABLE
  2
LTYPE
  5
5
100
AcDbSymbolTable
 70
6
  0
LTYPE
  5
14
100
AcDbSymbolTableRecord
100
AcDbLinetypeTableRecord
  2
BYBLOCK
 70
0
  3

 72
65
 73
0
 40
0.0
  0
LTYPE
  5
15
100
AcDbSymbolTableRecord
100
AcDbLinetypeTableRecord
  2
BYLAYER
 70
0
  3

 72
65
 73
0
 40
0.0
  0
LTYPE
  5
16
100
AcDbSymbolTableRecord
100
AcDbLinetypeTableRecord
  2
CONTINUOUS
 70
64
  3
Solid line
 72
65
 73
0
 40
0.0
  0
LTYPE
  5
1F5
100
AcDbSymbolTableRecord
100
AcDbLinetypeTableRecord
  2
CENTER
 70
64
  3
____ _ ____ _ ____ _ ____ _ ____ _ ____ _ ____
 72
65
 73
4
 40
0.6
 49
0.375
 74
0
 49
-0.075
 74
0
 49
0.075
 74
0
 49
-0.075
 74
0
  0
LTYPE
  5
1F6
100
AcDbSymbolTableRecord
100
AcDbLinetypeTableRecord
  2
HIDDEN
 70
64
  3
- - - - - - - - - - - - - - - - - - - -
 72
65
 73
2
 40
0.2
 49
0.1
 74
0
 49
-0.1
 74
0
  0
LTYPE
  5
1F7
100
AcDbSymbolTableRecord
100
AcDbLinetypeTableRecord
  2
PHANTOM
 70
64
  3
_____ _ _ _____ _ _ _____ _ _ _____
 72
65
 73
6
 40
0.8
 49
0.45
 74
0
 49
-0.05
 74
0
 49
0.1
 74
0
 49
-0.05
 74
0
 49
0.1
 74
0
 49
-0.05
 74
0
  0
LTYPE
  5
1F8
100
AcDbSymbolTableRecord
100
AcDbLinetypeTableRecord
  2
DOT
 70
64
  3
. . . . . . . . . . . . . . . . . . . .
 72
65
 73
2
 40
0.2
 49
0.1
 74
0
 49
-0.1
 74
0
  0
LTYPE
  5
1F9
100
AcDbSymbolTableRecord
100
AcDbLinetypeTableRecord
  2
DASHED
 70
64
  3
- - - - - - - - - - - - - - - - - - - -
 72
65
 73
2
 40
0.2
 49
0.1
 74
0
 49
-0.1
 74
0
  0
ENDTAB
  0
TABLE
  2
LAYER
  5
2
100
AcDbSymbolTable
 70
36
  0
LAYER
  5
10
100
AcDbSymbolTableRecord
100
AcDbLayerTableRecord
  2
0
 70
0
 62
7
  6
CONTINUOUS
370
-3
390
F
  0
LAYER
  5
1FA
100
AcDbSymbolTableRecord
100
AcDbLayerTableRecord
  2
DEFAULT_1
 70
0
 62
7
  6
CENTER
370
-3
390
F
  0
LAYER
  5
1FB
100
AcDbSymbolTableRecord
100
AcDbLayerTableRecord
  2
DEFAULT_2
 70
0
 62
8
  6
HIDDEN
370
-3
390
F
  0
LAYER
  5
1FC
100
AcDbSymbolTableRecord
100
AcDbLayerTableRecord
  2
DEFAULT_3
 70
0
 62
7
  6
PHANTOM
370
-3
390
F
  0
LAYER
  5
1FD
100
AcDbSymbolTableRecord
100
AcDbLayerTableRecord
  2
DTM_ALL
 70
0
 62
7
  6
CONTINUOUS
370
-3
390
F
  0
LAYER
  5
1FE
100
AcDbSymbolTableRecord
100
AcDbLayerTableRecord
  2
DTM_AXIS
 70
0
 62
7
  6
CONTINUOUS
370
-3
390
F
  0
LAYER
  5
1FF
100
AcDbSymbolTableRecord
100
AcDbLayerTableRecord
  2
DTM_CSYS
 70
0
 62
7
  6
CONTINUOUS
370
-3
390
F
  0
LAYER
  5
200
100
AcDbSymbolTableRecord
100
AcDbLayerTableRecord
  2
DTM_CURVE
 70
0
 62
7
  6
CONTINUOUS
370
-3
390
F
  0
LAYER
  5
201
100
AcDbSymbolTableRecord
100
AcDbLayerTableRecord
  2
DTM_MASTER
 70
0
 62
7
  6
CONTINUOUS
370
-3
390
F
  0
LAYER
  5
202
100
AcDbSymbolTableRecord
100
AcDbLayerTableRecord
  2
DTM_POINT
 70
0
 62
7
  6
CONTINUOUS
370
-3
390
F
  0
LAYER
  5
203
100
AcDbSymbolTableRecord
100
AcDbLayerTableRecord
  2
DTM_QUILT
 70
0
 62
7
  6
CONTINUOUS
370
-3
390
F
  0
LAYER
  5
204
100
AcDbSymbolTableRecord
100
AcDbLayerTableRecord
  2
GTOL
 70
0
 62
7
  6
CONTINUOUS
370
-3
390
F
  0
LAYER
  5
205
100
AcDbSymbolTableRecord
100
AcDbLayerTableRecord
  2
NOTES
 70
0
 62
7
  6
CONTINUOUS
370
-3
390
F
  0
ENDTAB
  0
TABLE
  2
STYLE
  5
3
100
AcDbSymbolTable
 70
1
  0
STYLE
  5
11
100
AcDbSymbolTableRecord
100
AcDbTextStyleTableRecord
  2
STANDARD
 70
0
 40
0.0
 41
1.0
 50
0.0
 71
0
 42
0.2
  3
cgtime.ttf
  4

  0
STYLE
  5
206
100
AcDbSymbolTableRecord
100
AcDbTextStyleTableRecord
  2
TEXTSTYLE_1
 70
0
 40
0.0
 41
0.8
 50
0.0
 71
0
 42
0.2
  3
gdt
  4

  0
STYLE
  5
207
100
AcDbSymbolTableRecord
100
AcDbTextStyleTableRecord
  2
TEXTSTYLE_2
 70
0
 40
0.0
 41
1.0
 50
0.0
 71
0
 42
0.2
  3
trium.ttf
  4

  0
STYLE
  5
208
100
AcDbSymbolTableRecord
100
AcDbTextStyleTableRecord
  2
TEXTSTYLE_3
 70
0
 40
0.0
 41
1.0
 50
0.0
 71
0
 42
0.2
  3
calibri.ttf
  4

  0
ENDTAB
  0
TABLE
  2
VIEW
  5
6
100
AcDbSymbolTable
 70
0
  0
ENDTAB
  0
TABLE
  2
UCS
  5
7
100
AcDbSymbolTable
 70
0
  0
ENDTAB
  0
TABLE
  2
APPID
  5
9
100
AcDbSymbolTable
 70
1
  0
APPID
  5
209
100
AcDbSymbolTableRecord
100
AcDbRegAppTableRecord
  2
ACAD
 70
0
  0
ENDTAB
  0
TABLE
  2
BLOCK_RECORD
  5
1
100
AcDbSymbolTable
 70
0
  0
BLOCK_RECORD
  5
20A
100
AcDbSymbolTableRecord
100
AcDbBlockTableRecord
  2
*Model_Space
  0
BLOCK_RECORD
  5
20B
100
AcDbSymbolTableRecord
100
AcDbBlockTableRecord
  2
*Paper_Space
  0
BLOCK_RECORD
  5
20C
100
AcDbSymbolTableRecord
100
AcDbBlockTableRecord
  2
_FILLED
  0
BLOCK_RECORD
  5
20D
100
AcDbSymbolTableRecord
100
AcDbBlockTableRecord
  2
*D0
  0
BLOCK_RECORD
  5
20E
100
AcDbSymbolTableRecord
100
AcDbBlockTableRecord
  2
*D1
  0
BLOCK_RECORD
  5
20F
100
AcDbSymbolTableRecord
100
AcDbBlockTableRecord
  2
*T1
  0
ENDTAB
  0
TABLE
  2
DIMSTYLE
  5
A
100
AcDbSymbolTable
 70
1
100
AcDbDimStyleTable
 71
0
  0
DIMSTYLE
105
210
100
AcDbSymbolTableRecord
100
AcDbDimStyleTableRecord
  2
STANDARD
 70
0
  3

  4

 40
1.0
 41
3.5
 42
1.0
 43
0.38
 44
1.5
 45
0.0
 46
0.0
 47
0.001
 48
0.001
140
2.5
141
0.09
142
0.0
143
25.4
144
1.0
145
0.0
146
1.0
147
0.625
 71
1.0
 72
0.0
 73
1
 74
1
 75
0
 76
0
 77
0
 78
8
170
0
171
2
172
0
173
0
174
0
175
0
176
0
177
0
178
0
270
2
271
3
272
3
273
2
274
2
275
0
280
0
281
0
282
0
283
1
284
8
285
0
286
0
287
3
288
0
340
11
278
44
341
20C
342
20C
343
20C
344
20C
  0
DIMSTYLE
105
211
100
AcDbSymbolTableRecord
100
AcDbDimStyleTableRecord
  2
DIMSTYLE_1
 70
0
  3

  4

 40
1.0
 41
3.5
 42
1.0
 43
0.38
 44
1.5
 45
0.0
 46
0.0
 47
0.0
 48
0.0
140
2.5
141
0.09
142
0.0
143
25.4
144
1.0
145
0.0
146
1.0
147
1.25
 71
0.0
 72
0.0
 73
1
 74
1
 75
0
 76
0
 77
0
 78
8
170
0
171
2
172
0
173
0
174
0
175
0
176
0
177
0
178
0
270
2
271
3
272
3
273
2
274
2
275
0
280
0
281
0
282
0
283
1
284
8
285
0
286
0
287
3
288
0
340
11
278
44
341
20C
342
20C
343
20C
344
20C
  0
DIMSTYLE
105
212
100
AcDbSymbolTableRecord
100
AcDbDimStyleTableRecord
  2
DIMSTYLE_2
 70
0
  3

  4

 40
1.0
 41
3.5
 42
1.0
 43
0.38
 44
1.5
 45
0.0
 46
0.0
 47
0.0
 48
0.0
140
2.5
141
0.09
142
0.0
143
25.4
144
1.0
145
0.0
146
1.0
147
1.25
 71
0.0
 72
0.0
 73
1
 74
1
 75
0
 76
0
 77
0
 78
8
170
0
171
2
172
0
173
0
174
0
175
0
176
0
177
0
178
0
270
2
271
0
272
0
273
2
274
2
275
0
280
0
281
0
282
0
283
1
284
8
285
0
286
0
287
3
288
0
340
11
278
44
341
20C
342
20C
343
20C
344
20C
  0
ENDTAB
  0
ENDSEC
  0
SECTION
  2
BLOCKS
  0
BLOCK
  5
20
100
AcDbEntity
  8
0
100
AcDbBlockBegin
  2
*Model_Space
 70
0
 10
0.0
 20
0.0
 30
0.0
  3
*Model_Space
  1

  0
ENDBLK
  5
21
100
AcDbEntity
  8
0
100
AcDbBlockEnd
  0
BLOCK
  5
1C
100
AcDbEntity
  8
0
100
AcDbBlockBegin
  2
*Paper_Space
 70
0
 10
0.0
 20
0.0
 30
0.0
  3
*Paper_Space
  1

  0
ENDBLK
  5
1D
100
AcDbEntity
  8
0
100
AcDbBlockEnd
  0
BLOCK
  5
213
100
AcDbEntity
  8
0
100
AcDbBlockBegin
  2
_FILLED
 70
64
 10
0.0
 20
0.0
  3
_FILLED
  1

  0
SOLID
  5
214
100
AcDbEntity
  8
0
  6
BYBLOCK
 62
0
100
AcDbTrace
 10
0.0
 20
0.0
 11
-1.0
 21
0.2142857143
 12
-1.0
 22
-0.2142857143
 13
-1.0
 23
-0.2142857143
  0
ENDBLK
  5
215
100
AcDbEntity
  8
0
  6
BYBLOCK
 62
0
100
AcDbBlockEnd
  0
BLOCK
  5
216
100
AcDbEntity
  8
0
100
AcDbBlockBegin
 62
2
  6
CONTINUOUS
  2
*D0
 70
65
 10
0.0
 20
0.0
  3
*D0
  1

  0
TEXT
  5
217
100
AcDbEntity
  8
0
100
AcDbText
 62
2
  6
CONTINUOUS
 10
42.624204932
 20
105.4146623656
  7
STANDARD
 40
2.5
  1
79
 72
5
 11
46.2623372277
 21
105.4146623656
100
AcDbText
  0
TEXT
  5
218
100
AcDbEntity
  8
0
100
AcDbText
 62
2
  6
CONTINUOUS
 10
46.2623372277
 20
105.4146623656
  7
STANDARD
 40
2.5
  1
mm
 72
5
 11
51.9335434534
 21
105.4146623656
100
AcDbText
  0
TEXT
  5
219
100
AcDbEntity
  8
0
100
AcDbText
 62
2
  6
CONTINUOUS
 10
42.4928819748
 20
101.6646623656
  7
STANDARD
 40
2.5
  1
3-1/8"
 72
5
 11
52.0648664106
 21
101.6646623656
100
AcDbText
  0
LINE
  5
21A
100
AcDbEntity
  8
0
100
AcDbLine
 62
2
  6
CONTINUOUS
 10
55.7381644347
 20
146.1646623656
 11
45.7788741927
 21
146.1646623656
  0
LINE
  5
21B
100
AcDbEntity
  8
0
100
AcDbLine
 62
2
  6
CONTINUOUS
 10
74.3081644347
 20
67.1646623656
 11
45.7788741927
 21
67.1646623656
  0
LINE
  5
21C
100
AcDbEntity
  8
0
100
AcDbLine
 62
2
  6
CONTINUOUS
 10
47.2788741927
 20
146.1646623656
 11
47.2788741927
 21
109.1646623656
  0
LINE
  5
21D
100
AcDbEntity
  8
0
100
AcDbLine
 62
2
  6
CONTINUOUS
 10
47.2788741927
 20
67.1646623656
 11
47.2788741927
 21
100.4146623656
  0
INSERT
  5
21E
100
AcDbEntity
  8
0
100
AcDbBlockReference
 62
2
  6
CONTINUOUS
  2
_FILLED
 10
47.2788741927
 20
146.1646623656
 41
3.5
 42
3.5
 43
3.5
 50
90.0
  0
INSERT
  5
21F
100
AcDbEntity
  8
0
100
AcDbBlockReference
 62
2
  6
CONTINUOUS
  2
_FILLED
 10
47.2788741927
 20
67.1646623656
 41
3.5
 42
3.5
 43
3.5
 50
270.0
  0
ENDBLK
  5
220
100
AcDbEntity
  8
0
  6
BYBLOCK
 62
0
100
AcDbBlockEnd
  0
BLOCK
  5
221
100
AcDbEntity
  8
0
100
AcDbBlockBegin
 62
2
  6
CONTINUOUS
  2
*D1
 70
65
 10
0.0
 20
0.0
  3
*D1
  1

  0
TEXT
  5
222
100
AcDbEntity
  8
0
100
AcDbText
 62
2
  6
CONTINUOUS
 10
63.0252026253
 20
153.5506571701
  7
STANDARD
 40
2.5
  1
22
 72
5
 11
66.663334921
 21
153.5506571701
100
AcDbText
  0
TEXT
  5
223
100
AcDbEntity
  8
0
100
AcDbText
 62
2
  6
CONTINUOUS
 10
66.663334921
 20
153.5506571701
  7
STANDARD
 40
2.5
  1
mm
 72
5
 11
72.3345411467
 21
153.5506571701
100
AcDbText
  0
TEXT
  5
224
100
AcDbEntity
  8
0
100
AcDbText
 62
2
  6
CONTINUOUS
 10
64.4113893957
 20
149.8006571701
  7
STANDARD
 40
2.5
  1
7/8"
 72
5
 11
70.9483543763
 21
149.8006571701
100
AcDbText
  0
LINE
  5
225
100
AcDbEntity
  8
0
100
AcDbLine
 62
2
  6
CONTINUOUS
 10
56.7381644347
 20
147.1646623656
 11
56.7381644347
 21
156.3006571701
  0
LINE
  5
226
100
AcDbEntity
  8
0
100
AcDbLine
 62
2
  6
CONTINUOUS
 10
78.6215793373
 20
128.0790598518
 11
78.6215793373
 21
156.3006571701
  0
LINE
  5
227
100
AcDbEntity
  8
0
100
AcDbLine
 62
2
  6
CONTINUOUS
 10
56.7381644347
 20
154.8006571701
 11
61.7752026253
 21
154.8006571701
  0
LINE
  5
228
100
AcDbEntity
  8
0
100
AcDbLine
 62
2
  6
CONTINUOUS
 10
78.6215793373
 20
154.8006571701
 11
73.5845411467
 21
154.8006571701
  0
INSERT
  5
229
100
AcDbEntity
  8
0
100
AcDbBlockReference
 62
2
  6
CONTINUOUS
  2
_FILLED
 10
56.7381644347
 20
154.8006571701
 41
3.5
 42
3.5
 43
3.5
 50
180.0
  0
INSERT
  5
22A
100
AcDbEntity
  8
0
100
AcDbBlockReference
 62
2
  6
CONTINUOUS
  2
_FILLED
 10
78.6215793373
 20
154.8006571701
 41
3.5
 42
3.5
 43
3.5
  0
ENDBLK
  5
22B
100
AcDbEntity
  8
0
  6
BYBLOCK
 62
0
100
AcDbBlockEnd
  0
BLOCK
  5
22C
100
AcDbEntity
  8
0
100
AcDbBlockBegin
  2
*T1
 70
1
 10
0.0
 20
0.0
  3
*T1
  1

  0
LINE
  5
22D
100
AcDbEntity
  8
0
100
AcDbLine
 62
7
  6
CONTINUOUS
 10
0.0
 20
0.0
 11
148.0
 21
0.0
  0
LINE
  5
22E
100
AcDbEntity
  8
0
100
AcDbLine
 62
7
  6
CONTINUOUS
 10
0.0
 20
0.0
 11
0.0
 21
-43.0
  0
LINE
  5
22F
100
AcDbEntity
  8
0
100
AcDbLine
 62
7
  6
CONTINUOUS
 10
45.0
 20
-23.0
 11
148.0
 21
-23.0
  0
LINE
  5
230
100
AcDbEntity
  8
0
100
AcDbLine
 62
7
  6
CONTINUOUS
 10
45.0
 20
-28.0
 11
148.0
 21
-28.0
  0
LINE
  5
231
100
AcDbEntity
  8
0
100
AcDbLine
 62
7
  6
CONTINUOUS
 10
0.0
 20
-43.0
 11
148.0
 21
-43.0
  0
LINE
  5
232
100
AcDbEntity
  8
0
100
AcDbLine
 62
7
  6
CONTINUOUS
 10
45.0
 20
0.0
 11
45.0
 21
-43.0
  0
LINE
  5
233
100
AcDbEntity
  8
0
100
AcDbLine
 62
7
  6
CONTINUOUS
 10
143.0
 20
0.0
 11
143.0
 21
-23.0
  0
LINE
  5
234
100
AcDbEntity
  8
0
100
AcDbLine
 62
7
  6
CONTINUOUS
 10
148.0
 20
0.0
 11
148.0
 21
-43.0
  0
TEXT
  5
235
100
AcDbEntity
  8
0
100
AcDbText
 62
7
  6
CONTINUOUS
 10
8.9659749243
 20
-10.675
  7
STANDARD
 40
8.0
  1
O
 72
5
 11
17.370644185
 21
-10.675
100
AcDbText
  0
TEXT
  5
236
100
AcDbEntity
  8
0
100
AcDbText
 62
7
  6
CONTINUOUS
 10
17.370644185
 20
-10.675
  7
STANDARD
 40
5.5
  1
RAC
 72
5
 11
33.9562472979
 21
-10.675
100
AcDbText
  0
TEXT
  5
237
100
AcDbEntity
  8
0
100
AcDbText
 62
7
  6
CONTINUOUS
 10
33.9562472979
 20
-5.925
  7
TEXTSTYLE_2
 40
3.0
  1
®
 72
5
 11
36.0340250757
 21
-5.925
100
AcDbText
  0
TEXT
  5
238
100
AcDbEntity
  8
0
100
AcDbText
 62
7
  6
CONTINUOUS
 10
9.5323389537
 20
-15.325
  7
TEXTSTYLE_2
 40
3.0
  1
D  E  C  O  R
 72
5
 11
34.3878945093
 21
-15.325
100
AcDbText
  0
TEXT
  5
239
100
AcDbEntity
  8
0
100
AcDbText
 62
7
  6
CONTINUOUS
 10
34.3878945093
 20
-15.325
  7
STANDARD
 40
2.5
  1
 
 72
5
 11
35.4676610463
 21
-15.325
100
AcDbText
  0
TEXT
  5
23A
100
AcDbEntity
  8
0
100
AcDbText
 62
7
  6
CONTINUOUS
 10
52.5257352941
 20
-6.0
  7
TEXTSTYLE_3
 40
2.75
  1
Part name:
 72
5
 11
71.9375
 21
-6.0
100
AcDbText
  0
TEXT
  5
23B
100
AcDbEntity
  8
0
100
AcDbText
 62
7
  6
CONTINUOUS
 10
49.2788865546
 20
-12.875
  7
TEXTSTYLE_3
 40
2.75
  1
Designed by:
 72
5
 11
71.9375
 21
-12.875
100
AcDbText
  0
TEXT
  5
23C
100
AcDbEntity
  8
0
100
AcDbText
 62
7
  6
CONTINUOUS
 10
48.9553571429
 20
-19.75
  7
TEXTSTYLE_3
 40
2.75
  1
Designed on:
 72
5
 11
71.9375
 21
-19.75
100
AcDbText
  0
TEXT
  5
23D
100
AcDbEntity
  8
0
100
AcDbText
 62
2
  6
CONTINUOUS
 10
74.0625
 20
-6.0
  7
TEXTSTYLE_3
 40
2.75
  1
SX122
 72
5
 11
84.8891806723
 21
-6.0
100
AcDbText
  0
TEXT
  5
23E
100
AcDbEntity
  8
0
100
AcDbText
 62
2
  6
CONTINUOUS
 10
74.0625
 20
-12.875
  7
TEXTSTYLE_3
 40
2.75
  1
ORAC
 72
5
 11
84.1034663866
 21
-12.875
100
AcDbText
  0
TEXT
  5
23F
100
AcDbEntity
  8
0
100
AcDbText
 62
2
  6
CONTINUOUS
 10
74.0625
 20
-19.75
  7
TEXTSTYLE_3
 40
2.75
  1
29-Jul-2003
 72
5
 11
94.5488445378
 21
-19.75
100
AcDbText
  0
TEXT
  5
240
100
AcDbEntity
  8
0
100
AcDbText
 62
2
  6
CONTINUOUS
 10
94.5488445378
 20
-19.75
  7
TEXTSTYLE_3
 40
2.75
  1
 
 72
5
 11
95.530987395
 21
-19.75
100
AcDbText
  0
TEXT
  5
241
100
AcDbEntity
  8
0
100
AcDbText
 62
2
  6
CONTINUOUS
 10
146.5625
 20
-17.5
  7
TEXTSTYLE_3
 40
1.5
  1
Version: 
 50
90.0
 72
5
 11
146.5625
 21
-9.0294117647
100
AcDbText
  0
TEXT
  5
242
100
AcDbEntity
  8
0
100
AcDbText
 62
2
  6
CONTINUOUS
 10
146.5625
 20
-9.0294117647
  7
TEXTSTYLE_3
 40
1.5
  1
1.0
 50
90.0
 72
5
 11
146.5625
 21
-6.0357142857
100
AcDbText
  0
TEXT
  5
243
100
AcDbEntity
  8
0
100
AcDbText
 62
2
  6
CONTINUOUS
 10
146.5625
 20
-6.0357142857
  7
TEXTSTYLE_3
 40
1.5
  1
 
 50
90.0
 72
5
 11
146.5625
 21
-5.5
100
AcDbText
  0
TEXT
  5
244
100
AcDbEntity
  8
0
100
AcDbText
 62
7
  6
CONTINUOUS
 10
9.6586134454
 20
-24.25
  7
TEXTSTYLE_3
 40
2.5
  1
Biekorfstraat 32
 72
5
 11
35.3413865546
 21
-24.25
100
AcDbText
  0
TEXT
  5
245
100
AcDbEntity
  8
0
100
AcDbText
 62
7
  6
CONTINUOUS
 10
2.2584033613
 20
-28.0
  7
TEXTSTYLE_3
 40
2.5
  1
8400 Oostende - Belgium
 72
5
 11
42.7415966387
 21
-28.0
100
AcDbText
  0
TEXT
  5
246
100
AcDbEntity
  8
0
100
AcDbText
 62
7
  6
CONTINUOUS
 10
4.2699579832
 20
-31.75
  7
TEXTSTYLE_3
 40
2.5
  1
Tel  +32 (0)59 80 32 52
 72
5
 11
40.7300420168
 21
-31.75
100
AcDbText
  0
TEXT
  5
247
100
AcDbEntity
  8
0
100
AcDbText
 62
7
  6
CONTINUOUS
 10
5.7405462185
 20
-35.5
  7
TEXTSTYLE_3
 40
2.5
  1
www.oracdecor.com
 72
5
 11
39.2594537815
 21
-35.5
100
AcDbText
  0
TEXT
  5
248
100
AcDbEntity
  8
0
100
AcDbText
 62
7
  6
CONTINUOUS
 10
5.5777310924
 20
-39.25
  7
TEXTSTYLE_3
 40
2.5
  1
info@oracdecor.com
 72
5
 11
39.4222689076
 21
-39.25
100
AcDbText
  0
TEXT
  5
249
100
AcDbEntity
  8
0
100
AcDbText
 62
7
  6
CONTINUOUS
 10
46.0625
 20
-26.75
  7
TEXTSTYLE_3
 40
2.5
  1
All dimensions are in mm unless otherwise specified   
 72
5
 11
132.3019957983
 21
-26.75
100
AcDbText
  0
TEXT
  5
24A
100
AcDbEntity
  8
0
100
AcDbText
 62
7
  6
CONTINUOUS
 10
46.0625
 20
-31.7075
  7
TEXTSTYLE_3
 40
1.85
  1
All information in this document is Orac's exclusive property.  It may in no case 
 72
5
 11
140.0471638655
 21
-31.7075
100
AcDbText
  0
TEXT
  5
24B
100
AcDbEntity
  8
0
100
AcDbText
 62
7
  6
CONTINUOUS
 10
46.0625
 20
-34.8525
  7
TEXTSTYLE_3
 40
1.85
  1
be reproduced, even partly, be communicated to a third party or used for any 
 72
5
 11
138.8345588235
 21
-34.8525
100
AcDbText
  0
TEXT
  5
24C
100
AcDbEntity
  8
0
100
AcDbText
 62
7
  6
CONTINUOUS
 10
46.0625
 20
-37.9975
  7
TEXTSTYLE_3
 40
1.85
  1
possible purpose without ORAC's express written permission. 
 72
5
 11
119.4484243697
 21
-37.9975
100
AcDbText
  0
TEXT
  5
24D
100
AcDbEntity
  8
0
100
AcDbText
 62
7
  6
CONTINUOUS
 10
46.0625
 20
-41.1425
  7
TEXTSTYLE_3
 40
1.85
  1
Further legal information can be found at http://www.oracdecor.be/nl/disclaimer 
 72
5
 11
143.7316176471
 21
-41.1425
100
AcDbText
  0
ENDBLK
  5
24E
100
AcDbEntity
  8
0
  6
BYBLOCK
 62
0
100
AcDbBlockEnd
  0
ENDSEC
  0
SECTION
  2
ENTITIES
  0
DIMENSION
  5
24F
100
AcDbEntity
  8
0
100
AcDbDimension
 62
2
  6
CONTINUOUS
  2
*D0
 10
47.2788741927
 20
67.1646623656
 11
47.2788741927
 21
104.7896623656
 70
160
 71
2
 42
79.0
  1
<>mm\P3-1/8"
  3
DIMSTYLE_1
100
AcDbAlignedDimension
 13
56.7381644347
 23
146.1646623656
 14
75.3081644347
 24
67.1646623656
 50
270.0
100
AcDbRotatedDimension
  0
DIMENSION
  5
250
100
AcDbEntity
  8
0
100
AcDbDimension
 62
2
  6
CONTINUOUS
  2
*D1
 10
78.6215793373
 20
154.8006571701
 11
67.679871886
 21
152.9256571701
 70
160
 71
2
 42
21.8834149026
  1
<>mm\P7/8"
  3
DIMSTYLE_2
100
AcDbAlignedDimension
 13
56.7381644347
 23
146.1646623656
 14
78.6215793373
 24
127.0790598518
100
AcDbRotatedDimension
  0
ACAD_TABLE
  5
251
100
AcDbEntity
  8
0
 62
2
  6
CONTINUOUS
100
AcDbBlockReference
  2
*T1
 10
143.9999958937
 20
47.9999925619
 30
0.0
100
AcDbTable
342
       297
343
20F
 11
1.0
 21
0.0
 31
0.0
 90
22
 91
4
 92
4
 93
0
 94
0
 95
0
 96
0
141
18.0
141
5.0
141
5.0
141
15.0
142
45.0
142
28.0
142
70.0
142
5.0
171
1
172
0
173
0
174
0
175
1
176
1
 91
41
178
0
145
0.0
301
CELL_VALUE
 90
4
  1
\A1;O\H5.5;RAC\Ftrium.ttf;\H3.0;\S®^ ;\PD  E  C  O  R\Fcgtime.ttf;\H2.5; 
304
ACVALUE_END
170
5
140
8.0
 64
7
171
1
172
0
173
0
174
0
175
1
176
2
 91
57
178
0
145
0.0
  7
TEXTSTYLE_3
301
CELL_VALUE
 90
4
  1
Part name:\PDesigned by:\PDesigned on:
304
ACVALUE_END
170
6
140
2.75
 64
7
171
1
172
0
173
0
174
0
175
1
176
2
 91
49
178
0
145
0.0
  7
TEXTSTYLE_3
301
CELL_VALUE
 90
4
  1
SX122\PORAC\P29-Jul-2003 
304
ACVALUE_END
170
4
140
2.75
171
1
172
0
173
0
174
0
175
1
176
2
 91
49
178
0
145
0.0
  7
TEXTSTYLE_3
301
CELL_VALUE
 90
4
  1
Version: 1.0 
304
ACVALUE_END
170
6
140
1.5
171
1
172
0
173
0
174
0
175
1
176
3
 91
57
178
0
145
0.0
  7
TEXTSTYLE_3
301
CELL_VALUE
 90
4
  1
Biekorfstraat 32\P8400 Oostende - Belgium\PTel  +32 (0)59 80 32 52\Pwww.oracdecor.com\Pinfo@oracdecor.com
304
ACVALUE_END
170
5
140
2.5
 64
7
171
1
172
0
173
1
174
0
175
1
176
1
 91
1
178
0
145
0.0
170
1
171
1
172
0
173
1
174
0
175
1
176
1
 91
1
178
0
145
0.0
170
1
171
1
172
0
173
1
174
0
175
1
176
1
 91
1
178
0
145
0.0
170
1
171
1
172
0
173
1
174
0
175
1
176
1
 91
1
178
0
145
0.0
170
1
171
1
172
0
173
0
174
0
175
3
176
1
 91
57
178
0
145
0.0
  7
TEXTSTYLE_3
301
CELL_VALUE
 90
4
  1
All dimensions are in mm unless otherwise specified   
304
ACVALUE_END
170
1
140
2.5
 64
7
171
1
172
0
173
1
174
0
175
1
176
1
 91
1
178
0
145
0.0
170
1
171
1
172
0
173
1
174
0
175
1
176
1
 91
1
178
0
145
0.0
170
1
171
1
172
0
173
1
174
0
175
1
176
1
 91
1
178
0
145
0.0
170
1
171
1
172
0
173
0
174
0
175
3
176
1
 91
57
178
0
145
0.0
  7
TEXTSTYLE_3
301
CELL_VALUE
 90
4
  2
All information in this document is Orac's exclusive property.  It may in no case \Pbe reproduced, even partly, be communicated to a third party or used for any \Ppossible purpose without ORAC's express written permission. \PFurther legal information
  1
 can be found at http://www.oracdecor.be/nl/disclaimer 
304
ACVALUE_END
170
4
140
1.85
 64
7
171
1
172
0
173
1
174
0
175
1
176
1
 91
1
178
0
145
0.0
170
1
171
1
172
0
173
1
174
0
175
1
176
1
 91
1
178
0
145
0.0
170
1
  0
LINE
  5
252
100
AcDbEntity
  8
0
100
AcDbLine
 62
5
  6
CONTINUOUS
 10
0.0
 20
0.0
 11
0.0
 21
210.0
  0
LINE
  5
253
100
AcDbEntity
  8
0
100
AcDbLine
 62
7
  6
CONTINUOUS
 10
5.0
 20
5.0
 11
5.0
 21
195.0
  0
LINE
  5
254
100
AcDbEntity
  8
0
100
AcDbLine
 62
5
  6
CONTINUOUS
 10
0.0
 20
0.0
 11
297.0
 21
0.0
  0
LINE
  5
255
100
AcDbEntity
  8
0
100
AcDbLine
 62
7
  6
CONTINUOUS
 10
5.0
 20
5.0
 11
292.0
 21
5.0
  0
LINE
  5
256
100
AcDbEntity
  8
0
100
AcDbLine
 62
4
  6
CONTINUOUS
 10
148.5
 20
195.0
 11
148.5
 21
205.0
  0
LINE
  5
257
100
AcDbEntity
  8
0
100
AcDbLine
 62
7
  6
CONTINUOUS
 10
5.0
 20
195.0
 11
292.0
 21
195.0
  0
LINE
  5
258
100
AcDbEntity
  8
0
100
AcDbLine
 62
5
  6
CONTINUOUS
 10
0.0
 20
210.0
 11
297.0
 21
210.0
  0
LINE
  5
259
100
AcDbEntity
  8
0
100
AcDbLine
 62
7
  6
CONTINUOUS
 10
292.0
 20
5.0
 11
292.0
 21
195.0
  0
LINE
  5
25A
100
AcDbEntity
  8
0
100
AcDbLine
 62
5
  6
CONTINUOUS
 10
297.0
 20
0.0
 11
297.0
 21
210.0
  0
LINE
  5
25B
100
AcDbEntity
  8
DTM_AXIS
100
AcDbLine
 62
7
  6
CONTINUOUS
 10
186.1141361109
 20
63.9811563262
 11
189.042425252
 21
63.9542630568
  0
LINE
  5
25C
100
AcDbEntity
  8
DTM_AXIS
100
AcDbLine
 62
7
  6
CONTINUOUS
 10
167.6319143932
 20
73.1359277126
 11
182.6252693306
 21
73.2450709736
  0
LINE
  5
25D
100
AcDbEntity
  8
DTM_AXIS
100
AcDbLine
 62
7
  6
CONTINUOUS
 10
176.6883974186
 20
79.029638117
 11
167.7097057338
 21
82.2202477471
  0
LINE
  5
25E
100
AcDbEntity
  8
DTM_AXIS
100
AcDbLine
 62
7
  6
CONTINUOUS
 10
182.6065851023
 20
71.0631634819
 11
186.1141361109
 21
63.9811563262
  0
LINE
  5
25F
100
AcDbEntity
  8
DTM_AXIS
100
AcDbLine
 62
7
  6
CONTINUOUS
 10
168.2313314888
 20
143.1346793693
 11
168.1376482612
 21
132.1945359686
  0
LINE
  5
260
100
AcDbEntity
  8
DTM_AXIS
100
AcDbLine
 62
7
  6
CONTINUOUS
 10
167.7097057338
 20
82.2202477471
 11
167.6319143932
 21
73.1359277126
  0
LINE
  5
261
100
AcDbEntity
  8
DTM_AXIS
100
AcDbLine
 62
7
  6
CONTINUOUS
 10
168.9154959735
 20
106.3110373098
 11
168.8398128119
 21
97.4729062783
  0
LINE
  5
262
100
AcDbEntity
  8
DTM_AXIS
100
AcDbLine
 62
7
  6
CONTINUOUS
 10
234.3882023083
 20
180.2371067769
 11
168.2313314888
 21
143.1346793693
  0
LINE
  5
263
100
AcDbEntity
  8
DTM_AXIS
100
AcDbLine
 62
7
  6
CONTINUOUS
 10
238.9810666257
 20
180.1949261276
 11
172.8241958062
 21
143.09249872
  0
LINE
  5
264
100
AcDbEntity
  8
DTM_AXIS
100
AcDbLine
 62
7
  6
CONTINUOUS
 10
180.8157819063
 20
95.3747368072
 11
180.6994451668
 21
81.789160755
  0
LINE
  5
265
100
AcDbEntity
  8
DTM_AXIS
100
AcDbLine
 62
7
  6
CONTINUOUS
 10
182.6252693306
 20
73.2450709736
 11
182.6065851023
 21
71.0631634819
  0
LINE
  5
266
100
AcDbEntity
  8
DTM_AXIS
100
AcDbLine
 62
7
  6
CONTINUOUS
 10
176.2802300686
 20
103.4992478552
 11
168.9154959735
 21
106.3110373098
  0
LINE
  5
267
100
AcDbEntity
  8
DTM_AXIS
100
AcDbLine
 62
7
  6
CONTINUOUS
 10
184.3070661297
 20
117.440387713
 11
184.3139564672
 21
118.2450278061
  0
LINE
  5
268
100
AcDbEntity
  8
DTM_AXIS
100
AcDbLine
 62
7
  6
CONTINUOUS
 10
168.8398128119
 20
97.4729062783
 11
178.6308357316
 21
97.5371156761
  0
LINE
  5
269
100
AcDbEntity
  8
DTM_AXIS
100
AcDbLine
 62
7
  6
CONTINUOUS
 10
189.4631712604
 20
113.0881559116
 11
184.3070661297
 21
117.440387713
  0
LINE
  5
26A
100
AcDbEntity
  8
DTM_AXIS
100
AcDbLine
 62
7
  6
CONTINUOUS
 10
186.8500557226
 20
119.2056545711
 11
253.006926542
 21
156.3080819788
  0
LINE
  5
26B
100
AcDbEntity
  8
DTM_AXIS
100
AcDbLine
 62
7
  6
CONTINUOUS
 10
184.3070661297
 20
117.440387713
 11
250.4639369491
 21
154.5428151207
  0
LINE
  5
26C
100
AcDbEntity
  8
DTM_AXIS
100
AcDbLine
 62
7
  6
CONTINUOUS
 10
168.1376482612
 20
132.1945359686
 11
178.3281278443
 21
126.315580736
  0
LINE
  5
26D
100
AcDbEntity
  8
DTM_AXIS
100
AcDbLine
 62
7
  6
CONTINUOUS
 10
179.0424710538
 20
111.9904981598
 11
168.9154959735
 21
106.3110373098
  0
LINE
  5
26E
100
AcDbEntity
  8
DTM_AXIS
100
AcDbLine
 62
7
  6
CONTINUOUS
 10
189.4631712604
 20
113.0881559116
 11
255.6200420798
 21
150.1905833192
  0
LINE
  5
26F
100
AcDbEntity
  8
DTM_AXIS
100
AcDbLine
 62
7
  6
CONTINUOUS
 10
181.0519926251
 20
106.1753716148
 11
176.2802300686
 21
103.4992478552
  0
LINE
  5
270
100
AcDbEntity
  8
DTM_AXIS
100
AcDbLine
 62
7
  6
CONTINUOUS
 10
180.7658385826
 20
89.5424535173
 11
167.7097057338
 21
82.2202477471
  0
LINE
  5
271
100
AcDbEntity
  8
DTM_AXIS
100
AcDbLine
 62
7
  6
CONTINUOUS
 10
176.6883974186
 20
79.029638117
 11
180.6436258314
 21
81.2478291114
  0
LINE
  5
272
100
AcDbEntity
  8
DTM_AXIS
100
AcDbLine
 62
7
  6
CONTINUOUS
 10
172.8241958062
 20
143.09249872
 11
168.2313314888
 21
143.1346793693
  0
LINE
  5
273
100
AcDbEntity
  8
DTM_AXIS
100
AcDbLine
 62
7
  6
CONTINUOUS
 10
250.4668547158
 20
154.8835461842
 11
250.4639369491
 21
154.5428151207
  0
LINE
  5
274
100
AcDbEntity
  8
DTM_AXIS
100
AcDbLine
 62
7
  6
CONTINUOUS
 10
255.1992960714
 20
101.0566904645
 11
189.042425252
 21
63.9542630568
  0
LINE
  5
275
100
AcDbEntity
  8
DTM_AXIS
100
AcDbLine
 62
7
  6
CONTINUOUS
 10
250.4639369491
 20
154.5428151207
 11
255.6200420798
 21
150.1905833192
  0
LINE
  5
276
100
AcDbEntity
  8
DTM_AXIS
100
AcDbLine
 62
7
  6
CONTINUOUS
 10
238.9810666257
 20
180.1949261276
 11
234.3882023083
 21
180.2371067769
  0
LINE
  5
277
100
AcDbEntity
  8
DTM_AXIS
100
AcDbLine
 62
7
  6
CONTINUOUS
 10
75.3081644347
 20
67.1646623656
 11
78.2381644347
 21
67.1646623656
  0
LINE
  5
278
100
AcDbEntity
  8
DTM_AXIS
100
AcDbLine
 62
7
  6
CONTINUOUS
 10
56.7381644347
 20
76.1509123656
 11
71.7381644347
 21
76.3977873656
  0
LINE
  5
279
100
AcDbEntity
  8
DTM_AXIS
100
AcDbLine
 62
7
  6
CONTINUOUS
 10
65.7487312704
 20
82.1286076125
 11
56.7381644347
 21
85.2371788598
  0
LINE
  5
27A
100
AcDbEntity
  8
DTM_AXIS
100
AcDbLine
 62
7
  6
CONTINUOUS
 10
56.7381644347
 20
146.1646623656
 11
56.7381644347
 21
135.2221748656
  0
LINE
  5
27B
100
AcDbEntity
  8
DTM_AXIS
100
AcDbLine
 62
7
  6
CONTINUOUS
 10
56.7381644347
 20
85.2371788598
 11
56.7381644347
 21
76.1509123656
  0
LINE
  5
27C
100
AcDbEntity
  8
DTM_AXIS
100
AcDbLine
 62
7
  6
CONTINUOUS
 10
71.7381644347
 20
74.2154123656
 11
75.3081644347
 21
67.1646623656
  0
LINE
  5
27D
100
AcDbEntity
  8
DTM_AXIS
100
AcDbLine
 62
7
  6
CONTINUOUS
 10
57.7381644347
 20
109.3423108133
 11
57.7381644347
 21
100.502286072
  0
LINE
  5
27E
100
AcDbEntity
  8
DTM_AXIS
100
AcDbLine
 62
7
  6
CONTINUOUS
 10
57.7381644347
 20
100.502286072
 11
67.5335872603
 21
100.6564366643
  0
LINE
  5
27F
100
AcDbEntity
  8
DTM_AXIS
100
AcDbLine
 62
7
  6
CONTINUOUS
 10
65.1307121424
 20
106.597786593
 11
57.7381644347
 21
109.3423108133
  0
LINE
  5
280
100
AcDbEntity
  8
DTM_AXIS
100
AcDbLine
 62
7
  6
CONTINUOUS
 10
69.7381644347
 20
98.5138337175
 11
69.7381644347
 21
84.9253467401
  0
LINE
  5
281
100
AcDbEntity
  8
DTM_AXIS
100
AcDbLine
 62
7
  6
CONTINUOUS
 10
71.7381644347
 20
76.3977873656
 11
71.7381644347
 21
74.2154123656
  0
LINE
  5
282
100
AcDbEntity
  8
DTM_AXIS
100
AcDbLine
 62
7
  6
CONTINUOUS
 10
73.0421644347
 20
120.6145450992
 11
73.0421644347
 21
121.4193575992
  0
LINE
  5
283
100
AcDbEntity
  8
DTM_AXIS
100
AcDbLine
 62
7
  6
CONTINUOUS
 10
78.2381644347
 20
116.3090829367
 11
73.0421644347
 21
120.6145450992
  0
LINE
  5
284
100
AcDbEntity
  8
DTM_AXIS
100
AcDbLine
 62
7
  6
CONTINUOUS
 10
56.7381644347
 20
135.2221748656
 11
66.9841644347
 21
129.4360239595
  0
LINE
  5
285
100
AcDbEntity
  8
DTM_AXIS
100
AcDbLine
 62
7
  6
CONTINUOUS
 10
61.3337121424
 20
146.1646623656
 11
56.7381644347
 21
146.1646623656
  0
SPLINE
  5
286
100
AcDbEntity
  8
DTM_AXIS
100
AcDbSpline
 62
7
  6
CONTINUOUS
 70
0
 71
3
 72
48
 73
44
 74
0
 42
0.0000001
 43
0.0000001
 44
0.0000000001
 40
0.0
 40
0.0
 40
0.0
 40
0.0
 40
0.0156762067
 40
0.0289966958
 40
0.0404685468
 40
0.0505756509
 40
0.059746333
 40
0.0682542063
 40
0.0762627485
 40
0.0839079353
 40
0.0912972431
 40
0.0984994917
 40
0.1124450259
 40
0.1260083944
 40
0.1395210398
 40
0.1533055278
 40
0.1676285575
 40
0.1825841474
 40
0.1980931104
 40
0.2139748757
 40
0.2299974505
 40
0.2458884853
 40
0.2614095646
 40
0.2912859161
 40
0.3204105034
 40
0.3495621945
 40
0.379129979
 40
0.4395645764
 40
0.4699725647
 40
0.4998160742
 40
0.5574748789
 40
0.6143507514
 40
0.6733350365
 40
0.7044326894
 40
0.7370445973
 40
0.7714656596
 40
0.8069800489
 40
0.8421710199
 40
0.8759092612
 40
0.9077507147
 40
0.9383266772
 40
0.9686723934
 40
1.0
 40
1.0
 40
1.0
 40
1.0
 10
178.3281278443
 20
126.315580736
 30
0.0
 10
178.4434170381
 20
126.2490696357
 30
0.0
 10
178.6524622927
 20
126.1183598638
 30
0.0
 10
178.9260244308
 20
125.9095422106
 30
0.0
 10
179.1415130388
 20
125.7052361613
 30
0.0
 10
179.309545113
 20
125.5047159378
 30
0.0
 10
179.4414681886
 20
125.3086712073
 30
0.0
 10
179.5453949336
 20
125.1165456647
 30
0.0
 10
179.6253214547
 20
124.9272874674
 30
0.0
 10
179.6853359204
 20
124.7408437094
 30
0.0
 10
179.7295472875
 20
124.5571410548
 30
0.0
 10
179.771879115
 20
124.3184693344
 30
0.0
 10
179.7941935849
 20
124.0234583193
 30
0.0
 10
179.7646992314
 20
123.6747649603
 30
0.0
 10
179.675843747
 20
123.3376438261
 30
0.0
 10
179.5297233364
 20
123.0141987484
 30
0.0
 10
179.3302573922
 20
122.706564896
 30
0.0
 10
179.0915266471
 20
122.4100659215
 30
0.0
 10
178.825219181
 20
122.1201660448
 30
0.0
 10
178.5433188844
 20
121.8327607382
 30
0.0
 10
178.2577636987
 20
121.544453317
 30
0.0
 10
177.9821782464
 20
121.2505065917
 30
0.0
 10
177.6534139001
 20
120.8465382097
 30
0.0
 10
177.3254190187
 20
120.3000983422
 30
0.0
 10
177.0746795598
 20
119.5901545693
 30
0.0
 10
176.9520481687
 20
118.8512516211
 30
0.0
 10
176.9314352594
 20
117.8371056169
 30
0.0
 10
177.0919329464
 20
116.8195888236
 30
0.0
 10
177.3651136184
 20
115.8318843495
 30
0.0
 10
177.6902533582
 20
114.8843305275
 30
0.0
 10
178.1745852005
 20
113.7567288982
 30
0.0
 10
178.8273792959
 20
112.436005628
 30
0.0
 10
179.3734077422
 20
111.3139612828
 30
0.0
 10
179.8045444371
 20
110.365535056
 30
0.0
 10
180.1309377655
 20
109.5988602472
 30
0.0
 10
180.4508766379
 20
108.7889446546
 30
0.0
 10
180.741934202
 20
107.9446218744
 30
0.0
 10
180.9656397657
 20
107.0851595964
 30
0.0
 10
181.0809719659
 20
106.2342718912
 30
0.0
 10
181.0331959237
 20
105.4113817185
 30
0.0
 10
180.7715932816
 20
104.6568311843
 30
0.0
 10
180.3086336293
 20
104.0116796564
 30
0.0
 10
179.8844827483
 20
103.6896816218
 30
0.0
 10
179.6524889059
 20
103.5595737225
 30
0.0
  0
SPLINE
  5
287
100
AcDbEntity
  8
DTM_AXIS
100
AcDbSpline
 62
7
  6
CONTINUOUS
 70
0
 71
3
 72
9
 73
5
 74
0
 42
0.0000001
 43
0.0000001
 44
0.0000000001
 40
0.0
 40
0.0
 40
0.0
 40
0.0
 40
0.4992249964
 40
1.0
 40
1.0
 40
1.0
 40
1.0
 10
184.3139564672
 20
118.2450278061
 30
0.0
 10
184.756421166
 20
118.3399486036
 30
0.0
 10
185.6287572735
 20
118.6000533377
 30
0.0
 10
186.4541320715
 20
118.9836107152
 30
0.0
 10
186.8500553133
 20
119.2056543416
 30
0.0
  0
SPLINE
  5
288
100
AcDbEntity
  8
DTM_AXIS
100
AcDbSpline
 62
7
  6
CONTINUOUS
 70
0
 71
3
 72
45
 73
41
 74
0
 42
0.0000001
 43
0.0000001
 44
0.0000000001
 40
0.0
 40
0.0
 40
0.0
 40
0.0
 40
0.0369520859
 40
0.0688670083
 40
0.0963454242
 40
0.1199939969
 40
0.1581822048
 40
0.1739374715
 40
0.188146083
 40
0.2134687176
 40
0.2251168679
 40
0.236321004
 40
0.247195896
 40
0.2578616555
 40
0.2790820698
 40
0.3010076002
 40
0.3245590109
 40
0.3505455323
 40
0.3792328263
 40
0.4425237718
 40
0.5100100428
 40
0.5439923286
 40
0.5774114396
 40
0.6096821226
 40
0.6402530391
 40
0.6689255808
 40
0.6957602736
 40
0.7213119473
 40
0.7339860818
 40
0.7468285059
 40
0.7733358897
 40
0.801503842
 40
0.831355215
 40
0.8622528344
 40
0.8941000413
 40
0.9105571061
 40
0.927472109
 40
0.944918642
 40
0.9628792175
 40
1.0
 40
1.0
 40
1.0
 40
1.0
 10
238.9810666257
 20
180.1949261276
 30
0.0
 10
238.9580957531
 20
179.7805579875
 30
0.0
 10
238.931709415
 20
179.0071808865
 30
0.0
 10
238.9537985481
 20
177.9248083039
 30
0.0
 10
239.0333065737
 20
176.9946179569
 30
0.0
 10
239.1944288723
 20
176.0041116201
 30
0.0
 10
239.4416664065
 20
175.161679911
 30
0.0
 10
239.7744094286
 20
174.4710180503
 30
0.0
 10
240.0970304529
 20
173.9395514614
 30
0.0
 10
240.4502759372
 20
173.4841432071
 30
0.0
 10
240.8075401018
 20
173.0778941697
 30
0.0
 10
241.0646207449
 20
172.7996106454
 30
0.0
 10
241.3234064249
 20
172.5382011942
 30
0.0
 10
241.6743056558
 20
172.2101642955
 30
0.0
 10
242.1393194936
 20
171.8232348787
 30
0.0
 10
242.7462637449
 20
171.3835305263
 30
0.0
 10
243.4191163578
 20
170.9455971266
 30
0.0
 10
244.1706924088
 20
170.4905049226
 30
0.0
 10
245.3168042923
 20
169.8258388913
 30
0.0
 10
246.8836220634
 20
168.9581148513
 30
0.0
 10
248.5116609235
 20
168.0786869922
 30
0.0
 10
249.8440099237
 20
167.3577175452
 30
0.0
 10
250.826378125
 20
166.8210308214
 30
0.0
 10
251.7724065377
 20
166.2977806559
 30
0.0
 10
252.6703708343
 20
165.7977551719
 30
0.0
 10
253.5014415537
 20
165.303313073
 30
0.0
 10
254.2533227704
 20
164.7882827421
 30
0.0
 10
254.8032798834
 20
164.3020667839
 30
0.0
 10
255.1757658857
 20
163.8646736469
 30
0.0
 10
255.5074077376
 20
163.382560147
 30
0.0
 10
255.8375023366
 20
162.6934787686
 30
0.0
 10
256.0692702334
 20
161.7668827921
 30
0.0
 10
256.1249617694
 20
160.7635585481
 30
0.0
 10
255.9714119828
 20
159.7269946465
 30
0.0
 10
255.6441624379
 20
158.8908612293
 30
0.0
 10
255.2662818638
 20
158.2619145709
 30
0.0
 10
254.9175590708
 20
157.8084609336
 30
0.0
 10
254.5093835875
 20
157.3842460326
 30
0.0
 10
253.8905678175
 20
156.8532318281
 30
0.0
 10
253.3705454235
 20
156.5120085387
 30
0.0
 10
253.006926524
 20
156.3080819687
 30
0.0
  0
SPLINE
  5
289
100
AcDbEntity
  8
DTM_AXIS
100
AcDbSpline
 62
7
  6
CONTINUOUS
 70
0
 71
3
 72
11
 73
7
 74
0
 42
0.0000001
 43
0.0000001
 44
0.0000000001
 40
0.0
 40
0.0
 40
0.0
 40
0.0
 40
0.2148787293
 40
0.4481196025
 40
0.7070474206
 40
1.0
 40
1.0
 40
1.0
 40
1.0
 10
179.6524889059
 20
103.5595737225
 30
0.0
 10
179.435291406
 20
103.437763979
 30
0.0
 10
178.9476491543
 20
103.2419276885
 30
0.0
 10
178.1295746143
 20
103.1250092116
 30
0.0
 10
177.2159491397
 20
103.198832945
 30
0.0
 10
176.5974024729
 20
103.3781542746
 30
0.0
 10
176.2802300686
 20
103.4992478552
 30
0.0
  0
SPLINE
  5
28A
100
AcDbEntity
  8
DTM_AXIS
100
AcDbSpline
 62
7
  6
CONTINUOUS
 70
0
 71
3
 72
45
 73
41
 74
0
 42
0.0000001
 43
0.0000001
 44
0.0000000001
 40
0.0
 40
0.0
 40
0.0
 40
0.0
 40
0.0371207829
 40
0.0550813587
 40
0.072527892
 40
0.0894428952
 40
0.1058999602
 40
0.1377471674
 40
0.168644787
 40
0.1984961603
 40
0.2266641131
 40
0.2531714972
 40
0.2660139214
 40
0.2786880559
 40
0.3042397294
 40
0.3310744216
 40
0.3597469629
 40
0.390317879
 40
0.4225885615
 40
0.4560076723
 40
0.489989958
 40
0.557476229
 40
0.6207671748
 40
0.6494544691
 40
0.6754409907
 40
0.6989924016
 40
0.720917932
 40
0.7421383463
 40
0.7528041057
 40
0.7636789976
 40
0.7748831337
 40
0.7865312839
 40
0.8118539183
 40
0.8260625296
 40
0.8418177962
 40
0.8800060037
 40
0.9036545762
 40
0.931132992
 40
0.9630479142
 40
1.0
 40
1.0
 40
1.0
 40
1.0
 10
186.8500553133
 20
119.2056543416
 30
0.0
 10
187.2136742317
 20
119.409580898
 30
0.0
 10
187.7336966567
 20
119.7508041685
 30
0.0
 10
188.3525124757
 20
120.2818183495
 30
0.0
 10
188.7606880003
 20
120.7060332355
 30
0.0
 10
189.1094108382
 20
121.1594868596
 30
0.0
 10
189.4872914679
 20
121.7884335067
 30
0.0
 10
189.8145410798
 20
122.6245669192
 30
0.0
 10
189.9680909384
 20
123.6611308341
 30
0.0
 10
189.9123994568
 20
124.6644551059
 30
0.0
 10
189.6806316047
 20
125.5910511193
 30
0.0
 10
189.3505370353
 20
126.2801325339
 30
0.0
 10
189.0188952025
 20
126.762246062
 30
0.0
 10
188.6464092187
 20
127.1996392228
 30
0.0
 10
188.0964521228
 20
127.6858552044
 30
0.0
 10
187.3445709174
 20
128.2008855501
 30
0.0
 10
186.5135002058
 20
128.6953276561
 30
0.0
 10
185.6155359114
 20
129.1953531412
 30
0.0
 10
184.669507497
 20
129.7186033085
 30
0.0
 10
183.6871392905
 20
130.2552900364
 30
0.0
 10
182.3547902765
 20
130.9762594916
 30
0.0
 10
180.7267513924
 20
131.8556873626
 30
0.0
 10
179.1599335938
 20
132.7234114154
 30
0.0
 10
178.0138216859
 20
133.3880774578
 30
0.0
 10
177.2622456171
 20
133.8431696697
 30
0.0
 10
176.5893929889
 20
134.2811030751
 30
0.0
 10
175.9824487253
 20
134.7208074313
 30
0.0
 10
175.5174348791
 20
135.1077368502
 30
0.0
 10
175.1665356428
 20
135.4357737502
 30
0.0
 10
174.9077499594
 20
135.6971832022
 30
0.0
 10
174.6506693135
 20
135.9754667273
 30
0.0
 10
174.2934051457
 20
136.3817157658
 30
0.0
 10
173.940159657
 20
136.83712402
 30
0.0
 10
173.6175386276
 20
137.3685906085
 30
0.0
 10
173.2847955994
 20
138.0592524691
 30
0.0
 10
173.0375580598
 20
138.9016841805
 30
0.0
 10
172.8764357574
 20
139.8921905217
 30
0.0
 10
172.7969277295
 20
140.8223808752
 30
0.0
 10
172.7748385952
 20
141.9047534673
 30
0.0
 10
172.8012249334
 20
142.6781305756
 30
0.0
 10
172.8241958062
 20
143.09249872
 30
0.0
  0
SPLINE
  5
28B
100
AcDbEntity
  8
DTM_AXIS
100
AcDbSpline
 62
7
  6
CONTINUOUS
 70
0
 71
3
 72
26
 73
22
 74
0
 42
0.0000001
 43
0.0000001
 44
0.0000000001
 40
0.0
 40
0.0
 40
0.0
 40
0.0
 40
0.03125
 40
0.0625
 40
0.09375
 40
0.125
 40
0.1875
 40
0.21875
 40
0.25
 40
0.3125
 40
0.375
 40
0.4375
 40
0.5
 40
0.5625
 40
0.625
 40
0.6875
 40
0.75
 40
0.8125
 40
0.875
 40
0.9375
 40
1.0
 40
1.0
 40
1.0
 40
1.0
 10
66.9841644347
 20
129.4360239595
 30
0.0
 10
67.5432472507
 20
129.1202970863
 30
0.0
 10
68.1336858589
 20
128.5303877232
 30
0.0
 10
68.4347388136
 20
127.7033196724
 30
0.0
 10
68.4975089484
 20
126.9167925245
 30
0.0
 10
68.1995473775
 20
125.9355119508
 30
0.0
 10
67.3577769686
 20
125.0831164753
 30
0.0
 10
66.516852288
 20
124.2063353425
 30
0.0
 10
65.9099058696
 20
123.2447168792
 30
0.0
 10
65.597845906
 20
121.9010408865
 30
0.0
 10
65.7393636005
 20
120.1966646982
 30
0.0
 10
66.2256813102
 20
118.5189707912
 30
0.0
 10
66.866075017
 20
117.0176292447
 30
0.0
 10
67.5827245895
 20
115.5985000505
 30
0.0
 10
68.3226911164
 20
114.1140870455
 30
0.0
 10
69.0638890839
 20
112.4586523914
 30
0.0
 10
69.7824667327
 20
110.5191702476
 30
0.0
 10
70.0198004724
 20
108.6047616802
 30
0.0
 10
69.2410931102
 20
107.0182017763
 30
0.0
 10
67.555411166
 20
106.1359848964
 30
0.0
 10
65.9896337402
 20
106.2789071996
 30
0.0
 10
65.1307121424
 20
106.597786593
 30
0.0
  0
SPLINE
  5
28C
100
AcDbEntity
  8
DTM_AXIS
100
AcDbSpline
 62
7
  6
CONTINUOUS
 70
0
 71
3
 72
24
 73
20
 74
0
 42
0.0000001
 43
0.0000001
 44
0.0000000001
 40
0.0
 40
0.0
 40
0.0
 40
0.0
 40
0.0625
 40
0.125
 40
0.1875
 40
0.25
 40
0.3125
 40
0.375
 40
0.4375
 40
0.5
 40
0.5625
 40
0.625
 40
0.6875
 40
0.75
 40
0.8125
 40
0.84375
 40
0.875
 40
0.9375
 40
1.0
 40
1.0
 40
1.0
 40
1.0
 10
73.0421644347
 20
121.4193575992
 30
0.0
 10
73.9199171675
 20
121.6160094934
 30
0.0
 10
75.6659614913
 20
122.2977199602
 30
0.0
 10
77.7565184202
 20
123.9769822468
 30
0.0
 10
78.7119345582
 20
126.1361939402
 30
0.0
 10
78.6013365339
 20
128.3750629848
 30
0.0
 10
77.742231537
 20
130.1010039921
 30
0.0
 10
76.3267922196
 20
131.2408011614
 30
0.0
 10
74.4930751647
 20
132.2553701206
 30
0.0
 10
72.396191819
 20
133.3841135297
 30
0.0
 10
70.2091556541
 20
134.5355724824
 30
0.0
 10
68.1043728242
 20
135.6608034058
 30
0.0
 10
66.2486348109
 20
136.7034600384
 30
0.0
 10
64.8317991039
 20
137.5942915399
 30
0.0
 10
63.8728916959
 20
138.3758236282
 30
0.0
 10
63.1420319263
 20
139.1428292208
 30
0.0
 10
62.3899493597
 20
140.0217828565
 30
0.0
 10
61.4956018744
 20
141.5999058904
 30
0.0
 10
61.2447134978
 20
144.2656652054
 30
0.0
 10
61.3337121424
 20
146.1646623656
 30
0.0
  0
ELLIPSE
  5
28D
100
AcDbEntity
  8
DTM_AXIS
100
AcDbEllipse
 62
7
  6
CONTINUOUS
 10
178.6470489929
 20
95.394654348
 30
0.0
 11
2.1675686024
 21
-0.0742881828
 31
0.0
 40
0.9878442749
 41
0.0253839122
 42
1.6121150951
  0
ELLIPSE
  5
28E
100
AcDbEntity
  8
DTM_AXIS
100
AcDbEllipse
 62
7
  6
CONTINUOUS
 10
1802.3463093354
 20
111.4166437347
 30
0.0
 11
1546.3059241718
 21
-52.9959037869
 31
0.0
 40
0.9878442749
 41
-3.1322834652
 42
-3.1001340175
  0
ELLIPSE
  5
28F
100
AcDbEntity
  8
DTM_AXIS
100
AcDbEllipse
 62
7
  6
CONTINUOUS
 10
1736.1894385159
 20
74.314216327
 30
0.0
 11
1546.3059241718
 21
-52.995903787
 31
0.0
 40
0.9878442749
 41
-3.1322834652
 42
-3.1001340175
  0
ELLIPSE
  5
290
100
AcDbEntity
  8
DTM_AXIS
100
AcDbEllipse
 62
7
  6
CONTINUOUS
 10
177.7011968994
 20
81.8166965257
 30
0.0
 11
2.9966386209
 21
-0.1027025568
 31
0.0
 40
0.9878442749
 41
-1.8815158388
 42
0.0253839122
  0
ELLIPSE
  5
291
100
AcDbEntity
  8
DTM_AXIS
100
AcDbEllipse
 62
7
  6
CONTINUOUS
 10
67.5681644347
 20
98.5138337175
 30
0.0
 11
2.17
 21
-0.0
 31
0.0
 40
0.9875
 41
0.0
 42
1.5867311829
  0
ELLIPSE
  5
292
100
AcDbEntity
  8
DTM_AXIS
100
AcDbEllipse
 62
7
  6
CONTINUOUS
 10
1626.0786055589
 20
91.7368726511
 30
0.0
 11
1548.0404411242
 21
0.0
 31
0.0
 40
0.9875
 41
3.1255179298
 42
3.1576673774
  0
ELLIPSE
  5
293
100
AcDbEntity
  8
DTM_AXIS
100
AcDbEllipse
 62
7
  6
CONTINUOUS
 10
66.7381644347
 20
84.9253467401
 30
0.0
 11
3.0
 21
-0.0
 31
0.0
 40
0.9875
 41
-1.906899751
 42
0.0
  0
ENDSEC
  0
SECTION
  2
OBJECTS
  0
DICTIONARY
  5
C
100
AcDbDictionary
280
0
281
1
  3
ACAD_GROUP
350
D
  3
ACAD_MLINESTYLE
350
17
  3
ACAD_LAYOUT
350
1A
  3
ACAD_PLOTSETTINGS
350
19
  3
ACAD_PLOTSTYLENAME
350
E
  3
ACAD_TABLESTYLE
350
       294
  0
DICTIONARY
  5
D
102
{ACAD_REACTORS
330
C
102
}
100
AcDbDictionary
280
0
281
1
  0
ACDBDICTIONARYWDFLT
  5
E
102
{ACAD_REACTORS
330
C
102
}
100
AcDbDictionary
281
1
  3
Normal
350
F
100
AcDbDictionaryWithDefault
340
F
  0
DICTIONARY
  5
17
102
{ACAD_REACTORS
330
C
102
}
100
AcDbDictionary
280
0
281
1
  3
Standard
350
18
  0
DICTIONARY
  5
294
330
C
100
AcDbDictionary
281
1
  3
Standard
350
       297
  3
Standard1
350
       298
  0
DICTIONARY
  5
19
102
{ACAD_REACTORS
330
C
102
}
100
AcDbDictionary
281
1
  0
DICTIONARY
  5
1A
102
{ACAD_REACTORS
330
C
102
}
100
AcDbDictionary
281
1
  3
Model
350
295
  3
Layout1
350
296
  0
ACDBPLACEHOLDER
  5
F
102
{ACAD_REACTORS
330
E
102
}
  0
MLINESTYLE
  5
18
102
{ACAD_REACTORS
330
17
102
}
100
AcDbMlineStyle
  2
STANDARD
 70
0
  3

 62
256
 51
90.0
 52
90.0
 71
2
 49
0.5
 62
256
  6
BYLAYER
 49
-0.5
 62
256
  6
BYLAYER
  0
LAYOUT
  5
295
102
{ACAD_REACTORS
330
1A
102
}
100
AcDbPlotSettings
  1

  2
none_device
  4
ISO_A4_(297.00_x_210.00_MM)
  6

 40
0.0
 41
0.0
 42
0.0
 43
0.0
 44
297.0
 45
210.0
 46
0.0
 47
0.0
 48
0.0
 49
0.0
140
0.0
141
0.0
142
1.0
143
1.0
 70
1024
 72
1
 73
0
 74
0
  7

 75
0
147
1.0
148
0.0
149
0.0
100
AcDbLayout
  1
Model
 70
0
 71
0
 10
0.0
 20
0.0
 11
297.0
 21
210.0
 12
0.0
 22
0.0
 32
0.0
 14
0.0
 24
0.0
 34
0.0
 15
0.0
 25
0.0
 35
0.0
146
0.0
 13
0.0
 23
0.0
 33
0.0
 16
1.0
 26
0.0
 36
0.0
 17
0.0
 27
1.0
 37
0.0
 76
0
330
20A
345
0
346
0
  0
LAYOUT
  5
296
102
{ACAD_REACTORS
330
1A
102
}
100
AcDbPlotSettings
  1

  2
none_device
  4
ISO_A4_(297.00_x_210.00_MM)
  6

 40
0.0
 41
0.0
 42
0.0
 43
0.0
 44
297.0
 45
210.0
 46
0.0
 47
0.0
 48
0.0
 49
0.0
140
0.0
141
0.0
142
1.0
143
1.0
 70
0
 72
1
 73
0
 74
0
  7

 75
0
147
1.0
148
0.0
149
0.0
100
AcDbLayout
  1
Layout1
 70
0
 71
1
 10
0.0
 20
0.0
 11
297.0
 21
210.0
 12
0.0
 22
0.0
 32
0.0
 14
0.0
 24
0.0
 34
0.0
 15
0.0
 25
0.0
 35
0.0
146
0.0
 13
0.0
 23
0.0
 33
0.0
 16
1.0
 26
0.0
 36
0.0
 17
0.0
 27
1.0
 37
0.0
 76
0
330
20B
345
0
346
0
  0
TABLESTYLE
  5
297
102
{ACAD_REACTORS
330
294
330
251
102
}
330
294
100
AcDbTableStyle
  3
Standard
 70
0
 71
0
 40
0.06
 41
0.06
280
1
281
1
  7
Standard
140
0.18
170
1
 62
0
 63
7
283
0
  7
Standard
140
0.18
170
1
 62
0
 63
7
283
0
  7
Standard
140
0.18
170
1
 62
0
 63
7
283
0
  0
TABLESTYLE
  5
298
102
{ACAD_REACTORS
330
294
102
}
330
294
100
AcDbTableStyle
  3
Standard1
 70
1
 71
0
 40
0.06
 41
0.06
280
1
281
1
  7
Standard
140
0.18
170
1
 62
0
 63
7
283
0
  7
Standard
140
0.18
170
1
 62
0
 63
7
283
0
  7
Standard
140
0.18
170
1
 62
0
 63
7
283
0
  0
ENDSEC
  0
EOF
