999
DXF file: O:\ORAC_PRODUCTEN\ORAC_LIJN6\P-TYPE\P6020\p6020-prodd-inches.dxf
999
Pro/ENGINEER 2016130 by Parametric Technology Corporation
  0
SECTION
  2
HEADER
  9
$ACADVER
  1
AC1024
  9
$DWGCODEPAGE
  3
ANSI_1250
  9
$EXTMAX
 10
297.0
 20
210.0
 30
0.0
  9
$EXTMIN
 10
0.0
 20
0.0
 30
0.0
  9
$LIMMIN
 10
0.0
 20
0.0
  9
$LIMMAX
 10
297.0
 20
210.0
  9
$VIEWCTR
 10
148.5
 20
105.0
  9
$VIEWSIZE
 40
210.0
  9
$CLAYER
  8
0
  9
$LTSCALE
 40
16.335
  9
$CELTYPE
  6
BYLAYER
  9
$DIMSCALE
 40
1.0
  9
$DIMASZ
 40
3.5
  9
$DIMEXO
 40
1.0
  9
$DIMDLI
 40
11.286
  9
$DIMEXE
 40
1.5
  9
$DIMCEN
 40
2.673
  9
$DIMLFAC
 40
1.0
  9
$DIMBLK
  1
_FILLED
  9
$DIMALT
 70
0
  9
$DIMALTF
 40
0.0393700787
  9
$DIMTXT
 40
2.5
  9
$DIMTOL
 70
1
  9
$DIMLIM
 70
0
  9
$DIMTFAC
 40
1.0
  9
$DIMTP
 40
0.001
  9
$DIMTM
 40
0.001
  9
$DIMGAP
 40
0.625
  9
$DIMDSEP
 70
44
  9
$AUNITS
 70
0
  9
$PDMODE
 70
3
  9
$PDSIZE
 40
8.0
  9
$HANDSEED
  5
470
  9
$TILEMODE
 70
1
  9
$MEASUREMENT
 70
1
  9
$INSUNITS
 70
4
  0
ENDSEC
  0
SECTION
  2
CLASSES
  0
CLASS
  1
ACDBDICTIONARYWDFLT
  2
AcDbDictionaryWithDefault
  3
AutoCAD 2000
 90
0
 91
1
280
0
281
0
  0
CLASS
  1
ACDBPLACEHOLDER
  2
AcDbPlaceHolder
  3
AutoCAD 2000
 90
0
 91
1
280
0
281
0
  0
CLASS
  1
LAYOUT
  2
AcDbLayout
  3
AutoCAD 2000
 90
0
 91
0
280
0
281
0
  0
CLASS
  1
TABLESTYLE
  2
AcDbTableStyle
  3
ObjectDBX Classes
 90
2047
 91
1
280
0
281
0
  0
CLASS
  1
ACAD_TABLE
  2
AcDbTable
  3
ObjectDBX Classes
 90
1025
 91
1
280
0
281
1
  0
ENDSEC
  0
SECTION
  2
TABLES
  0
TABLE
  2
VPORT
  5
8
100
AcDbSymbolTable
 70
2
  0
VPORT
  5
1F4
100
AcDbSymbolTableRecord
100
AcDbViewportTableRecord
  2
*ACTIVE
 70
0
 10
0.0
 20
0.0
 11
1.0
 21
1.0
 12
148.5
 22
105.0
 13
0.0
 23
0.0
 14
1.0
 24
1.0
 15
0.0
 25
0.0
 16
0.0
 26
0.0
 36
1.0
 17
0.0
 27
0.0
 37
0.0
 40
210.0
 41
1.4142857143
 42
50.0
 43
0.0
 44
0.0
 50
0.0
 51
0.0
 71
0
 72
100
 73
1
 74
1
 75
0
 76
0
 77
0
 78
0
  0
ENDTAB
  0
TABLE
  2
LTYPE
  5
5
100
AcDbSymbolTable
 70
6
  0
LTYPE
  5
14
100
AcDbSymbolTableRecord
100
AcDbLinetypeTableRecord
  2
BYBLOCK
 70
0
  3

 72
65
 73
0
 40
0.0
  0
LTYPE
  5
15
100
AcDbSymbolTableRecord
100
AcDbLinetypeTableRecord
  2
BYLAYER
 70
0
  3

 72
65
 73
0
 40
0.0
  0
LTYPE
  5
16
100
AcDbSymbolTableRecord
100
AcDbLinetypeTableRecord
  2
CONTINUOUS
 70
64
  3
Solid line
 72
65
 73
0
 40
0.0
  0
LTYPE
  5
1F5
100
AcDbSymbolTableRecord
100
AcDbLinetypeTableRecord
  2
CENTER
 70
64
  3
____ _ ____ _ ____ _ ____ _ ____ _ ____ _ ____
 72
65
 73
4
 40
0.6
 49
0.375
 74
0
 49
-0.075
 74
0
 49
0.075
 74
0
 49
-0.075
 74
0
  0
LTYPE
  5
1F6
100
AcDbSymbolTableRecord
100
AcDbLinetypeTableRecord
  2
HIDDEN
 70
64
  3
- - - - - - - - - - - - - - - - - - - -
 72
65
 73
2
 40
0.2
 49
0.1
 74
0
 49
-0.1
 74
0
  0
LTYPE
  5
1F7
100
AcDbSymbolTableRecord
100
AcDbLinetypeTableRecord
  2
PHANTOM
 70
64
  3
_____ _ _ _____ _ _ _____ _ _ _____
 72
65
 73
6
 40
0.8
 49
0.45
 74
0
 49
-0.05
 74
0
 49
0.1
 74
0
 49
-0.05
 74
0
 49
0.1
 74
0
 49
-0.05
 74
0
  0
LTYPE
  5
1F8
100
AcDbSymbolTableRecord
100
AcDbLinetypeTableRecord
  2
DOT
 70
64
  3
. . . . . . . . . . . . . . . . . . . .
 72
65
 73
2
 40
0.2
 49
0.1
 74
0
 49
-0.1
 74
0
  0
LTYPE
  5
1F9
100
AcDbSymbolTableRecord
100
AcDbLinetypeTableRecord
  2
DASHED
 70
64
  3
- - - - - - - - - - - - - - - - - - - -
 72
65
 73
2
 40
0.2
 49
0.1
 74
0
 49
-0.1
 74
0
  0
ENDTAB
  0
TABLE
  2
LAYER
  5
2
100
AcDbSymbolTable
 70
36
  0
LAYER
  5
10
100
AcDbSymbolTableRecord
100
AcDbLayerTableRecord
  2
0
 70
0
 62
7
  6
CONTINUOUS
370
-3
390
F
  0
LAYER
  5
1FA
100
AcDbSymbolTableRecord
100
AcDbLayerTableRecord
  2
DEFAULT_1
 70
0
 62
7
  6
CENTER
370
-3
390
F
  0
LAYER
  5
1FB
100
AcDbSymbolTableRecord
100
AcDbLayerTableRecord
  2
DEFAULT_2
 70
0
 62
8
  6
HIDDEN
370
-3
390
F
  0
LAYER
  5
1FC
100
AcDbSymbolTableRecord
100
AcDbLayerTableRecord
  2
DEFAULT_3
 70
0
 62
7
  6
PHANTOM
370
-3
390
F
  0
LAYER
  5
1FD
100
AcDbSymbolTableRecord
100
AcDbLayerTableRecord
  2
DTM_ALL
 70
0
 62
7
  6
CONTINUOUS
370
-3
390
F
  0
LAYER
  5
1FE
100
AcDbSymbolTableRecord
100
AcDbLayerTableRecord
  2
DTM_AXIS
 70
0
 62
7
  6
CONTINUOUS
370
-3
390
F
  0
LAYER
  5
1FF
100
AcDbSymbolTableRecord
100
AcDbLayerTableRecord
  2
DTM_CSYS
 70
0
 62
7
  6
CONTINUOUS
370
-3
390
F
  0
LAYER
  5
200
100
AcDbSymbolTableRecord
100
AcDbLayerTableRecord
  2
DTM_CURVE
 70
0
 62
7
  6
CONTINUOUS
370
-3
390
F
  0
LAYER
  5
201
100
AcDbSymbolTableRecord
100
AcDbLayerTableRecord
  2
DTM_MASTER
 70
0
 62
7
  6
CONTINUOUS
370
-3
390
F
  0
LAYER
  5
202
100
AcDbSymbolTableRecord
100
AcDbLayerTableRecord
  2
DTM_POINT
 70
0
 62
7
  6
CONTINUOUS
370
-3
390
F
  0
LAYER
  5
203
100
AcDbSymbolTableRecord
100
AcDbLayerTableRecord
  2
DTM_QUILT
 70
0
 62
7
  6
CONTINUOUS
370
-3
390
F
  0
LAYER
  5
204
100
AcDbSymbolTableRecord
100
AcDbLayerTableRecord
  2
GTOL
 70
0
 62
7
  6
CONTINUOUS
370
-3
390
F
  0
LAYER
  5
205
100
AcDbSymbolTableRecord
100
AcDbLayerTableRecord
  2
NOTES
 70
0
 62
7
  6
CONTINUOUS
370
-3
390
F
  0
ENDTAB
  0
TABLE
  2
STYLE
  5
3
100
AcDbSymbolTable
 70
1
  0
STYLE
  5
11
100
AcDbSymbolTableRecord
100
AcDbTextStyleTableRecord
  2
STANDARD
 70
0
 40
0.0
 41
1.0
 50
0.0
 71
0
 42
0.2
  3
cgtime.ttf
  4

  0
STYLE
  5
206
100
AcDbSymbolTableRecord
100
AcDbTextStyleTableRecord
  2
TEXTSTYLE_1
 70
0
 40
0.0
 41
0.8
 50
0.0
 71
0
 42
0.2
  3
gdt
  4

  0
STYLE
  5
207
100
AcDbSymbolTableRecord
100
AcDbTextStyleTableRecord
  2
TEXTSTYLE_2
 70
0
 40
0.0
 41
1.0
 50
0.0
 71
0
 42
0.2
  3
trium.ttf
  4

  0
STYLE
  5
208
100
AcDbSymbolTableRecord
100
AcDbTextStyleTableRecord
  2
TEXTSTYLE_3
 70
0
 40
0.0
 41
1.0
 50
0.0
 71
0
 42
0.2
  3
calibri.ttf
  4

  0
ENDTAB
  0
TABLE
  2
VIEW
  5
6
100
AcDbSymbolTable
 70
0
  0
ENDTAB
  0
TABLE
  2
UCS
  5
7
100
AcDbSymbolTable
 70
0
  0
ENDTAB
  0
TABLE
  2
APPID
  5
9
100
AcDbSymbolTable
 70
1
  0
APPID
  5
209
100
AcDbSymbolTableRecord
100
AcDbRegAppTableRecord
  2
ACAD
 70
0
  0
ENDTAB
  0
TABLE
  2
BLOCK_RECORD
  5
1
100
AcDbSymbolTable
 70
0
  0
BLOCK_RECORD
  5
20A
100
AcDbSymbolTableRecord
100
AcDbBlockTableRecord
  2
*Model_Space
  0
BLOCK_RECORD
  5
20B
100
AcDbSymbolTableRecord
100
AcDbBlockTableRecord
  2
*Paper_Space
  0
BLOCK_RECORD
  5
20C
100
AcDbSymbolTableRecord
100
AcDbBlockTableRecord
  2
_FILLED
  0
BLOCK_RECORD
  5
20D
100
AcDbSymbolTableRecord
100
AcDbBlockTableRecord
  2
*D0
  0
BLOCK_RECORD
  5
20E
100
AcDbSymbolTableRecord
100
AcDbBlockTableRecord
  2
*D1
  0
BLOCK_RECORD
  5
20F
100
AcDbSymbolTableRecord
100
AcDbBlockTableRecord
  2
*T1
  0
ENDTAB
  0
TABLE
  2
DIMSTYLE
  5
A
100
AcDbSymbolTable
 70
1
100
AcDbDimStyleTable
 71
0
  0
DIMSTYLE
105
210
100
AcDbSymbolTableRecord
100
AcDbDimStyleTableRecord
  2
STANDARD
 70
0
  3

  4

 40
1.0
 41
3.5
 42
1.0
 43
0.38
 44
1.5
 45
0.0
 46
0.0
 47
0.001
 48
0.001
140
2.5
141
0.09
142
0.0
143
25.4
144
1.0
145
0.0
146
1.0
147
0.625
 71
1.0
 72
0.0
 73
1
 74
1
 75
0
 76
0
 77
0
 78
8
170
0
171
2
172
0
173
0
174
0
175
0
176
0
177
0
178
0
270
2
271
3
272
3
273
2
274
2
275
0
280
0
281
0
282
0
283
1
284
8
285
0
286
0
287
3
288
0
340
11
278
44
341
20C
342
20C
343
20C
344
20C
  0
DIMSTYLE
105
211
100
AcDbSymbolTableRecord
100
AcDbDimStyleTableRecord
  2
DIMSTYLE_1
 70
0
  3

  4

 40
1.0
 41
3.5
 42
1.0
 43
0.38
 44
1.5
 45
0.0
 46
0.0
 47
0.0
 48
0.0
140
2.5
141
0.09
142
0.0
143
25.4
144
1.0
145
0.0
146
1.0
147
1.25
 71
0.0
 72
0.0
 73
1
 74
1
 75
0
 76
0
 77
0
 78
8
170
0
171
2
172
0
173
0
174
0
175
0
176
0
177
0
178
0
270
2
271
0
272
0
273
2
274
2
275
0
280
0
281
0
282
0
283
1
284
8
285
0
286
0
287
3
288
0
340
11
278
44
341
20C
342
20C
343
20C
344
20C
  0
ENDTAB
  0
ENDSEC
  0
SECTION
  2
BLOCKS
  0
BLOCK
  5
20
100
AcDbEntity
  8
0
100
AcDbBlockBegin
  2
*Model_Space
 70
0
 10
0.0
 20
0.0
 30
0.0
  3
*Model_Space
  1

  0
ENDBLK
  5
21
100
AcDbEntity
  8
0
100
AcDbBlockEnd
  0
BLOCK
  5
1C
100
AcDbEntity
  8
0
100
AcDbBlockBegin
  2
*Paper_Space
 70
0
 10
0.0
 20
0.0
 30
0.0
  3
*Paper_Space
  1

  0
ENDBLK
  5
1D
100
AcDbEntity
  8
0
100
AcDbBlockEnd
  0
BLOCK
  5
212
100
AcDbEntity
  8
0
100
AcDbBlockBegin
  2
_FILLED
 70
64
 10
0.0
 20
0.0
  3
_FILLED
  1

  0
SOLID
  5
213
100
AcDbEntity
  8
0
  6
BYBLOCK
 62
0
100
AcDbTrace
 10
0.0
 20
0.0
 11
-1.0
 21
0.2142857143
 12
-1.0
 22
-0.2142857143
 13
-1.0
 23
-0.2142857143
  0
ENDBLK
  5
214
100
AcDbEntity
  8
0
  6
BYBLOCK
 62
0
100
AcDbBlockEnd
  0
BLOCK
  5
215
100
AcDbEntity
  8
0
100
AcDbBlockBegin
 62
2
  6
CONTINUOUS
  2
*D0
 70
65
 10
0.0
 20
0.0
  3
*D0
  1

  0
TEXT
  5
216
100
AcDbEntity
  8
0
100
AcDbText
 62
2
  6
CONTINUOUS
 10
52.8730617517
 20
112.9071094613
  7
STANDARD
 40
2.5
  1
64
 72
5
 11
56.5111940474
 21
112.9071094613
100
AcDbText
  0
TEXT
  5
217
100
AcDbEntity
  8
0
100
AcDbText
 62
2
  6
CONTINUOUS
 10
56.5111940474
 20
112.9071094613
  7
STANDARD
 40
2.5
  1
mm
 72
5
 11
62.1824002731
 21
112.9071094613
100
AcDbText
  0
TEXT
  5
218
100
AcDbEntity
  8
0
100
AcDbText
 62
2
  6
CONTINUOUS
 10
52.7417387945
 20
109.1571094613
  7
STANDARD
 40
2.5
  1
2-1/2"
 72
5
 11
62.3137232303
 21
109.1571094613
100
AcDbText
  0
LINE
  5
219
100
AcDbEntity
  8
0
100
AcDbLine
 62
2
  6
CONTINUOUS
 10
66.8009729279
 20
145.9071094613
 11
56.0277310124
 21
145.9071094613
  0
LINE
  5
21A
100
AcDbEntity
  8
0
100
AcDbLine
 62
2
  6
CONTINUOUS
 10
66.8009729279
 20
82.4071094613
 11
56.0277310124
 21
82.4071094613
  0
LINE
  5
21B
100
AcDbEntity
  8
0
100
AcDbLine
 62
2
  6
CONTINUOUS
 10
57.5277310124
 20
145.9071094613
 11
57.5277310124
 21
116.6571094613
  0
LINE
  5
21C
100
AcDbEntity
  8
0
100
AcDbLine
 62
2
  6
CONTINUOUS
 10
57.5277310124
 20
82.4071094613
 11
57.5277310124
 21
107.9071094613
  0
INSERT
  5
21D
100
AcDbEntity
  8
0
100
AcDbBlockReference
 62
2
  6
CONTINUOUS
  2
_FILLED
 10
57.5277310124
 20
145.9071094613
 41
3.5
 42
3.5
 43
3.5
 50
90.0
  0
INSERT
  5
21E
100
AcDbEntity
  8
0
100
AcDbBlockReference
 62
2
  6
CONTINUOUS
  2
_FILLED
 10
57.5277310124
 20
82.4071094613
 41
3.5
 42
3.5
 43
3.5
 50
270.0
  0
ENDBLK
  5
21F
100
AcDbEntity
  8
0
  6
BYBLOCK
 62
0
100
AcDbBlockEnd
  0
BLOCK
  5
220
100
AcDbEntity
  8
0
100
AcDbBlockBegin
 62
2
  6
CONTINUOUS
  2
*D1
 70
65
 10
0.0
 20
0.0
  3
*D1
  1

  0
TEXT
  5
221
100
AcDbEntity
  8
0
100
AcDbText
 62
2
  6
CONTINUOUS
 10
77.1673152124
 20
152.7567421461
  7
STANDARD
 40
2.5
  1
28
 72
5
 11
80.8054475081
 21
152.7567421461
100
AcDbText
  0
TEXT
  5
222
100
AcDbEntity
  8
0
100
AcDbText
 62
2
  6
CONTINUOUS
 10
80.8054475081
 20
152.7567421461
  7
STANDARD
 40
2.5
  1
mm
 72
5
 11
86.4766537338
 21
152.7567421461
100
AcDbText
  0
TEXT
  5
223
100
AcDbEntity
  8
0
100
AcDbText
 62
2
  6
CONTINUOUS
 10
77.8774319439
 20
149.0067421461
  7
STANDARD
 40
2.5
  1
1-1/8
 72
5
 11
85.7665370023
 21
149.0067421461
100
AcDbText
  0
LINE
  5
224
100
AcDbEntity
  8
0
100
AcDbLine
 62
2
  6
CONTINUOUS
 10
67.8009729279
 20
146.9071094613
 11
67.8009729279
 21
155.5067421461
  0
LINE
  5
225
100
AcDbEntity
  8
0
100
AcDbLine
 62
2
  6
CONTINUOUS
 10
95.8429960184
 20
130.7040982933
 11
95.8429960184
 21
155.5067421461
  0
LINE
  5
226
100
AcDbEntity
  8
0
100
AcDbLine
 62
2
  6
CONTINUOUS
 10
67.8009729279
 20
154.0067421461
 11
75.9173152124
 21
154.0067421461
  0
LINE
  5
227
100
AcDbEntity
  8
0
100
AcDbLine
 62
2
  6
CONTINUOUS
 10
95.8429960184
 20
154.0067421461
 11
87.7266537338
 21
154.0067421461
  0
INSERT
  5
228
100
AcDbEntity
  8
0
100
AcDbBlockReference
 62
2
  6
CONTINUOUS
  2
_FILLED
 10
67.8009729279
 20
154.0067421461
 41
3.5
 42
3.5
 43
3.5
 50
180.0
  0
INSERT
  5
229
100
AcDbEntity
  8
0
100
AcDbBlockReference
 62
2
  6
CONTINUOUS
  2
_FILLED
 10
95.8429960184
 20
154.0067421461
 41
3.5
 42
3.5
 43
3.5
  0
ENDBLK
  5
22A
100
AcDbEntity
  8
0
  6
BYBLOCK
 62
0
100
AcDbBlockEnd
  0
BLOCK
  5
22B
100
AcDbEntity
  8
0
100
AcDbBlockBegin
  2
*T1
 70
1
 10
0.0
 20
0.0
  3
*T1
  1

  0
LINE
  5
22C
100
AcDbEntity
  8
0
100
AcDbLine
 62
7
  6
CONTINUOUS
 10
0.0
 20
0.0
 11
148.0
 21
0.0
  0
LINE
  5
22D
100
AcDbEntity
  8
0
100
AcDbLine
 62
7
  6
CONTINUOUS
 10
0.0
 20
0.0
 11
0.0
 21
-43.0
  0
LINE
  5
22E
100
AcDbEntity
  8
0
100
AcDbLine
 62
7
  6
CONTINUOUS
 10
45.0
 20
-23.0
 11
148.0
 21
-23.0
  0
LINE
  5
22F
100
AcDbEntity
  8
0
100
AcDbLine
 62
7
  6
CONTINUOUS
 10
45.0
 20
-28.0
 11
148.0
 21
-28.0
  0
LINE
  5
230
100
AcDbEntity
  8
0
100
AcDbLine
 62
7
  6
CONTINUOUS
 10
0.0
 20
-43.0
 11
148.0
 21
-43.0
  0
LINE
  5
231
100
AcDbEntity
  8
0
100
AcDbLine
 62
7
  6
CONTINUOUS
 10
45.0
 20
0.0
 11
45.0
 21
-43.0
  0
LINE
  5
232
100
AcDbEntity
  8
0
100
AcDbLine
 62
7
  6
CONTINUOUS
 10
143.0
 20
0.0
 11
143.0
 21
-23.0
  0
LINE
  5
233
100
AcDbEntity
  8
0
100
AcDbLine
 62
7
  6
CONTINUOUS
 10
148.0
 20
0.0
 11
148.0
 21
-43.0
  0
TEXT
  5
234
100
AcDbEntity
  8
0
100
AcDbText
 62
7
  6
CONTINUOUS
 10
8.9659749243
 20
-10.675
  7
STANDARD
 40
8.0
  1
O
 72
5
 11
17.370644185
 21
-10.675
100
AcDbText
  0
TEXT
  5
235
100
AcDbEntity
  8
0
100
AcDbText
 62
7
  6
CONTINUOUS
 10
17.370644185
 20
-10.675
  7
STANDARD
 40
5.5
  1
RAC
 72
5
 11
33.9562472979
 21
-10.675
100
AcDbText
  0
TEXT
  5
236
100
AcDbEntity
  8
0
100
AcDbText
 62
7
  6
CONTINUOUS
 10
33.9562472979
 20
-5.925
  7
TEXTSTYLE_2
 40
3.0
  1
®
 72
5
 11
36.0340250757
 21
-5.925
100
AcDbText
  0
TEXT
  5
237
100
AcDbEntity
  8
0
100
AcDbText
 62
7
  6
CONTINUOUS
 10
9.5323389537
 20
-15.325
  7
TEXTSTYLE_2
 40
3.0
  1
D  E  C  O  R
 72
5
 11
34.3878945093
 21
-15.325
100
AcDbText
  0
TEXT
  5
238
100
AcDbEntity
  8
0
100
AcDbText
 62
7
  6
CONTINUOUS
 10
34.3878945093
 20
-15.325
  7
STANDARD
 40
2.5
  1
 
 72
5
 11
35.4676610463
 21
-15.325
100
AcDbText
  0
TEXT
  5
239
100
AcDbEntity
  8
0
100
AcDbText
 62
7
  6
CONTINUOUS
 10
52.5257352941
 20
-6.0
  7
TEXTSTYLE_3
 40
2.75
  1
Part name:
 72
5
 11
71.9375
 21
-6.0
100
AcDbText
  0
TEXT
  5
23A
100
AcDbEntity
  8
0
100
AcDbText
 62
7
  6
CONTINUOUS
 10
49.2788865546
 20
-12.875
  7
TEXTSTYLE_3
 40
2.75
  1
Designed by:
 72
5
 11
71.9375
 21
-12.875
100
AcDbText
  0
TEXT
  5
23B
100
AcDbEntity
  8
0
100
AcDbText
 62
7
  6
CONTINUOUS
 10
48.9553571429
 20
-19.75
  7
TEXTSTYLE_3
 40
2.75
  1
Designed on:
 72
5
 11
71.9375
 21
-19.75
100
AcDbText
  0
TEXT
  5
23C
100
AcDbEntity
  8
0
100
AcDbText
 62
2
  6
CONTINUOUS
 10
74.0625
 20
-6.0
  7
TEXTSTYLE_3
 40
2.75
  1
P6020
 72
5
 11
85.0856092437
 21
-6.0
100
AcDbText
  0
TEXT
  5
23D
100
AcDbEntity
  8
0
100
AcDbText
 62
2
  6
CONTINUOUS
 10
74.0625
 20
-12.875
  7
TEXTSTYLE_3
 40
2.75
  1
ORAC
 72
5
 11
84.1034663866
 21
-12.875
100
AcDbText
  0
TEXT
  5
23E
100
AcDbEntity
  8
0
100
AcDbText
 62
2
  6
CONTINUOUS
 10
74.0625
 20
-19.75
  7
TEXTSTYLE_3
 40
2.75
  1
10-Feb-2005
 72
5
 11
96.3167016807
 21
-19.75
100
AcDbText
  0
TEXT
  5
23F
100
AcDbEntity
  8
0
100
AcDbText
 62
2
  6
CONTINUOUS
 10
96.3167016807
 20
-19.75
  7
TEXTSTYLE_3
 40
2.75
  1
 
 72
5
 11
97.2988445378
 21
-19.75
100
AcDbText
  0
TEXT
  5
240
100
AcDbEntity
  8
0
100
AcDbText
 62
2
  6
CONTINUOUS
 10
146.5625
 20
-17.5
  7
TEXTSTYLE_3
 40
1.5
  1
Version: 
 50
90.0
 72
5
 11
146.5625
 21
-9.0294117647
100
AcDbText
  0
TEXT
  5
241
100
AcDbEntity
  8
0
100
AcDbText
 62
2
  6
CONTINUOUS
 10
146.5625
 20
-9.0294117647
  7
TEXTSTYLE_3
 40
1.5
  1
1.0
 50
90.0
 72
5
 11
146.5625
 21
-6.0357142857
100
AcDbText
  0
TEXT
  5
242
100
AcDbEntity
  8
0
100
AcDbText
 62
2
  6
CONTINUOUS
 10
146.5625
 20
-6.0357142857
  7
TEXTSTYLE_3
 40
1.5
  1
 
 50
90.0
 72
5
 11
146.5625
 21
-5.5
100
AcDbText
  0
TEXT
  5
243
100
AcDbEntity
  8
0
100
AcDbText
 62
7
  6
CONTINUOUS
 10
9.6586134454
 20
-24.25
  7
TEXTSTYLE_3
 40
2.5
  1
Biekorfstraat 32
 72
5
 11
35.3413865546
 21
-24.25
100
AcDbText
  0
TEXT
  5
244
100
AcDbEntity
  8
0
100
AcDbText
 62
7
  6
CONTINUOUS
 10
2.2584033613
 20
-28.0
  7
TEXTSTYLE_3
 40
2.5
  1
8400 Oostende - Belgium
 72
5
 11
42.7415966387
 21
-28.0
100
AcDbText
  0
TEXT
  5
245
100
AcDbEntity
  8
0
100
AcDbText
 62
7
  6
CONTINUOUS
 10
4.2699579832
 20
-31.75
  7
TEXTSTYLE_3
 40
2.5
  1
Tel  +32 (0)59 80 32 52
 72
5
 11
40.7300420168
 21
-31.75
100
AcDbText
  0
TEXT
  5
246
100
AcDbEntity
  8
0
100
AcDbText
 62
7
  6
CONTINUOUS
 10
5.7405462185
 20
-35.5
  7
TEXTSTYLE_3
 40
2.5
  1
www.oracdecor.com
 72
5
 11
39.2594537815
 21
-35.5
100
AcDbText
  0
TEXT
  5
247
100
AcDbEntity
  8
0
100
AcDbText
 62
7
  6
CONTINUOUS
 10
5.5777310924
 20
-39.25
  7
TEXTSTYLE_3
 40
2.5
  1
info@oracdecor.com
 72
5
 11
39.4222689076
 21
-39.25
100
AcDbText
  0
TEXT
  5
248
100
AcDbEntity
  8
0
100
AcDbText
 62
7
  6
CONTINUOUS
 10
46.0625
 20
-26.75
  7
TEXTSTYLE_3
 40
2.5
  1
All dimensions are in mm unless otherwise specified   
 72
5
 11
132.3019957983
 21
-26.75
100
AcDbText
  0
TEXT
  5
249
100
AcDbEntity
  8
0
100
AcDbText
 62
7
  6
CONTINUOUS
 10
46.0625
 20
-31.7075
  7
TEXTSTYLE_3
 40
1.85
  1
All information in this document is Orac's exclusive property.  It may in no case 
 72
5
 11
140.0471638655
 21
-31.7075
100
AcDbText
  0
TEXT
  5
24A
100
AcDbEntity
  8
0
100
AcDbText
 62
7
  6
CONTINUOUS
 10
46.0625
 20
-34.8525
  7
TEXTSTYLE_3
 40
1.85
  1
be reproduced, even partly, be communicated to a third party or used for any 
 72
5
 11
138.8345588235
 21
-34.8525
100
AcDbText
  0
TEXT
  5
24B
100
AcDbEntity
  8
0
100
AcDbText
 62
7
  6
CONTINUOUS
 10
46.0625
 20
-37.9975
  7
TEXTSTYLE_3
 40
1.85
  1
possible purpose without ORAC's express written permission. 
 72
5
 11
119.4484243697
 21
-37.9975
100
AcDbText
  0
TEXT
  5
24C
100
AcDbEntity
  8
0
100
AcDbText
 62
7
  6
CONTINUOUS
 10
46.0625
 20
-41.1425
  7
TEXTSTYLE_3
 40
1.85
  1
Further legal information can be found at http://www.oracdecor.be/nl/disclaimer 
 72
5
 11
143.7316176471
 21
-41.1425
100
AcDbText
  0
ENDBLK
  5
24D
100
AcDbEntity
  8
0
  6
BYBLOCK
 62
0
100
AcDbBlockEnd
  0
ENDSEC
  0
SECTION
  2
ENTITIES
  0
DIMENSION
  5
24E
100
AcDbEntity
  8
0
100
AcDbDimension
 62
2
  6
CONTINUOUS
  2
*D0
 10
57.5277310124
 20
82.4071094613
 11
57.5277310124
 21
112.2821094613
 70
160
 71
2
 42
63.5
  1
<>mm\P2-1/2"
  3
DIMSTYLE_1
100
AcDbAlignedDimension
 13
67.8009729279
 23
145.9071094613
 14
67.8009729279
 24
82.4071094613
 50
270.0
100
AcDbRotatedDimension
  0
DIMENSION
  5
24F
100
AcDbEntity
  8
0
100
AcDbDimension
 62
2
  6
CONTINUOUS
  2
*D1
 10
95.8429960184
 20
154.0067421461
 11
81.8219844731
 21
152.1317421461
 70
160
 71
2
 42
28.0420230905
  1
<>mm\P1-1/8
  3
DIMSTYLE_1
100
AcDbAlignedDimension
 13
67.8009729279
 23
145.9071094613
 14
95.8429960184
 24
129.7040982933
100
AcDbRotatedDimension
  0
ACAD_TABLE
  5
250
100
AcDbEntity
  8
0
 62
2
  6
CONTINUOUS
100
AcDbBlockReference
  2
*T1
 10
143.9999958937
 20
47.9999925619
 30
0.0
100
AcDbTable
342
       46E
343
20F
 11
1.0
 21
0.0
 31
0.0
 90
22
 91
4
 92
4
 93
0
 94
0
 95
0
 96
0
141
18.0
141
5.0
141
5.0
141
15.0
142
45.0
142
28.0
142
70.0
142
5.0
171
1
172
0
173
0
174
0
175
1
176
1
 91
41
178
0
145
0.0
301
CELL_VALUE
 90
4
  1
\A1;O\H5.5;RAC\Ftrium.ttf;\H3.0;\S®^ ;\PD  E  C  O  R\Fcgtime.ttf;\H2.5; 
304
ACVALUE_END
170
5
140
8.0
 64
7
171
1
172
0
173
0
174
0
175
1
176
2
 91
57
178
0
145
0.0
  7
TEXTSTYLE_3
301
CELL_VALUE
 90
4
  1
Part name:\PDesigned by:\PDesigned on:
304
ACVALUE_END
170
6
140
2.75
 64
7
171
1
172
0
173
0
174
0
175
1
176
2
 91
49
178
0
145
0.0
  7
TEXTSTYLE_3
301
CELL_VALUE
 90
4
  1
P6020\PORAC\P10-Feb-2005 
304
ACVALUE_END
170
4
140
2.75
171
1
172
0
173
0
174
0
175
1
176
2
 91
49
178
0
145
0.0
  7
TEXTSTYLE_3
301
CELL_VALUE
 90
4
  1
Version: 1.0 
304
ACVALUE_END
170
6
140
1.5
171
1
172
0
173
0
174
0
175
1
176
3
 91
57
178
0
145
0.0
  7
TEXTSTYLE_3
301
CELL_VALUE
 90
4
  1
Biekorfstraat 32\P8400 Oostende - Belgium\PTel  +32 (0)59 80 32 52\Pwww.oracdecor.com\Pinfo@oracdecor.com
304
ACVALUE_END
170
5
140
2.5
 64
7
171
1
172
0
173
1
174
0
175
1
176
1
 91
1
178
0
145
0.0
170
1
171
1
172
0
173
1
174
0
175
1
176
1
 91
1
178
0
145
0.0
170
1
171
1
172
0
173
1
174
0
175
1
176
1
 91
1
178
0
145
0.0
170
1
171
1
172
0
173
1
174
0
175
1
176
1
 91
1
178
0
145
0.0
170
1
171
1
172
0
173
0
174
0
175
3
176
1
 91
57
178
0
145
0.0
  7
TEXTSTYLE_3
301
CELL_VALUE
 90
4
  1
All dimensions are in mm unless otherwise specified   
304
ACVALUE_END
170
1
140
2.5
 64
7
171
1
172
0
173
1
174
0
175
1
176
1
 91
1
178
0
145
0.0
170
1
171
1
172
0
173
1
174
0
175
1
176
1
 91
1
178
0
145
0.0
170
1
171
1
172
0
173
1
174
0
175
1
176
1
 91
1
178
0
145
0.0
170
1
171
1
172
0
173
0
174
0
175
3
176
1
 91
57
178
0
145
0.0
  7
TEXTSTYLE_3
301
CELL_VALUE
 90
4
  2
All information in this document is Orac's exclusive property.  It may in no case \Pbe reproduced, even partly, be communicated to a third party or used for any \Ppossible purpose without ORAC's express written permission. \PFurther legal information
  1
 can be found at http://www.oracdecor.be/nl/disclaimer 
304
ACVALUE_END
170
4
140
1.85
 64
7
171
1
172
0
173
1
174
0
175
1
176
1
 91
1
178
0
145
0.0
170
1
171
1
172
0
173
1
174
0
175
1
176
1
 91
1
178
0
145
0.0
170
1
  0
LINE
  5
251
100
AcDbEntity
  8
0
100
AcDbLine
 62
5
  6
CONTINUOUS
 10
0.0
 20
0.0
 11
0.0
 21
210.0
  0
LINE
  5
252
100
AcDbEntity
  8
0
100
AcDbLine
 62
7
  6
CONTINUOUS
 10
5.0
 20
5.0
 11
5.0
 21
195.0
  0
LINE
  5
253
100
AcDbEntity
  8
0
100
AcDbLine
 62
5
  6
CONTINUOUS
 10
0.0
 20
0.0
 11
297.0
 21
0.0
  0
LINE
  5
254
100
AcDbEntity
  8
0
100
AcDbLine
 62
7
  6
CONTINUOUS
 10
5.0
 20
5.0
 11
292.0
 21
5.0
  0
LINE
  5
255
100
AcDbEntity
  8
0
100
AcDbLine
 62
4
  6
CONTINUOUS
 10
148.5
 20
195.0
 11
148.5
 21
205.0
  0
LINE
  5
256
100
AcDbEntity
  8
0
100
AcDbLine
 62
7
  6
CONTINUOUS
 10
5.0
 20
195.0
 11
292.0
 21
195.0
  0
LINE
  5
257
100
AcDbEntity
  8
0
100
AcDbLine
 62
5
  6
CONTINUOUS
 10
0.0
 20
210.0
 11
297.0
 21
210.0
  0
LINE
  5
258
100
AcDbEntity
  8
0
100
AcDbLine
 62
7
  6
CONTINUOUS
 10
292.0
 20
5.0
 11
292.0
 21
195.0
  0
LINE
  5
259
100
AcDbEntity
  8
0
100
AcDbLine
 62
5
  6
CONTINUOUS
 10
297.0
 20
0.0
 11
297.0
 21
210.0
  0
LINE
  5
25A
100
AcDbEntity
  8
0
100
AcDbLine
 62
7
  6
CONTINUOUS
 10
161.1976878154
 20
89.3986476619
 11
161.239962275
 21
83.6287376025
  0
LINE
  5
25B
100
AcDbEntity
  8
0
100
AcDbLine
 62
7
  6
CONTINUOUS
 10
161.2652963321
 20
80.1709706134
 11
161.3075707916
 21
74.401060554
  0
LINE
  5
25C
100
AcDbEntity
  8
0
100
AcDbLine
 62
7
  6
CONTINUOUS
 10
160.952282502
 20
122.8932588697
 11
160.9100080424
 21
128.6631689291
  0
LINE
  5
25D
100
AcDbEntity
  8
0
100
AcDbLine
 62
7
  6
CONTINUOUS
 10
160.8846739853
 20
132.1209359182
 11
160.8423995258
 21
137.8908459777
  0
LINE
  5
25E
100
AcDbEntity
  8
0
100
AcDbLine
 62
7
  6
CONTINUOUS
 10
166.3023531822
 20
74.5652373765
 11
166.2740101842
 21
78.433685392
  0
LINE
  5
25F
100
AcDbEntity
  8
0
100
AcDbLine
 62
7
  6
CONTINUOUS
 10
167.1685943937
 20
92.7119684543
 11
167.0432561541
 21
109.8189966001
  0
LINE
  5
260
100
AcDbEntity
  8
0
100
AcDbLine
 62
7
  6
CONTINUOUS
 10
161.3075707916
 20
74.401060554
 11
166.3023531822
 21
74.5652373765
  0
LINE
  5
261
100
AcDbEntity
  8
0
100
AcDbLine
 62
7
  6
CONTINUOUS
 10
175.1996825805
 20
87.5921044675
 11
175.1711130067
 21
91.4914771156
  0
LINE
  5
262
100
AcDbEntity
  8
0
100
AcDbLine
 62
7
  6
CONTINUOUS
 10
175.9738033518
 20
118.3120691273
 11
175.9692584147
 21
118.9323935249
  0
LINE
  5
263
100
AcDbEntity
  8
0
100
AcDbLine
 62
7
  6
CONTINUOUS
 10
177.6676484084
 20
91.5735373972
 11
177.5650909639
 21
105.5712853646
  0
LINE
  5
264
100
AcDbEntity
  8
DTM_AXIS
100
AcDbLine
 62
7
  6
CONTINUOUS
 10
177.7686917124
 20
105.577977653
 11
177.8706880213
 21
91.6568173372
  0
LINE
  5
265
100
AcDbEntity
  8
DTM_AXIS
100
AcDbLine
 62
7
  6
CONTINUOUS
 10
178.0951858727
 20
105.5887094065
 11
178.1962823446
 21
91.790365049
  0
LINE
  5
266
100
AcDbEntity
  8
DTM_AXIS
100
AcDbLine
 62
7
  6
CONTINUOUS
 10
178.5023873697
 20
105.6020939832
 11
178.6023615705
 21
91.9569249291
  0
LINE
  5
267
100
AcDbEntity
  8
DTM_AXIS
100
AcDbLine
 62
7
  6
CONTINUOUS
 10
178.8288815299
 20
105.6128257368
 11
178.9279558939
 21
92.0904726409
  0
LINE
  5
268
100
AcDbEntity
  8
DTM_AXIS
100
AcDbLine
 62
7
  6
CONTINUOUS
 10
179.2356098074
 20
105.6907985764
 11
179.3340351198
 21
92.257032521
  0
LINE
  5
269
100
AcDbEntity
  8
DTM_AXIS
100
AcDbLine
 62
7
  6
CONTINUOUS
 10
179.5612041307
 20
105.8243462882
 11
179.6596294431
 21
92.3905802328
  0
LINE
  5
26A
100
AcDbEntity
  8
DTM_AXIS
100
AcDbLine
 62
7
  6
CONTINUOUS
 10
179.9672833566
 20
105.9909061683
 11
180.065708669
 21
92.5571401128
  0
LINE
  5
26B
100
AcDbEntity
  8
DTM_AXIS
100
AcDbLine
 62
7
  6
CONTINUOUS
 10
180.29287768
 20
106.1244538801
 11
180.3913029923
 21
92.6906878247
  0
LINE
  5
26C
100
AcDbEntity
  8
DTM_AXIS
100
AcDbLine
 62
7
  6
CONTINUOUS
 10
180.6989569058
 20
106.2910137601
 11
180.7973822182
 21
92.8572477047
  0
LINE
  5
26D
100
AcDbEntity
  8
DTM_AXIS
100
AcDbLine
 62
7
  6
CONTINUOUS
 10
181.0245512292
 20
106.424561472
 11
181.1229765415
 21
92.9907954165
  0
LINE
  5
26E
100
AcDbEntity
  8
DTM_AXIS
100
AcDbLine
 62
7
  6
CONTINUOUS
 10
181.4306304551
 20
106.591121352
 11
181.5290557674
 21
93.1573552966
  0
LINE
  5
26F
100
AcDbEntity
  8
DTM_AXIS
100
AcDbLine
 62
7
  6
CONTINUOUS
 10
181.7562247784
 20
106.7246690638
 11
181.8546500907
 21
93.2909030084
  0
LINE
  5
270
100
AcDbEntity
  8
DTM_AXIS
100
AcDbLine
 62
7
  6
CONTINUOUS
 10
182.1623040043
 20
106.8912289439
 11
182.2607293166
 21
93.4574628885
  0
LINE
  5
271
100
AcDbEntity
  8
0
100
AcDbLine
 62
7
  6
CONTINUOUS
 10
242.0582447047
 20
171.2028219877
 11
160.8423995258
 21
137.8908459777
  0
LINE
  5
272
100
AcDbEntity
  8
DTM_AXIS
100
AcDbLine
 62
7
  6
CONTINUOUS
 10
182.4878983276
 20
107.0247766557
 11
182.58632364
 21
93.5910106003
  0
LINE
  5
273
100
AcDbEntity
  8
0
100
AcDbLine
 62
7
  6
CONTINUOUS
 10
182.521877417
 20
111.0382427698
 11
182.5072263535
 21
113.0379210509
  0
LINE
  5
274
100
AcDbEntity
  8
DTM_AXIS
100
AcDbLine
 62
7
  6
CONTINUOUS
 10
182.8939775535
 20
107.1913365358
 11
182.9924028658
 21
93.7575704803
  0
LINE
  5
275
100
AcDbEntity
  8
DTM_AXIS
100
AcDbLine
 62
7
  6
CONTINUOUS
 10
183.2195718768
 20
107.3248842476
 11
183.3179971892
 21
93.8911181922
  0
LINE
  5
276
100
AcDbEntity
  8
DTM_AXIS
100
AcDbLine
 62
7
  6
CONTINUOUS
 10
183.6256511027
 20
107.4914441276
 11
183.7240764151
 21
94.0576780722
  0
LINE
  5
277
100
AcDbEntity
  8
DTM_AXIS
100
AcDbLine
 62
7
  6
CONTINUOUS
 10
183.951245426
 20
107.6249918395
 11
184.0496707384
 21
94.191225784
  0
LINE
  5
278
100
AcDbEntity
  8
DTM_AXIS
100
AcDbLine
 62
7
  6
CONTINUOUS
 10
184.3573246519
 20
107.7915517195
 11
184.4557499643
 21
94.3577856641
  0
LINE
  5
279
100
AcDbEntity
  8
DTM_AXIS
100
AcDbLine
 62
7
  6
CONTINUOUS
 10
184.6829189753
 20
107.9250994313
 11
184.7813442876
 21
94.4913333759
  0
LINE
  5
27A
100
AcDbEntity
  8
DTM_AXIS
100
AcDbLine
 62
7
  6
CONTINUOUS
 10
185.0889982012
 20
108.0916593114
 11
185.1874235135
 21
94.657893256
  0
LINE
  5
27B
100
AcDbEntity
  8
DTM_AXIS
100
AcDbLine
 62
7
  6
CONTINUOUS
 10
185.4145925245
 20
108.2252070232
 11
185.5130178368
 21
94.7914409678
  0
LINE
  5
27C
100
AcDbEntity
  8
DTM_AXIS
100
AcDbLine
 62
7
  6
CONTINUOUS
 10
185.8206717504
 20
108.3917669033
 11
185.9190970627
 21
94.9580008478
  0
LINE
  5
27D
100
AcDbEntity
  8
DTM_AXIS
100
AcDbLine
 62
7
  6
CONTINUOUS
 10
186.1462660737
 20
108.5253146151
 11
186.244691386
 21
95.0915485597
  0
LINE
  5
27E
100
AcDbEntity
  8
DTM_AXIS
100
AcDbLine
 62
7
  6
CONTINUOUS
 10
186.5523452996
 20
108.6918744951
 11
186.6507706119
 21
95.2581084397
  0
LINE
  5
27F
100
AcDbEntity
  8
DTM_AXIS
100
AcDbLine
 62
7
  6
CONTINUOUS
 10
186.8779396229
 20
108.825422207
 11
186.9763649353
 21
95.3916561515
  0
LINE
  5
280
100
AcDbEntity
  8
0
100
AcDbLine
 62
7
  6
CONTINUOUS
 10
253.0509861315
 20
170.9880133922
 11
171.8351409526
 21
137.6760373822
  0
LINE
  5
281
100
AcDbEntity
  8
0
100
AcDbLine
 62
7
  6
CONTINUOUS
 10
173.7016926778
 20
87.4821400707
 11
175.1996825805
 21
87.5921044675
  0
LINE
  5
282
100
AcDbEntity
  8
DTM_AXIS
100
AcDbLine
 62
7
  6
CONTINUOUS
 10
177.8666097056
 20
91.7793965578
 11
178.1962823446
 21
91.790365049
  0
LINE
  5
283
100
AcDbEntity
  8
DTM_AXIS
100
AcDbLine
 62
7
  6
CONTINUOUS
 10
178.5982832548
 20
92.0795041497
 11
178.9279558939
 21
92.0904726409
  0
LINE
  5
284
100
AcDbEntity
  8
DTM_AXIS
100
AcDbLine
 62
7
  6
CONTINUOUS
 10
179.329956804
 20
92.3796117416
 11
179.6596294431
 21
92.3905802328
  0
LINE
  5
285
100
AcDbEntity
  8
DTM_AXIS
100
AcDbLine
 62
7
  6
CONTINUOUS
 10
180.0616303533
 20
92.6797193334
 11
180.3913029923
 21
92.6906878247
  0
LINE
  5
286
100
AcDbEntity
  8
DTM_AXIS
100
AcDbLine
 62
7
  6
CONTINUOUS
 10
180.7933039025
 20
92.9798269253
 11
181.1229765415
 21
92.9907954165
  0
LINE
  5
287
100
AcDbEntity
  8
0
100
AcDbLine
 62
7
  6
CONTINUOUS
 10
175.1711130067
 20
91.4914771156
 11
177.6676484084
 21
91.5735373972
  0
LINE
  5
288
100
AcDbEntity
  8
DTM_AXIS
100
AcDbLine
 62
7
  6
CONTINUOUS
 10
187.2840188488
 20
108.991982087
 11
187.3824441611
 21
95.5582160316
  0
LINE
  5
289
100
AcDbEntity
  8
DTM_AXIS
100
AcDbLine
 62
7
  6
CONTINUOUS
 10
187.6096131721
 20
109.1255297988
 11
187.7080384845
 21
95.6917637434
  0
LINE
  5
28A
100
AcDbEntity
  8
DTM_AXIS
100
AcDbLine
 62
7
  6
CONTINUOUS
 10
188.015692398
 20
109.2920896789
 11
188.1141177104
 21
95.8583236235
  0
LINE
  5
28B
100
AcDbEntity
  8
DTM_AXIS
100
AcDbLine
 62
7
  6
CONTINUOUS
 10
188.3412867213
 20
109.4256373907
 11
188.4397120337
 21
95.9918713353
  0
LINE
  5
28C
100
AcDbEntity
  8
DTM_AXIS
100
AcDbLine
 62
7
  6
CONTINUOUS
 10
188.7473659472
 20
109.5921972708
 11
188.8457912596
 21
96.1584312153
  0
LINE
  5
28D
100
AcDbEntity
  8
DTM_AXIS
100
AcDbLine
 62
7
  6
CONTINUOUS
 10
189.0729602706
 20
109.7257449826
 11
189.1713855829
 21
96.2919789272
  0
LINE
  5
28E
100
AcDbEntity
  8
DTM_AXIS
100
AcDbLine
 62
7
  6
CONTINUOUS
 10
189.4790394965
 20
109.8923048626
 11
189.5774648088
 21
96.4585388072
  0
LINE
  5
28F
100
AcDbEntity
  8
DTM_AXIS
100
AcDbLine
 62
7
  6
CONTINUOUS
 10
189.8046338198
 20
110.0258525745
 11
189.9030591321
 21
96.592086519
  0
LINE
  5
290
100
AcDbEntity
  8
DTM_AXIS
100
AcDbLine
 62
7
  6
CONTINUOUS
 10
190.2107130457
 20
110.1924124545
 11
190.309138358
 21
96.7586463991
  0
LINE
  5
291
100
AcDbEntity
  8
DTM_AXIS
100
AcDbLine
 62
7
  6
CONTINUOUS
 10
190.536307369
 20
110.3259601663
 11
190.6347326813
 21
96.8921941109
  0
LINE
  5
292
100
AcDbEntity
  8
DTM_AXIS
100
AcDbLine
 62
7
  6
CONTINUOUS
 10
190.9423865949
 20
110.4925200464
 11
191.0408119072
 21
97.058753991
  0
LINE
  5
293
100
AcDbEntity
  8
DTM_AXIS
100
AcDbLine
 62
7
  6
CONTINUOUS
 10
191.2679809182
 20
110.6260677582
 11
191.3664062306
 21
97.1923017028
  0
LINE
  5
294
100
AcDbEntity
  8
DTM_AXIS
100
AcDbLine
 62
7
  6
CONTINUOUS
 10
191.6740601441
 20
110.7926276383
 11
191.7724854565
 21
97.3588615828
  0
LINE
  5
295
100
AcDbEntity
  8
0
100
AcDbLine
 62
7
  6
CONTINUOUS
 10
161.0775408779
 20
128.7318851973
 11
160.9100080424
 21
128.6631689291
  0
LINE
  5
296
100
AcDbEntity
  8
0
100
AcDbLine
 62
7
  6
CONTINUOUS
 10
164.4542869872
 20
89.7056438493
 11
161.1976878154
 21
89.3986476619
  0
LINE
  5
297
100
AcDbEntity
  8
DTM_AXIS
100
AcDbLine
 62
7
  6
CONTINUOUS
 10
181.5249774517
 20
93.2799345172
 11
181.8546500907
 21
93.2909030084
  0
LINE
  5
298
100
AcDbEntity
  8
DTM_AXIS
100
AcDbLine
 62
7
  6
CONTINUOUS
 10
182.2566510009
 20
93.5800421091
 11
182.58632364
 21
93.5910106003
  0
LINE
  5
299
100
AcDbEntity
  8
DTM_AXIS
100
AcDbLine
 62
7
  6
CONTINUOUS
 10
182.9883245501
 20
93.8801497009
 11
183.3179971892
 21
93.8911181922
  0
LINE
  5
29A
100
AcDbEntity
  8
DTM_AXIS
100
AcDbLine
 62
7
  6
CONTINUOUS
 10
183.7199980993
 20
94.1802572928
 11
184.0496707384
 21
94.191225784
  0
LINE
  5
29B
100
AcDbEntity
  8
DTM_AXIS
100
AcDbLine
 62
7
  6
CONTINUOUS
 10
184.4516716486
 20
94.4803648847
 11
184.7813442876
 21
94.4913333759
  0
LINE
  5
29C
100
AcDbEntity
  8
DTM_AXIS
100
AcDbLine
 62
7
  6
CONTINUOUS
 10
185.1833451978
 20
94.7804724766
 11
185.5130178368
 21
94.7914409678
  0
LINE
  5
29D
100
AcDbEntity
  8
DTM_AXIS
100
AcDbLine
 62
7
  6
CONTINUOUS
 10
185.915018747
 20
95.0805800684
 11
186.244691386
 21
95.0915485597
  0
LINE
  5
29E
100
AcDbEntity
  8
DTM_AXIS
100
AcDbLine
 62
7
  6
CONTINUOUS
 10
186.6466922962
 20
95.3806876603
 11
186.9763649353
 21
95.3916561515
  0
LINE
  5
29F
100
AcDbEntity
  8
DTM_AXIS
100
AcDbLine
 62
7
  6
CONTINUOUS
 10
187.3783658454
 20
95.6807952522
 11
187.7080384845
 21
95.6917637434
  0
LINE
  5
2A0
100
AcDbEntity
  8
DTM_AXIS
100
AcDbLine
 62
7
  6
CONTINUOUS
 10
188.1100393946
 20
95.980902844
 11
188.4397120337
 21
95.9918713353
  0
LINE
  5
2A1
100
AcDbEntity
  8
DTM_AXIS
100
AcDbLine
 62
7
  6
CONTINUOUS
 10
188.8417129439
 20
96.2810104359
 11
189.1713855829
 21
96.2919789272
  0
LINE
  5
2A2
100
AcDbEntity
  8
DTM_AXIS
100
AcDbLine
 62
7
  6
CONTINUOUS
 10
189.5733864931
 20
96.5811180278
 11
189.9030591321
 21
96.592086519
  0
LINE
  5
2A3
100
AcDbEntity
  8
DTM_AXIS
100
AcDbLine
 62
7
  6
CONTINUOUS
 10
190.3050600423
 20
96.8812256197
 11
190.6347326813
 21
96.8921941109
  0
LINE
  5
2A4
100
AcDbEntity
  8
DTM_AXIS
100
AcDbLine
 62
7
  6
CONTINUOUS
 10
191.0367335915
 20
97.1813332115
 11
191.3664062306
 21
97.1923017028
  0
LINE
  5
2A5
100
AcDbEntity
  8
DTM_AXIS
100
AcDbLine
 62
7
  6
CONTINUOUS
 10
191.7684071407
 20
97.4814408034
 11
192.0980797798
 21
97.4924092947
  0
LINE
  5
2A6
100
AcDbEntity
  8
DTM_AXIS
100
AcDbLine
 62
7
  6
CONTINUOUS
 10
192.50008069
 20
97.7815483953
 11
192.829753329
 21
97.7925168865
  0
LINE
  5
2A7
100
AcDbEntity
  8
DTM_AXIS
100
AcDbLine
 62
7
  6
CONTINUOUS
 10
193.2317542392
 20
98.0816559872
 11
193.5614268782
 21
98.0926244784
  0
LINE
  5
2A8
100
AcDbEntity
  8
DTM_AXIS
100
AcDbLine
 62
7
  6
CONTINUOUS
 10
193.9634277884
 20
98.381763579
 11
194.2931004274
 21
98.3927320703
  0
LINE
  5
2A9
100
AcDbEntity
  8
DTM_AXIS
100
AcDbLine
 62
7
  6
CONTINUOUS
 10
191.9996544674
 20
110.9261753501
 11
192.0980797798
 21
97.4924092947
  0
LINE
  5
2AA
100
AcDbEntity
  8
DTM_AXIS
100
AcDbLine
 62
7
  6
CONTINUOUS
 10
192.4057336933
 20
111.0927352301
 11
192.5041590057
 21
97.6589691747
  0
LINE
  5
2AB
100
AcDbEntity
  8
DTM_AXIS
100
AcDbLine
 62
7
  6
CONTINUOUS
 10
192.7313280166
 20
111.226282942
 11
192.829753329
 21
97.7925168865
  0
LINE
  5
2AC
100
AcDbEntity
  8
DTM_AXIS
100
AcDbLine
 62
7
  6
CONTINUOUS
 10
193.1374072425
 20
111.392842822
 11
193.2358325549
 21
97.9590767666
  0
LINE
  5
2AD
100
AcDbEntity
  8
DTM_AXIS
100
AcDbLine
 62
7
  6
CONTINUOUS
 10
193.4630015659
 20
111.5263905338
 11
193.5614268782
 21
98.0926244784
  0
LINE
  5
2AE
100
AcDbEntity
  8
DTM_AXIS
100
AcDbLine
 62
7
  6
CONTINUOUS
 10
193.8690807918
 20
111.6929504139
 11
193.9675061041
 21
98.2591843585
  0
LINE
  5
2AF
100
AcDbEntity
  8
DTM_AXIS
100
AcDbLine
 62
7
  6
CONTINUOUS
 10
194.1946751151
 20
111.8264981257
 11
194.2931004274
 21
98.3927320703
  0
LINE
  5
2B0
100
AcDbEntity
  8
DTM_AXIS
100
AcDbLine
 62
7
  6
CONTINUOUS
 10
194.600754341
 20
111.9930580058
 11
194.6991796533
 21
98.5592919503
  0
LINE
  5
2B1
100
AcDbEntity
  8
DTM_AXIS
100
AcDbLine
 62
7
  6
CONTINUOUS
 10
194.9263486643
 20
112.1266057176
 11
195.0247739766
 21
98.6928396621
  0
LINE
  5
2B2
100
AcDbEntity
  8
DTM_AXIS
100
AcDbLine
 62
7
  6
CONTINUOUS
 10
195.3324278902
 20
112.2931655976
 11
195.4308532025
 21
98.8593995422
  0
LINE
  5
2B3
100
AcDbEntity
  8
DTM_AXIS
100
AcDbLine
 62
7
  6
CONTINUOUS
 10
195.6580222135
 20
112.4267133094
 11
195.7564475259
 21
98.992947254
  0
LINE
  5
2B4
100
AcDbEntity
  8
DTM_AXIS
100
AcDbLine
 62
7
  6
CONTINUOUS
 10
196.0641014394
 20
112.5932731895
 11
196.1625267518
 21
99.1595071341
  0
LINE
  5
2B5
100
AcDbEntity
  8
DTM_AXIS
100
AcDbLine
 62
7
  6
CONTINUOUS
 10
196.3896957627
 20
112.7268209013
 11
196.4881210751
 21
99.2930548459
  0
LINE
  5
2B6
100
AcDbEntity
  8
DTM_AXIS
100
AcDbLine
 62
7
  6
CONTINUOUS
 10
194.6951013376
 20
98.6818711709
 11
195.0247739766
 21
98.6928396621
  0
LINE
  5
2B7
100
AcDbEntity
  8
DTM_AXIS
100
AcDbLine
 62
7
  6
CONTINUOUS
 10
195.4267748868
 20
98.9819787628
 11
195.7564475259
 21
98.992947254
  0
LINE
  5
2B8
100
AcDbEntity
  8
DTM_AXIS
100
AcDbLine
 62
7
  6
CONTINUOUS
 10
196.158448436
 20
99.2820863547
 11
196.4881210751
 21
99.2930548459
  0
LINE
  5
2B9
100
AcDbEntity
  8
DTM_AXIS
100
AcDbLine
 62
7
  6
CONTINUOUS
 10
196.8901219853
 20
99.5821939465
 11
197.2197946243
 21
99.5931624378
  0
LINE
  5
2BA
100
AcDbEntity
  8
DTM_AXIS
100
AcDbLine
 62
7
  6
CONTINUOUS
 10
197.6217955345
 20
99.8823015384
 11
197.9514681735
 21
99.8932700296
  0
LINE
  5
2BB
100
AcDbEntity
  8
DTM_AXIS
100
AcDbLine
 62
7
  6
CONTINUOUS
 10
198.3534690837
 20
100.1824091303
 11
198.6831417227
 21
100.1933776215
  0
LINE
  5
2BC
100
AcDbEntity
  8
DTM_AXIS
100
AcDbLine
 62
7
  6
CONTINUOUS
 10
199.0851426329
 20
100.4825167222
 11
199.4148152719
 21
100.4934852134
  0
LINE
  5
2BD
100
AcDbEntity
  8
DTM_AXIS
100
AcDbLine
 62
7
  6
CONTINUOUS
 10
199.8168161821
 20
100.782624314
 11
200.1464888212
 21
100.7935928053
  0
LINE
  5
2BE
100
AcDbEntity
  8
DTM_AXIS
100
AcDbLine
 62
7
  6
CONTINUOUS
 10
200.5484897313
 20
101.0827319059
 11
200.8781623704
 21
101.0937003971
  0
LINE
  5
2BF
100
AcDbEntity
  8
DTM_AXIS
100
AcDbLine
 62
7
  6
CONTINUOUS
 10
201.2801632806
 20
101.3828394978
 11
201.6098359196
 21
101.393807989
  0
LINE
  5
2C0
100
AcDbEntity
  8
DTM_AXIS
100
AcDbLine
 62
7
  6
CONTINUOUS
 10
202.0118368298
 20
101.6829470897
 11
202.3415094688
 21
101.6939155809
  0
LINE
  5
2C1
100
AcDbEntity
  8
DTM_AXIS
100
AcDbLine
 62
7
  6
CONTINUOUS
 10
202.743510379
 20
101.9830546815
 11
203.073183018
 21
101.9940231728
  0
LINE
  5
2C2
100
AcDbEntity
  8
DTM_AXIS
100
AcDbLine
 62
7
  6
CONTINUOUS
 10
203.4751839282
 20
102.2831622734
 11
203.8048565673
 21
102.2941307646
  0
LINE
  5
2C3
100
AcDbEntity
  8
DTM_AXIS
100
AcDbLine
 62
7
  6
CONTINUOUS
 10
204.2068574774
 20
102.5832698653
 11
204.5365301165
 21
102.5942383565
  0
LINE
  5
2C4
100
AcDbEntity
  8
DTM_AXIS
100
AcDbLine
 62
7
  6
CONTINUOUS
 10
204.9385310266
 20
102.8833774572
 11
205.2682036657
 21
102.8943459484
  0
LINE
  5
2C5
100
AcDbEntity
  8
DTM_AXIS
100
AcDbLine
 62
7
  6
CONTINUOUS
 10
205.6702045759
 20
103.183485049
 11
205.9998772149
 21
103.1944535403
  0
LINE
  5
2C6
100
AcDbEntity
  8
DTM_AXIS
100
AcDbLine
 62
7
  6
CONTINUOUS
 10
206.4018781251
 20
103.4835926409
 11
206.7315507641
 21
103.4945611321
  0
LINE
  5
2C7
100
AcDbEntity
  8
DTM_AXIS
100
AcDbLine
 62
7
  6
CONTINUOUS
 10
196.7957749886
 20
112.8933807814
 11
196.894200301
 21
99.4596147259
  0
LINE
  5
2C8
100
AcDbEntity
  8
DTM_AXIS
100
AcDbLine
 62
7
  6
CONTINUOUS
 10
197.121369312
 20
113.0269284932
 11
197.2197946243
 21
99.5931624378
  0
LINE
  5
2C9
100
AcDbEntity
  8
DTM_AXIS
100
AcDbLine
 62
7
  6
CONTINUOUS
 10
197.5274485378
 20
113.1934883732
 11
197.6258738502
 21
99.7597223178
  0
LINE
  5
2CA
100
AcDbEntity
  8
DTM_AXIS
100
AcDbLine
 62
7
  6
CONTINUOUS
 10
197.8530428612
 20
113.3270360851
 11
197.9514681735
 21
99.8932700296
  0
LINE
  5
2CB
100
AcDbEntity
  8
DTM_AXIS
100
AcDbLine
 62
7
  6
CONTINUOUS
 10
198.2591220871
 20
113.4935959651
 11
198.3575473994
 21
100.0598299097
  0
LINE
  5
2CC
100
AcDbEntity
  8
DTM_AXIS
100
AcDbLine
 62
7
  6
CONTINUOUS
 10
198.5847164104
 20
113.6271436769
 11
198.6831417227
 21
100.1933776215
  0
LINE
  5
2CD
100
AcDbEntity
  8
DTM_AXIS
100
AcDbLine
 62
7
  6
CONTINUOUS
 10
198.9907956363
 20
113.793703557
 11
199.0892209486
 21
100.3599375016
  0
LINE
  5
2CE
100
AcDbEntity
  8
DTM_AXIS
100
AcDbLine
 62
7
  6
CONTINUOUS
 10
199.3163899596
 20
113.9272512688
 11
199.4148152719
 21
100.4934852134
  0
LINE
  5
2CF
100
AcDbEntity
  8
DTM_AXIS
100
AcDbLine
 62
7
  6
CONTINUOUS
 10
199.7224691855
 20
114.0938111489
 11
199.8208944978
 21
100.6600450934
  0
LINE
  5
2D0
100
AcDbEntity
  8
DTM_AXIS
100
AcDbLine
 62
7
  6
CONTINUOUS
 10
200.0480635088
 20
114.2273588607
 11
200.1464888212
 21
100.7935928053
  0
LINE
  5
2D1
100
AcDbEntity
  8
DTM_AXIS
100
AcDbLine
 62
7
  6
CONTINUOUS
 10
200.4541427347
 20
114.3939187407
 11
200.5525680471
 21
100.9601526853
  0
LINE
  5
2D2
100
AcDbEntity
  8
DTM_AXIS
100
AcDbLine
 62
7
  6
CONTINUOUS
 10
200.779737058
 20
114.5274664526
 11
200.8781623704
 21
101.0937003971
  0
LINE
  5
2D3
100
AcDbEntity
  8
DTM_AXIS
100
AcDbLine
 62
7
  6
CONTINUOUS
 10
201.1858162839
 20
114.6940263326
 11
201.2842415963
 21
101.2602602772
  0
LINE
  5
2D4
100
AcDbEntity
  8
DTM_AXIS
100
AcDbLine
 62
7
  6
CONTINUOUS
 10
201.5114106073
 20
114.8275740444
 11
201.6098359196
 21
101.393807989
  0
LINE
  5
2D5
100
AcDbEntity
  8
DTM_AXIS
100
AcDbLine
 62
7
  6
CONTINUOUS
 10
207.1335516743
 20
103.7837002328
 11
207.4632243133
 21
103.794668724
  0
LINE
  5
2D6
100
AcDbEntity
  8
DTM_AXIS
100
AcDbLine
 62
7
  6
CONTINUOUS
 10
207.8652252235
 20
104.0838078247
 11
208.1948978626
 21
104.0947763159
  0
LINE
  5
2D7
100
AcDbEntity
  8
DTM_AXIS
100
AcDbLine
 62
7
  6
CONTINUOUS
 10
208.5968987727
 20
104.3839154165
 11
208.9265714118
 21
104.3948839078
  0
LINE
  5
2D8
100
AcDbEntity
  8
DTM_AXIS
100
AcDbLine
 62
7
  6
CONTINUOUS
 10
209.3285723219
 20
104.6840230084
 11
209.658244961
 21
104.6949914996
  0
LINE
  5
2D9
100
AcDbEntity
  8
DTM_AXIS
100
AcDbLine
 62
7
  6
CONTINUOUS
 10
210.0602458712
 20
104.9841306003
 11
210.3899185102
 21
104.9950990915
  0
LINE
  5
2DA
100
AcDbEntity
  8
DTM_AXIS
100
AcDbLine
 62
7
  6
CONTINUOUS
 10
210.7919194204
 20
105.2842381922
 11
211.1215920594
 21
105.2952066834
  0
LINE
  5
2DB
100
AcDbEntity
  8
DTM_AXIS
100
AcDbLine
 62
7
  6
CONTINUOUS
 10
211.5235929696
 20
105.584345784
 11
211.8532656086
 21
105.5953142753
  0
LINE
  5
2DC
100
AcDbEntity
  8
DTM_AXIS
100
AcDbLine
 62
7
  6
CONTINUOUS
 10
212.2552665188
 20
105.8844533759
 11
212.5849391579
 21
105.8954218671
  0
LINE
  5
2DD
100
AcDbEntity
  8
DTM_AXIS
100
AcDbLine
 62
7
  6
CONTINUOUS
 10
212.986940068
 20
106.1845609678
 11
213.3166127071
 21
106.195529459
  0
LINE
  5
2DE
100
AcDbEntity
  8
DTM_AXIS
100
AcDbLine
 62
7
  6
CONTINUOUS
 10
213.7186136172
 20
106.4846685597
 11
214.0482862563
 21
106.4956370509
  0
LINE
  5
2DF
100
AcDbEntity
  8
DTM_AXIS
100
AcDbLine
 62
7
  6
CONTINUOUS
 10
214.4502871665
 20
106.7847761515
 11
214.7799598055
 21
106.7957446428
  0
LINE
  5
2E0
100
AcDbEntity
  8
DTM_AXIS
100
AcDbLine
 62
7
  6
CONTINUOUS
 10
215.1819607157
 20
107.0848837434
 11
215.5116333547
 21
107.0958522346
  0
LINE
  5
2E1
100
AcDbEntity
  8
DTM_AXIS
100
AcDbLine
 62
7
  6
CONTINUOUS
 10
215.9136342649
 20
107.3849913353
 11
216.2433069039
 21
107.3959598265
  0
LINE
  5
2E2
100
AcDbEntity
  8
DTM_AXIS
100
AcDbLine
 62
7
  6
CONTINUOUS
 10
216.6453078141
 20
107.6850989271
 11
216.9749804532
 21
107.6960674184
  0
LINE
  5
2E3
100
AcDbEntity
  8
DTM_AXIS
100
AcDbLine
 62
7
  6
CONTINUOUS
 10
217.3769813633
 20
107.985206519
 11
217.7066540024
 21
107.9961750103
  0
LINE
  5
2E4
100
AcDbEntity
  8
DTM_AXIS
100
AcDbLine
 62
7
  6
CONTINUOUS
 10
218.1086549126
 20
108.2853141109
 11
218.4383275516
 21
108.2962826021
  0
LINE
  5
2E5
100
AcDbEntity
  8
DTM_AXIS
100
AcDbLine
 62
7
  6
CONTINUOUS
 10
218.8403284618
 20
108.5854217028
 11
219.1700011008
 21
108.596390194
  0
LINE
  5
2E6
100
AcDbEntity
  8
DTM_AXIS
100
AcDbLine
 62
7
  6
CONTINUOUS
 10
219.572002011
 20
108.8855292946
 11
219.90167465
 21
108.8964977859
  0
LINE
  5
2E7
100
AcDbEntity
  8
0
100
AcDbLine
 62
7
  6
CONTINUOUS
 10
177.5650909639
 20
105.5712853646
 11
179.0643814747
 21
105.620566541
  0
LINE
  5
2E8
100
AcDbEntity
  8
DTM_AXIS
100
AcDbLine
 62
7
  6
CONTINUOUS
 10
201.9174898331
 20
114.9941339245
 11
202.0159151455
 21
101.5603678691
  0
LINE
  5
2E9
100
AcDbEntity
  8
DTM_AXIS
100
AcDbLine
 62
7
  6
CONTINUOUS
 10
202.2430841565
 20
115.1276816363
 11
202.3415094688
 21
101.6939155809
  0
LINE
  5
2EA
100
AcDbEntity
  8
DTM_AXIS
100
AcDbLine
 62
7
  6
CONTINUOUS
 10
202.6491633824
 20
115.2942415164
 11
202.7475886947
 21
101.8604754609
  0
LINE
  5
2EB
100
AcDbEntity
  8
DTM_AXIS
100
AcDbLine
 62
7
  6
CONTINUOUS
 10
202.9747577057
 20
115.4277892282
 11
203.073183018
 21
101.9940231728
  0
LINE
  5
2EC
100
AcDbEntity
  8
DTM_AXIS
100
AcDbLine
 62
7
  6
CONTINUOUS
 10
203.3808369316
 20
115.5943491082
 11
203.4792622439
 21
102.1605830528
  0
LINE
  5
2ED
100
AcDbEntity
  8
DTM_AXIS
100
AcDbLine
 62
7
  6
CONTINUOUS
 10
203.7064312549
 20
115.7278968201
 11
203.8048565673
 21
102.2941307646
  0
LINE
  5
2EE
100
AcDbEntity
  8
DTM_AXIS
100
AcDbLine
 62
7
  6
CONTINUOUS
 10
204.1125104808
 20
115.8944567001
 11
204.2109357931
 21
102.4606906447
  0
LINE
  5
2EF
100
AcDbEntity
  8
DTM_AXIS
100
AcDbLine
 62
7
  6
CONTINUOUS
 10
204.4381048041
 20
116.0280044119
 11
204.5365301165
 21
102.5942383565
  0
LINE
  5
2F0
100
AcDbEntity
  8
DTM_AXIS
100
AcDbLine
 62
7
  6
CONTINUOUS
 10
204.84418403
 20
116.194564292
 11
204.9426093424
 21
102.7607982366
  0
LINE
  5
2F1
100
AcDbEntity
  8
DTM_AXIS
100
AcDbLine
 62
7
  6
CONTINUOUS
 10
205.1697783533
 20
116.3281120038
 11
205.2682036657
 21
102.8943459484
  0
LINE
  5
2F2
100
AcDbEntity
  8
DTM_AXIS
100
AcDbLine
 62
7
  6
CONTINUOUS
 10
205.5758575792
 20
116.4946718839
 11
205.6742828916
 21
103.0609058284
  0
LINE
  5
2F3
100
AcDbEntity
  8
DTM_AXIS
100
AcDbLine
 62
7
  6
CONTINUOUS
 10
205.9014519026
 20
116.6282195957
 11
205.9998772149
 21
103.1944535403
  0
LINE
  5
2F4
100
AcDbEntity
  8
DTM_AXIS
100
AcDbLine
 62
7
  6
CONTINUOUS
 10
206.3075311285
 20
116.7947794757
 11
206.4059564408
 21
103.3610134203
  0
LINE
  5
2F5
100
AcDbEntity
  8
DTM_AXIS
100
AcDbLine
 62
7
  6
CONTINUOUS
 10
220.3036755602
 20
109.1856368865
 11
220.6333481992
 21
109.1966053778
  0
LINE
  5
2F6
100
AcDbEntity
  8
DTM_AXIS
100
AcDbLine
 62
7
  6
CONTINUOUS
 10
221.0353491094
 20
109.4857444784
 11
221.3650217485
 21
109.4967129696
  0
LINE
  5
2F7
100
AcDbEntity
  8
DTM_AXIS
100
AcDbLine
 62
7
  6
CONTINUOUS
 10
221.7670226586
 20
109.7858520703
 11
222.0966952977
 21
109.7968205615
  0
LINE
  5
2F8
100
AcDbEntity
  8
DTM_AXIS
100
AcDbLine
 62
7
  6
CONTINUOUS
 10
222.4986962079
 20
110.0859596621
 11
222.8283688469
 21
110.0969281534
  0
LINE
  5
2F9
100
AcDbEntity
  8
DTM_AXIS
100
AcDbLine
 62
7
  6
CONTINUOUS
 10
223.2303697571
 20
110.386067254
 11
223.5600423961
 21
110.3970357452
  0
LINE
  5
2FA
100
AcDbEntity
  8
DTM_AXIS
100
AcDbLine
 62
7
  6
CONTINUOUS
 10
223.9620433063
 20
110.6861748459
 11
224.2917159453
 21
110.6971433371
  0
LINE
  5
2FB
100
AcDbEntity
  8
DTM_AXIS
100
AcDbLine
 62
7
  6
CONTINUOUS
 10
224.6937168555
 20
110.9862824378
 11
225.0233894945
 21
110.997250929
  0
LINE
  5
2FC
100
AcDbEntity
  8
DTM_AXIS
100
AcDbLine
 62
7
  6
CONTINUOUS
 10
225.4253904047
 20
111.2863900296
 11
225.7550630438
 21
111.2973585209
  0
LINE
  5
2FD
100
AcDbEntity
  8
DTM_AXIS
100
AcDbLine
 62
7
  6
CONTINUOUS
 10
226.1570639539
 20
111.5864976215
 11
226.486736593
 21
111.5974661127
  0
LINE
  5
2FE
100
AcDbEntity
  8
DTM_AXIS
100
AcDbLine
 62
7
  6
CONTINUOUS
 10
226.8887375032
 20
111.8866052134
 11
227.2184101422
 21
111.8975737046
  0
LINE
  5
2FF
100
AcDbEntity
  8
DTM_AXIS
100
AcDbLine
 62
7
  6
CONTINUOUS
 10
227.6204110524
 20
112.1867128053
 11
227.9500836914
 21
112.1976812965
  0
LINE
  5
300
100
AcDbEntity
  8
DTM_AXIS
100
AcDbLine
 62
7
  6
CONTINUOUS
 10
228.3520846016
 20
112.4868203971
 11
228.6817572406
 21
112.4977888884
  0
LINE
  5
301
100
AcDbEntity
  8
DTM_AXIS
100
AcDbLine
 62
7
  6
CONTINUOUS
 10
229.0837581508
 20
112.786927989
 11
229.4134307899
 21
112.7978964802
  0
LINE
  5
302
100
AcDbEntity
  8
DTM_AXIS
100
AcDbLine
 62
7
  6
CONTINUOUS
 10
229.8154317
 20
113.0870355809
 11
230.1451043391
 21
113.0980040721
  0
LINE
  5
303
100
AcDbEntity
  8
DTM_AXIS
100
AcDbLine
 62
7
  6
CONTINUOUS
 10
230.5471052492
 20
113.3871431728
 11
230.8767778883
 21
113.398111664
  0
LINE
  5
304
100
AcDbEntity
  8
DTM_AXIS
100
AcDbLine
 62
7
  6
CONTINUOUS
 10
231.2787787985
 20
113.6872507646
 11
231.6084514375
 21
113.6982192559
  0
LINE
  5
305
100
AcDbEntity
  8
DTM_AXIS
100
AcDbLine
 62
7
  6
CONTINUOUS
 10
232.0104523477
 20
113.9873583565
 11
232.3401249867
 21
113.9983268477
  0
LINE
  5
306
100
AcDbEntity
  8
DTM_AXIS
100
AcDbLine
 62
7
  6
CONTINUOUS
 10
206.6331254518
 20
116.9283271876
 11
206.7315507641
 21
103.4945611321
  0
LINE
  5
307
100
AcDbEntity
  8
DTM_AXIS
100
AcDbLine
 62
7
  6
CONTINUOUS
 10
207.0392046777
 20
117.0948870676
 11
207.13762999
 21
103.6611210122
  0
LINE
  5
308
100
AcDbEntity
  8
DTM_AXIS
100
AcDbLine
 62
7
  6
CONTINUOUS
 10
207.364799001
 20
117.2284347794
 11
207.4632243133
 21
103.794668724
  0
LINE
  5
309
100
AcDbEntity
  8
DTM_AXIS
100
AcDbLine
 62
7
  6
CONTINUOUS
 10
207.7708782269
 20
117.3949946595
 11
207.8693035392
 21
103.9612286041
  0
LINE
  5
30A
100
AcDbEntity
  8
DTM_AXIS
100
AcDbLine
 62
7
  6
CONTINUOUS
 10
208.0964725502
 20
117.5285423713
 11
208.1948978626
 21
104.0947763159
  0
LINE
  5
30B
100
AcDbEntity
  8
DTM_AXIS
100
AcDbLine
 62
7
  6
CONTINUOUS
 10
208.5025517761
 20
117.6951022514
 11
208.6009770884
 21
104.2613361959
  0
LINE
  5
30C
100
AcDbEntity
  8
DTM_AXIS
100
AcDbLine
 62
7
  6
CONTINUOUS
 10
208.8281460994
 20
117.8286499632
 11
208.9265714118
 21
104.3948839078
  0
LINE
  5
30D
100
AcDbEntity
  8
DTM_AXIS
100
AcDbLine
 62
7
  6
CONTINUOUS
 10
209.2342253253
 20
117.9952098432
 11
209.3326506377
 21
104.5614437878
  0
LINE
  5
30E
100
AcDbEntity
  8
DTM_AXIS
100
AcDbLine
 62
7
  6
CONTINUOUS
 10
209.5598196486
 20
118.1287575551
 11
209.658244961
 21
104.6949914996
  0
LINE
  5
30F
100
AcDbEntity
  8
DTM_AXIS
100
AcDbLine
 62
7
  6
CONTINUOUS
 10
209.9658988745
 20
118.2953174351
 11
210.0643241869
 21
104.8615513797
  0
LINE
  5
310
100
AcDbEntity
  8
DTM_AXIS
100
AcDbLine
 62
7
  6
CONTINUOUS
 10
210.2914931979
 20
118.4288651469
 11
210.3899185102
 21
104.9950990915
  0
LINE
  5
311
100
AcDbEntity
  8
DTM_AXIS
100
AcDbLine
 62
7
  6
CONTINUOUS
 10
210.6975724238
 20
118.595425027
 11
210.7959977361
 21
105.1616589716
  0
LINE
  5
312
100
AcDbEntity
  8
DTM_AXIS
100
AcDbLine
 62
7
  6
CONTINUOUS
 10
211.0231667471
 20
118.7289727388
 11
211.1215920594
 21
105.2952066834
  0
LINE
  5
313
100
AcDbEntity
  8
DTM_AXIS
100
AcDbLine
 62
7
  6
CONTINUOUS
 10
174.0098011715
 20
115.0483399062
 11
169.212078644
 21
113.0804773864
  0
LINE
  5
314
100
AcDbEntity
  8
0
100
AcDbLine
 62
7
  6
CONTINUOUS
 10
173.7202935266
 20
114.6923078207
 11
170.4231033554
 21
113.3399126121
  0
LINE
  5
315
100
AcDbEntity
  8
0
100
AcDbLine
 62
7
  6
CONTINUOUS
 10
171.0904841383
 20
113.3618491946
 11
173.3443493202
 21
114.2863079958
  0
LINE
  5
316
100
AcDbEntity
  8
DTM_AXIS
100
AcDbLine
 62
7
  6
CONTINUOUS
 10
232.7421258969
 20
114.2874659484
 11
233.0717985359
 21
114.2984344396
  0
LINE
  5
317
100
AcDbEntity
  8
DTM_AXIS
100
AcDbLine
 62
7
  6
CONTINUOUS
 10
233.4737994461
 20
114.5875735403
 11
233.8034720852
 21
114.5985420315
  0
LINE
  5
318
100
AcDbEntity
  8
DTM_AXIS
100
AcDbLine
 62
7
  6
CONTINUOUS
 10
234.2054729953
 20
114.8876811321
 11
234.5351456344
 21
114.8986496234
  0
LINE
  5
319
100
AcDbEntity
  8
DTM_AXIS
100
AcDbLine
 62
7
  6
CONTINUOUS
 10
234.9371465445
 20
115.187788724
 11
235.2668191836
 21
115.1987572152
  0
LINE
  5
31A
100
AcDbEntity
  8
DTM_AXIS
100
AcDbLine
 62
7
  6
CONTINUOUS
 10
235.6688200938
 20
115.4878963159
 11
235.9984927328
 21
115.4988648071
  0
LINE
  5
31B
100
AcDbEntity
  8
DTM_AXIS
100
AcDbLine
 62
7
  6
CONTINUOUS
 10
236.400493643
 20
115.7880039078
 11
236.730166282
 21
115.798972399
  0
LINE
  5
31C
100
AcDbEntity
  8
DTM_AXIS
100
AcDbLine
 62
7
  6
CONTINUOUS
 10
237.1321671922
 20
116.0881114996
 11
237.4618398312
 21
116.0990799909
  0
LINE
  5
31D
100
AcDbEntity
  8
DTM_AXIS
100
AcDbLine
 62
7
  6
CONTINUOUS
 10
237.8638407414
 20
116.3882190915
 11
238.1935133805
 21
116.3991875827
  0
LINE
  5
31E
100
AcDbEntity
  8
DTM_AXIS
100
AcDbLine
 62
7
  6
CONTINUOUS
 10
238.5955142906
 20
116.6883266834
 11
238.9251869297
 21
116.6992951746
  0
LINE
  5
31F
100
AcDbEntity
  8
DTM_AXIS
100
AcDbLine
 62
7
  6
CONTINUOUS
 10
239.3271878399
 20
116.9884342753
 11
239.6568604789
 21
116.9994027665
  0
LINE
  5
320
100
AcDbEntity
  8
DTM_AXIS
100
AcDbLine
 62
7
  6
CONTINUOUS
 10
240.0588613891
 20
117.2885418671
 11
240.3885340281
 21
117.2995103584
  0
LINE
  5
321
100
AcDbEntity
  8
DTM_AXIS
100
AcDbLine
 62
7
  6
CONTINUOUS
 10
240.7905349383
 20
117.588649459
 11
241.1202075773
 21
117.5996179502
  0
LINE
  5
322
100
AcDbEntity
  8
DTM_AXIS
100
AcDbLine
 62
7
  6
CONTINUOUS
 10
241.5222084875
 20
117.8887570509
 11
241.8518811265
 21
117.8997255421
  0
LINE
  5
323
100
AcDbEntity
  8
DTM_AXIS
100
AcDbLine
 62
7
  6
CONTINUOUS
 10
242.2538820367
 20
118.1888646428
 11
242.5835546758
 21
118.199833134
  0
LINE
  5
324
100
AcDbEntity
  8
DTM_AXIS
100
AcDbLine
 62
7
  6
CONTINUOUS
 10
242.9855555859
 20
118.4889722346
 11
243.315228225
 21
118.4999407259
  0
LINE
  5
325
100
AcDbEntity
  8
DTM_AXIS
100
AcDbLine
 62
7
  6
CONTINUOUS
 10
243.7172291352
 20
118.7890798265
 11
244.0469017742
 21
118.8000483177
  0
LINE
  5
326
100
AcDbEntity
  8
DTM_AXIS
100
AcDbLine
 62
7
  6
CONTINUOUS
 10
244.4489026844
 20
119.0891874184
 11
244.7785753234
 21
119.1001559096
  0
LINE
  5
327
100
AcDbEntity
  8
DTM_AXIS
100
AcDbLine
 62
7
  6
CONTINUOUS
 10
245.1805762336
 20
119.3892950102
 11
245.5102488726
 21
119.4002635015
  0
LINE
  5
328
100
AcDbEntity
  8
0
100
AcDbLine
 62
7
  6
CONTINUOUS
 10
170.4231033554
 20
113.3399126121
 11
171.0904841383
 21
113.3618491946
  0
LINE
  5
329
100
AcDbEntity
  8
0
100
AcDbLine
 62
7
  6
CONTINUOUS
 10
160.952282502
 20
122.8932588697
 11
173.2111650729
 21
121.9022756243
  0
LINE
  5
32A
100
AcDbEntity
  8
DTM_AXIS
100
AcDbLine
 62
7
  6
CONTINUOUS
 10
211.429245973
 20
118.8955326189
 11
211.5276712853
 21
105.4617665634
  0
LINE
  5
32B
100
AcDbEntity
  8
DTM_AXIS
100
AcDbLine
 62
7
  6
CONTINUOUS
 10
211.7548402963
 20
119.0290803307
 11
211.8532656086
 21
105.5953142753
  0
LINE
  5
32C
100
AcDbEntity
  8
DTM_AXIS
100
AcDbLine
 62
7
  6
CONTINUOUS
 10
212.1609195222
 20
119.1956402107
 11
212.2593448345
 21
105.7618741553
  0
LINE
  5
32D
100
AcDbEntity
  8
DTM_AXIS
100
AcDbLine
 62
7
  6
CONTINUOUS
 10
212.4865138455
 20
119.3291879226
 11
212.5849391579
 21
105.8954218671
  0
LINE
  5
32E
100
AcDbEntity
  8
DTM_AXIS
100
AcDbLine
 62
7
  6
CONTINUOUS
 10
212.8925930714
 20
119.4957478026
 11
212.9910183838
 21
106.0619817472
  0
LINE
  5
32F
100
AcDbEntity
  8
DTM_AXIS
100
AcDbLine
 62
7
  6
CONTINUOUS
 10
213.2181873947
 20
119.6292955144
 11
213.3166127071
 21
106.195529459
  0
LINE
  5
330
100
AcDbEntity
  8
DTM_AXIS
100
AcDbLine
 62
7
  6
CONTINUOUS
 10
213.6242666206
 20
119.7958553945
 11
213.722691933
 21
106.3620893391
  0
LINE
  5
331
100
AcDbEntity
  8
DTM_AXIS
100
AcDbLine
 62
7
  6
CONTINUOUS
 10
213.9498609439
 20
119.9294031063
 11
214.0482862563
 21
106.4956370509
  0
LINE
  5
332
100
AcDbEntity
  8
DTM_AXIS
100
AcDbLine
 62
7
  6
CONTINUOUS
 10
214.3559401698
 20
120.0959629864
 11
214.4543654822
 21
106.6621969309
  0
LINE
  5
333
100
AcDbEntity
  8
DTM_AXIS
100
AcDbLine
 62
7
  6
CONTINUOUS
 10
214.6815344932
 20
120.2295106982
 11
214.7799598055
 21
106.7957446428
  0
LINE
  5
334
100
AcDbEntity
  8
DTM_AXIS
100
AcDbLine
 62
7
  6
CONTINUOUS
 10
215.0876137191
 20
120.3960705782
 11
215.1860390314
 21
106.9623045228
  0
LINE
  5
335
100
AcDbEntity
  8
DTM_AXIS
100
AcDbLine
 62
7
  6
CONTINUOUS
 10
215.4132080424
 20
120.5296182901
 11
215.5116333547
 21
107.0958522346
  0
LINE
  5
336
100
AcDbEntity
  8
DTM_AXIS
100
AcDbLine
 62
7
  6
CONTINUOUS
 10
215.8192872683
 20
120.6961781701
 11
215.9177125806
 21
107.2624121147
  0
LINE
  5
337
100
AcDbEntity
  8
DTM_AXIS
100
AcDbLine
 62
7
  6
CONTINUOUS
 10
216.1448815916
 20
120.8297258819
 11
216.2433069039
 21
107.3959598265
  0
LINE
  5
338
100
AcDbEntity
  8
DTM_AXIS
100
AcDbLine
 62
7
  6
CONTINUOUS
 10
183.3083747366
 20
113.3194514343
 11
264.5242199155
 21
146.6314274444
  0
LINE
  5
339
100
AcDbEntity
  8
0
100
AcDbLine
 62
7
  6
CONTINUOUS
 10
263.7377225959
 20
144.3502187798
 11
182.521877417
 21
111.0382427698
  0
LINE
  5
33A
100
AcDbEntity
  8
DTM_AXIS
100
AcDbLine
 62
7
  6
CONTINUOUS
 10
245.9122497828
 20
119.6894026021
 11
246.2419224218
 21
119.7003710934
  0
LINE
  5
33B
100
AcDbEntity
  8
DTM_AXIS
100
AcDbLine
 62
7
  6
CONTINUOUS
 10
246.643923332
 20
119.989510194
 11
246.9735959711
 21
120.0004786852
  0
LINE
  5
33C
100
AcDbEntity
  8
DTM_AXIS
100
AcDbLine
 62
7
  6
CONTINUOUS
 10
247.3755968812
 20
120.2896177859
 11
247.7052695203
 21
120.3005862771
  0
LINE
  5
33D
100
AcDbEntity
  8
DTM_AXIS
100
AcDbLine
 62
7
  6
CONTINUOUS
 10
248.1072704305
 20
120.5897253777
 11
248.4369430695
 21
120.600693869
  0
LINE
  5
33E
100
AcDbEntity
  8
DTM_AXIS
100
AcDbLine
 62
7
  6
CONTINUOUS
 10
248.8389439797
 20
120.8898329696
 11
249.1686166187
 21
120.9008014609
  0
LINE
  5
33F
100
AcDbEntity
  8
DTM_AXIS
100
AcDbLine
 62
7
  6
CONTINUOUS
 10
249.5706175289
 20
121.1899405615
 11
249.9002901679
 21
121.2009090527
  0
LINE
  5
340
100
AcDbEntity
  8
DTM_AXIS
100
AcDbLine
 62
7
  6
CONTINUOUS
 10
250.3022910781
 20
121.4900481534
 11
250.6319637172
 21
121.5010166446
  0
LINE
  5
341
100
AcDbEntity
  8
DTM_AXIS
100
AcDbLine
 62
7
  6
CONTINUOUS
 10
251.0339646273
 20
121.7901557452
 11
251.3636372664
 21
121.8011242365
  0
LINE
  5
342
100
AcDbEntity
  8
DTM_AXIS
100
AcDbLine
 62
7
  6
CONTINUOUS
 10
251.7656381765
 20
122.0902633371
 11
252.0953108156
 21
122.1012318284
  0
LINE
  5
343
100
AcDbEntity
  8
DTM_AXIS
100
AcDbLine
 62
7
  6
CONTINUOUS
 10
252.4973117258
 20
122.390370929
 11
252.8269843648
 21
122.4013394202
  0
LINE
  5
344
100
AcDbEntity
  8
DTM_AXIS
100
AcDbLine
 62
7
  6
CONTINUOUS
 10
253.228985275
 20
122.6904785209
 11
253.558657914
 21
122.7014470121
  0
LINE
  5
345
100
AcDbEntity
  8
DTM_AXIS
100
AcDbLine
 62
7
  6
CONTINUOUS
 10
253.9606588242
 20
122.9905861127
 11
254.2903314632
 21
123.001554604
  0
LINE
  5
346
100
AcDbEntity
  8
DTM_AXIS
100
AcDbLine
 62
7
  6
CONTINUOUS
 10
254.6923323734
 20
123.2906937046
 11
255.0220050125
 21
123.3016621958
  0
LINE
  5
347
100
AcDbEntity
  8
DTM_AXIS
100
AcDbLine
 62
7
  6
CONTINUOUS
 10
255.4240059226
 20
123.5908012965
 11
255.7536785617
 21
123.6017697877
  0
LINE
  5
348
100
AcDbEntity
  8
DTM_AXIS
100
AcDbLine
 62
7
  6
CONTINUOUS
 10
256.1556794718
 20
123.8909088884
 11
256.4853521109
 21
123.9018773796
  0
LINE
  5
349
100
AcDbEntity
  8
DTM_AXIS
100
AcDbLine
 62
7
  6
CONTINUOUS
 10
256.8873530211
 20
124.1910164802
 11
257.2170256601
 21
124.2019849715
  0
LINE
  5
34A
100
AcDbEntity
  8
DTM_AXIS
100
AcDbLine
 62
7
  6
CONTINUOUS
 10
257.6190265703
 20
124.4911240721
 11
257.9486992093
 21
124.5020925633
  0
LINE
  5
34B
100
AcDbEntity
  8
DTM_AXIS
100
AcDbLine
 62
7
  6
CONTINUOUS
 10
258.3507001195
 20
124.791231664
 11
258.6803727585
 21
124.8022001552
  0
LINE
  5
34C
100
AcDbEntity
  8
DTM_AXIS
100
AcDbLine
 62
7
  6
CONTINUOUS
 10
216.5509608175
 20
120.996285762
 11
216.6493861298
 21
107.5625197066
  0
LINE
  5
34D
100
AcDbEntity
  8
DTM_AXIS
100
AcDbLine
 62
7
  6
CONTINUOUS
 10
216.8765551408
 20
121.1298334738
 11
216.9749804532
 21
107.6960674184
  0
LINE
  5
34E
100
AcDbEntity
  8
DTM_AXIS
100
AcDbLine
 62
7
  6
CONTINUOUS
 10
217.2826343667
 20
121.2963933539
 11
217.3810596791
 21
107.8626272984
  0
LINE
  5
34F
100
AcDbEntity
  8
DTM_AXIS
100
AcDbLine
 62
7
  6
CONTINUOUS
 10
217.60822869
 20
121.4299410657
 11
217.7066540024
 21
107.9961750103
  0
LINE
  5
350
100
AcDbEntity
  8
DTM_AXIS
100
AcDbLine
 62
7
  6
CONTINUOUS
 10
218.0143079159
 20
121.5965009457
 11
218.1127332283
 21
108.1627348903
  0
LINE
  5
351
100
AcDbEntity
  8
DTM_AXIS
100
AcDbLine
 62
7
  6
CONTINUOUS
 10
218.3399022392
 20
121.7300486576
 11
218.4383275516
 21
108.2962826021
  0
LINE
  5
352
100
AcDbEntity
  8
DTM_AXIS
100
AcDbLine
 62
7
  6
CONTINUOUS
 10
218.7459814651
 20
121.8966085376
 11
218.8444067775
 21
108.4628424822
  0
LINE
  5
353
100
AcDbEntity
  8
DTM_AXIS
100
AcDbLine
 62
7
  6
CONTINUOUS
 10
219.0715757885
 20
122.0301562494
 11
219.1700011008
 21
108.596390194
  0
LINE
  5
354
100
AcDbEntity
  8
DTM_AXIS
100
AcDbLine
 62
7
  6
CONTINUOUS
 10
219.4776550144
 20
122.1967161295
 11
219.5760803267
 21
108.7629500741
  0
LINE
  5
355
100
AcDbEntity
  8
DTM_AXIS
100
AcDbLine
 62
7
  6
CONTINUOUS
 10
219.8032493377
 20
122.3302638413
 11
219.90167465
 21
108.8964977859
  0
LINE
  5
356
100
AcDbEntity
  8
DTM_AXIS
100
AcDbLine
 62
7
  6
CONTINUOUS
 10
220.2093285636
 20
122.4968237214
 11
220.3077538759
 21
109.0630576659
  0
LINE
  5
357
100
AcDbEntity
  8
DTM_AXIS
100
AcDbLine
 62
7
  6
CONTINUOUS
 10
220.5349228869
 20
122.6303714332
 11
220.6333481992
 21
109.1966053778
  0
LINE
  5
358
100
AcDbEntity
  8
DTM_AXIS
100
AcDbLine
 62
7
  6
CONTINUOUS
 10
220.9410021128
 20
122.7969313132
 11
221.0394274251
 21
109.3631652578
  0
LINE
  5
359
100
AcDbEntity
  8
0
100
AcDbLine
 62
7
  6
CONTINUOUS
 10
260.2802266537
 20
138.932542551
 11
179.0643814747
 21
105.620566541
  0
LINE
  5
35A
100
AcDbEntity
  8
DTM_AXIS
100
AcDbLine
 62
7
  6
CONTINUOUS
 10
221.2665964361
 20
122.9304790251
 11
221.3650217485
 21
109.4967129696
  0
LINE
  5
35B
100
AcDbEntity
  8
DTM_AXIS
100
AcDbLine
 62
7
  6
CONTINUOUS
 10
221.672675662
 20
123.0970389051
 11
221.7711009744
 21
109.6632728497
  0
LINE
  5
35C
100
AcDbEntity
  8
DTM_AXIS
100
AcDbLine
 62
7
  6
CONTINUOUS
 10
221.9982699853
 20
123.2305866169
 11
222.0966952977
 21
109.7968205615
  0
LINE
  5
35D
100
AcDbEntity
  8
DTM_AXIS
100
AcDbLine
 62
7
  6
CONTINUOUS
 10
222.4043492112
 20
123.397146497
 11
222.5027745236
 21
109.9633804416
  0
LINE
  5
35E
100
AcDbEntity
  8
DTM_AXIS
100
AcDbLine
 62
7
  6
CONTINUOUS
 10
222.7299435346
 20
123.5306942088
 11
222.8283688469
 21
110.0969281534
  0
LINE
  5
35F
100
AcDbEntity
  8
DTM_AXIS
100
AcDbLine
 62
7
  6
CONTINUOUS
 10
223.1360227604
 20
123.6972540889
 11
223.2344480728
 21
110.2634880334
  0
LINE
  5
360
100
AcDbEntity
  8
DTM_AXIS
100
AcDbLine
 62
7
  6
CONTINUOUS
 10
223.4616170838
 20
123.8308018007
 11
223.5600423961
 21
110.3970357452
  0
LINE
  5
361
100
AcDbEntity
  8
DTM_AXIS
100
AcDbLine
 62
7
  6
CONTINUOUS
 10
223.8676963097
 20
123.9973616807
 11
223.966121622
 21
110.5635956253
  0
LINE
  5
362
100
AcDbEntity
  8
DTM_AXIS
100
AcDbLine
 62
7
  6
CONTINUOUS
 10
224.193290633
 20
124.1309093926
 11
224.2917159453
 21
110.6971433371
  0
LINE
  5
363
100
AcDbEntity
  8
DTM_AXIS
100
AcDbLine
 62
7
  6
CONTINUOUS
 10
224.5993698589
 20
124.2974692726
 11
224.6977951712
 21
110.8637032172
  0
LINE
  5
364
100
AcDbEntity
  8
DTM_AXIS
100
AcDbLine
 62
7
  6
CONTINUOUS
 10
224.9249641822
 20
124.4310169844
 11
225.0233894945
 21
110.997250929
  0
LINE
  5
365
100
AcDbEntity
  8
DTM_AXIS
100
AcDbLine
 62
7
  6
CONTINUOUS
 10
225.3310434081
 20
124.5975768645
 11
225.4294687204
 21
111.163810809
  0
LINE
  5
366
100
AcDbEntity
  8
DTM_AXIS
100
AcDbLine
 62
7
  6
CONTINUOUS
 10
225.6566377314
 20
124.7311245763
 11
225.7550630438
 21
111.2973585209
  0
LINE
  5
367
100
AcDbEntity
  8
0
100
AcDbLine
 62
7
  6
CONTINUOUS
 10
167.030518586
 20
91.7910763595
 11
161.1976878154
 21
89.3986476619
  0
LINE
  5
368
100
AcDbEntity
  8
DTM_AXIS
100
AcDbLine
 62
7
  6
CONTINUOUS
 10
226.0627169573
 20
124.8976844563
 11
226.1611422697
 21
111.4639184009
  0
LINE
  5
369
100
AcDbEntity
  8
DTM_AXIS
100
AcDbLine
 62
7
  6
CONTINUOUS
 10
226.3883112806
 20
125.0312321682
 11
226.486736593
 21
111.5974661127
  0
LINE
  5
36A
100
AcDbEntity
  8
DTM_AXIS
100
AcDbLine
 62
7
  6
CONTINUOUS
 10
226.7943905065
 20
125.1977920482
 11
226.8928158189
 21
111.7640259928
  0
LINE
  5
36B
100
AcDbEntity
  8
DTM_AXIS
100
AcDbLine
 62
7
  6
CONTINUOUS
 10
227.1199848299
 20
125.33133976
 11
227.2184101422
 21
111.8975737046
  0
LINE
  5
36C
100
AcDbEntity
  8
DTM_AXIS
100
AcDbLine
 62
7
  6
CONTINUOUS
 10
227.5260640558
 20
125.4978996401
 11
227.6244893681
 21
112.0641335847
  0
LINE
  5
36D
100
AcDbEntity
  8
DTM_AXIS
100
AcDbLine
 62
7
  6
CONTINUOUS
 10
227.8516583791
 20
125.6314473519
 11
227.9500836914
 21
112.1976812965
  0
LINE
  5
36E
100
AcDbEntity
  8
DTM_AXIS
100
AcDbLine
 62
7
  6
CONTINUOUS
 10
228.257737605
 20
125.798007232
 11
228.3561629173
 21
112.3642411765
  0
LINE
  5
36F
100
AcDbEntity
  8
DTM_AXIS
100
AcDbLine
 62
7
  6
CONTINUOUS
 10
228.5833319283
 20
125.9315549438
 11
228.6817572406
 21
112.4977888884
  0
LINE
  5
370
100
AcDbEntity
  8
DTM_AXIS
100
AcDbLine
 62
7
  6
CONTINUOUS
 10
228.9894111542
 20
126.0981148238
 11
229.0878364665
 21
112.6643487684
  0
LINE
  5
371
100
AcDbEntity
  8
DTM_AXIS
100
AcDbLine
 62
7
  6
CONTINUOUS
 10
229.3150054775
 20
126.2316625357
 11
229.4134307899
 21
112.7978964802
  0
LINE
  5
372
100
AcDbEntity
  8
DTM_AXIS
100
AcDbLine
 62
7
  6
CONTINUOUS
 10
229.7210847034
 20
126.3982224157
 11
229.8195100157
 21
112.9644563603
  0
LINE
  5
373
100
AcDbEntity
  8
DTM_AXIS
100
AcDbLine
 62
7
  6
CONTINUOUS
 10
230.0466790267
 20
126.5317701275
 11
230.1451043391
 21
113.0980040721
  0
LINE
  5
374
100
AcDbEntity
  8
DTM_AXIS
100
AcDbLine
 62
7
  6
CONTINUOUS
 10
230.4527582526
 20
126.6983300076
 11
230.551183565
 21
113.2645639522
  0
LINE
  5
375
100
AcDbEntity
  8
0
100
AcDbLine
 62
7
  6
CONTINUOUS
 10
164.4542869872
 20
89.7056438493
 11
166.0648364994
 21
90.3662364541
  0
LINE
  5
376
100
AcDbEntity
  8
0
100
AcDbLine
 62
7
  6
CONTINUOUS
 10
258.8834935873
 20
124.8855134072
 11
258.6803727585
 21
124.8022001552
  0
LINE
  5
377
100
AcDbEntity
  8
DTM_AXIS
100
AcDbLine
 62
7
  6
CONTINUOUS
 10
258.3547784352
 20
124.6686524434
 11
257.9486992093
 21
124.5020925633
  0
LINE
  5
378
100
AcDbEntity
  8
DTM_AXIS
100
AcDbLine
 62
7
  6
CONTINUOUS
 10
257.623104886
 20
124.3685448515
 11
257.2170256601
 21
124.2019849715
  0
LINE
  5
379
100
AcDbEntity
  8
DTM_AXIS
100
AcDbLine
 62
7
  6
CONTINUOUS
 10
256.8914313368
 20
124.0684372596
 11
256.4853521109
 21
123.9018773796
  0
LINE
  5
37A
100
AcDbEntity
  8
DTM_AXIS
100
AcDbLine
 62
7
  6
CONTINUOUS
 10
256.1597577876
 20
123.7683296678
 11
255.7536785617
 21
123.6017697877
  0
LINE
  5
37B
100
AcDbEntity
  8
DTM_AXIS
100
AcDbLine
 62
7
  6
CONTINUOUS
 10
255.4280842383
 20
123.4682220759
 11
255.0220050125
 21
123.3016621958
  0
LINE
  5
37C
100
AcDbEntity
  8
DTM_AXIS
100
AcDbLine
 62
7
  6
CONTINUOUS
 10
254.6964106891
 20
123.168114484
 11
254.2903314632
 21
123.001554604
  0
LINE
  5
37D
100
AcDbEntity
  8
DTM_AXIS
100
AcDbLine
 62
7
  6
CONTINUOUS
 10
253.9647371399
 20
122.8680068921
 11
253.558657914
 21
122.7014470121
  0
LINE
  5
37E
100
AcDbEntity
  8
DTM_AXIS
100
AcDbLine
 62
7
  6
CONTINUOUS
 10
253.2330635907
 20
122.5678993003
 11
252.8269843648
 21
122.4013394202
  0
LINE
  5
37F
100
AcDbEntity
  8
DTM_AXIS
100
AcDbLine
 62
7
  6
CONTINUOUS
 10
252.5013900415
 20
122.2677917084
 11
252.0953108156
 21
122.1012318284
  0
LINE
  5
380
100
AcDbEntity
  8
DTM_AXIS
100
AcDbLine
 62
7
  6
CONTINUOUS
 10
251.7697164923
 20
121.9676841165
 11
251.3636372664
 21
121.8011242365
  0
LINE
  5
381
100
AcDbEntity
  8
DTM_AXIS
100
AcDbLine
 62
7
  6
CONTINUOUS
 10
251.038042943
 20
121.6675765247
 11
250.6319637172
 21
121.5010166446
  0
LINE
  5
382
100
AcDbEntity
  8
DTM_AXIS
100
AcDbLine
 62
7
  6
CONTINUOUS
 10
250.3063693938
 20
121.3674689328
 11
249.9002901679
 21
121.2009090527
  0
LINE
  5
383
100
AcDbEntity
  8
DTM_AXIS
100
AcDbLine
 62
7
  6
CONTINUOUS
 10
249.5746958446
 20
121.0673613409
 11
249.1686166187
 21
120.9008014609
  0
LINE
  5
384
100
AcDbEntity
  8
DTM_AXIS
100
AcDbLine
 62
7
  6
CONTINUOUS
 10
248.8430222954
 20
120.767253749
 11
248.4369430695
 21
120.600693869
  0
LINE
  5
385
100
AcDbEntity
  8
DTM_AXIS
100
AcDbLine
 62
7
  6
CONTINUOUS
 10
248.1113487462
 20
120.4671461572
 11
247.7052695203
 21
120.3005862771
  0
LINE
  5
386
100
AcDbEntity
  8
DTM_AXIS
100
AcDbLine
 62
7
  6
CONTINUOUS
 10
247.379675197
 20
120.1670385653
 11
246.9735959711
 21
120.0004786852
  0
LINE
  5
387
100
AcDbEntity
  8
DTM_AXIS
100
AcDbLine
 62
7
  6
CONTINUOUS
 10
246.6480016477
 20
119.8669309734
 11
246.2419224218
 21
119.7003710934
  0
LINE
  5
388
100
AcDbEntity
  8
DTM_AXIS
100
AcDbLine
 62
7
  6
CONTINUOUS
 10
245.9163280985
 20
119.5668233815
 11
245.5102488726
 21
119.4002635015
  0
LINE
  5
389
100
AcDbEntity
  8
DTM_AXIS
100
AcDbLine
 62
7
  6
CONTINUOUS
 10
245.1846545493
 20
119.2667157897
 11
244.7785753234
 21
119.1001559096
  0
LINE
  5
38A
100
AcDbEntity
  8
DTM_AXIS
100
AcDbLine
 62
7
  6
CONTINUOUS
 10
244.4529810001
 20
118.9666081978
 11
244.0469017742
 21
118.8000483177
  0
LINE
  5
38B
100
AcDbEntity
  8
DTM_AXIS
100
AcDbLine
 62
7
  6
CONTINUOUS
 10
243.7213074509
 20
118.6665006059
 11
243.315228225
 21
118.4999407259
  0
LINE
  5
38C
100
AcDbEntity
  8
DTM_AXIS
100
AcDbLine
 62
7
  6
CONTINUOUS
 10
242.9896339017
 20
118.366393014
 11
242.5835546758
 21
118.199833134
  0
LINE
  5
38D
100
AcDbEntity
  8
DTM_AXIS
100
AcDbLine
 62
7
  6
CONTINUOUS
 10
242.2579603524
 20
118.0662854222
 11
241.8518811265
 21
117.8997255421
  0
LINE
  5
38E
100
AcDbEntity
  8
DTM_AXIS
100
AcDbLine
 62
7
  6
CONTINUOUS
 10
241.5262868032
 20
117.7661778303
 11
241.1202075773
 21
117.5996179502
  0
LINE
  5
38F
100
AcDbEntity
  8
DTM_AXIS
100
AcDbLine
 62
7
  6
CONTINUOUS
 10
240.794613254
 20
117.4660702384
 11
240.3885340281
 21
117.2995103584
  0
LINE
  5
390
100
AcDbEntity
  8
DTM_AXIS
100
AcDbLine
 62
7
  6
CONTINUOUS
 10
240.0629397048
 20
117.1659626465
 11
239.6568604789
 21
116.9994027665
  0
LINE
  5
391
100
AcDbEntity
  8
DTM_AXIS
100
AcDbLine
 62
7
  6
CONTINUOUS
 10
239.3312661556
 20
116.8658550547
 11
238.9251869297
 21
116.6992951746
  0
LINE
  5
392
100
AcDbEntity
  8
DTM_AXIS
100
AcDbLine
 62
7
  6
CONTINUOUS
 10
238.5995926064
 20
116.5657474628
 11
238.1935133805
 21
116.3991875827
  0
LINE
  5
393
100
AcDbEntity
  8
DTM_AXIS
100
AcDbLine
 62
7
  6
CONTINUOUS
 10
237.8679190571
 20
116.2656398709
 11
237.4618398312
 21
116.0990799909
  0
LINE
  5
394
100
AcDbEntity
  8
DTM_AXIS
100
AcDbLine
 62
7
  6
CONTINUOUS
 10
237.1362455079
 20
115.965532279
 11
236.730166282
 21
115.798972399
  0
LINE
  5
395
100
AcDbEntity
  8
DTM_AXIS
100
AcDbLine
 62
7
  6
CONTINUOUS
 10
236.4045719587
 20
115.6654246872
 11
235.9984927328
 21
115.4988648071
  0
LINE
  5
396
100
AcDbEntity
  8
DTM_AXIS
100
AcDbLine
 62
7
  6
CONTINUOUS
 10
235.6728984095
 20
115.3653170953
 11
235.2668191836
 21
115.1987572152
  0
LINE
  5
397
100
AcDbEntity
  8
DTM_AXIS
100
AcDbLine
 62
7
  6
CONTINUOUS
 10
234.9412248603
 20
115.0652095034
 11
234.5351456344
 21
114.8986496234
  0
LINE
  5
398
100
AcDbEntity
  8
DTM_AXIS
100
AcDbLine
 62
7
  6
CONTINUOUS
 10
234.2095513111
 20
114.7651019115
 11
233.8034720852
 21
114.5985420315
  0
LINE
  5
399
100
AcDbEntity
  8
DTM_AXIS
100
AcDbLine
 62
7
  6
CONTINUOUS
 10
233.4778777618
 20
114.4649943197
 11
233.0717985359
 21
114.2984344396
  0
LINE
  5
39A
100
AcDbEntity
  8
DTM_AXIS
100
AcDbLine
 62
7
  6
CONTINUOUS
 10
232.7462042126
 20
114.1648867278
 11
232.3401249867
 21
113.9983268477
  0
LINE
  5
39B
100
AcDbEntity
  8
DTM_AXIS
100
AcDbLine
 62
7
  6
CONTINUOUS
 10
232.0145306634
 20
113.8647791359
 11
231.6084514375
 21
113.6982192559
  0
LINE
  5
39C
100
AcDbEntity
  8
DTM_AXIS
100
AcDbLine
 62
7
  6
CONTINUOUS
 10
231.2828571142
 20
113.564671544
 11
230.8767778883
 21
113.398111664
  0
LINE
  5
39D
100
AcDbEntity
  8
DTM_AXIS
100
AcDbLine
 62
7
  6
CONTINUOUS
 10
230.551183565
 20
113.2645639522
 11
230.1451043391
 21
113.0980040721
  0
LINE
  5
39E
100
AcDbEntity
  8
DTM_AXIS
100
AcDbLine
 62
7
  6
CONTINUOUS
 10
229.8195100157
 20
112.9644563603
 11
229.4134307899
 21
112.7978964802
  0
LINE
  5
39F
100
AcDbEntity
  8
DTM_AXIS
100
AcDbLine
 62
7
  6
CONTINUOUS
 10
229.0878364665
 20
112.6643487684
 11
228.6817572406
 21
112.4977888884
  0
LINE
  5
3A0
100
AcDbEntity
  8
DTM_AXIS
100
AcDbLine
 62
7
  6
CONTINUOUS
 10
228.3561629173
 20
112.3642411765
 11
227.9500836914
 21
112.1976812965
  0
LINE
  5
3A1
100
AcDbEntity
  8
DTM_AXIS
100
AcDbLine
 62
7
  6
CONTINUOUS
 10
227.6244893681
 20
112.0641335847
 11
227.2184101422
 21
111.8975737046
  0
LINE
  5
3A2
100
AcDbEntity
  8
DTM_AXIS
100
AcDbLine
 62
7
  6
CONTINUOUS
 10
226.8928158189
 20
111.7640259928
 11
226.486736593
 21
111.5974661127
  0
LINE
  5
3A3
100
AcDbEntity
  8
DTM_AXIS
100
AcDbLine
 62
7
  6
CONTINUOUS
 10
226.1611422697
 20
111.4639184009
 11
225.7550630438
 21
111.2973585209
  0
LINE
  5
3A4
100
AcDbEntity
  8
DTM_AXIS
100
AcDbLine
 62
7
  6
CONTINUOUS
 10
225.4294687204
 20
111.163810809
 11
225.0233894945
 21
110.997250929
  0
LINE
  5
3A5
100
AcDbEntity
  8
DTM_AXIS
100
AcDbLine
 62
7
  6
CONTINUOUS
 10
224.6977951712
 20
110.8637032172
 11
224.2917159453
 21
110.6971433371
  0
LINE
  5
3A6
100
AcDbEntity
  8
DTM_AXIS
100
AcDbLine
 62
7
  6
CONTINUOUS
 10
223.966121622
 20
110.5635956253
 11
223.5600423961
 21
110.3970357452
  0
LINE
  5
3A7
100
AcDbEntity
  8
DTM_AXIS
100
AcDbLine
 62
7
  6
CONTINUOUS
 10
223.2344480728
 20
110.2634880334
 11
222.8283688469
 21
110.0969281534
  0
LINE
  5
3A8
100
AcDbEntity
  8
DTM_AXIS
100
AcDbLine
 62
7
  6
CONTINUOUS
 10
222.5027745236
 20
109.9633804416
 11
222.0966952977
 21
109.7968205615
  0
LINE
  5
3A9
100
AcDbEntity
  8
DTM_AXIS
100
AcDbLine
 62
7
  6
CONTINUOUS
 10
221.7711009744
 20
109.6632728497
 11
221.3650217485
 21
109.4967129696
  0
LINE
  5
3AA
100
AcDbEntity
  8
DTM_AXIS
100
AcDbLine
 62
7
  6
CONTINUOUS
 10
221.0394274251
 20
109.3631652578
 11
220.6333481992
 21
109.1966053778
  0
LINE
  5
3AB
100
AcDbEntity
  8
DTM_AXIS
100
AcDbLine
 62
7
  6
CONTINUOUS
 10
220.3077538759
 20
109.0630576659
 11
219.90167465
 21
108.8964977859
  0
LINE
  5
3AC
100
AcDbEntity
  8
DTM_AXIS
100
AcDbLine
 62
7
  6
CONTINUOUS
 10
219.5760803267
 20
108.7629500741
 11
219.1700011008
 21
108.596390194
  0
LINE
  5
3AD
100
AcDbEntity
  8
DTM_AXIS
100
AcDbLine
 62
7
  6
CONTINUOUS
 10
218.8444067775
 20
108.4628424822
 11
218.4383275516
 21
108.2962826021
  0
LINE
  5
3AE
100
AcDbEntity
  8
DTM_AXIS
100
AcDbLine
 62
7
  6
CONTINUOUS
 10
218.1127332283
 20
108.1627348903
 11
217.7066540024
 21
107.9961750103
  0
LINE
  5
3AF
100
AcDbEntity
  8
DTM_AXIS
100
AcDbLine
 62
7
  6
CONTINUOUS
 10
217.3810596791
 20
107.8626272984
 11
216.9749804532
 21
107.6960674184
  0
LINE
  5
3B0
100
AcDbEntity
  8
DTM_AXIS
100
AcDbLine
 62
7
  6
CONTINUOUS
 10
216.6493861298
 20
107.5625197066
 11
216.2433069039
 21
107.3959598265
  0
LINE
  5
3B1
100
AcDbEntity
  8
DTM_AXIS
100
AcDbLine
 62
7
  6
CONTINUOUS
 10
215.9177125806
 20
107.2624121147
 11
215.5116333547
 21
107.0958522346
  0
LINE
  5
3B2
100
AcDbEntity
  8
DTM_AXIS
100
AcDbLine
 62
7
  6
CONTINUOUS
 10
215.1860390314
 20
106.9623045228
 11
214.7799598055
 21
106.7957446428
  0
LINE
  5
3B3
100
AcDbEntity
  8
DTM_AXIS
100
AcDbLine
 62
7
  6
CONTINUOUS
 10
214.4543654822
 20
106.6621969309
 11
214.0482862563
 21
106.4956370509
  0
LINE
  5
3B4
100
AcDbEntity
  8
DTM_AXIS
100
AcDbLine
 62
7
  6
CONTINUOUS
 10
213.722691933
 20
106.3620893391
 11
213.3166127071
 21
106.195529459
  0
LINE
  5
3B5
100
AcDbEntity
  8
DTM_AXIS
100
AcDbLine
 62
7
  6
CONTINUOUS
 10
212.9910183838
 20
106.0619817472
 11
212.5849391579
 21
105.8954218671
  0
LINE
  5
3B6
100
AcDbEntity
  8
DTM_AXIS
100
AcDbLine
 62
7
  6
CONTINUOUS
 10
212.2593448345
 20
105.7618741553
 11
211.8532656086
 21
105.5953142753
  0
LINE
  5
3B7
100
AcDbEntity
  8
DTM_AXIS
100
AcDbLine
 62
7
  6
CONTINUOUS
 10
211.5276712853
 20
105.4617665634
 11
211.1215920594
 21
105.2952066834
  0
LINE
  5
3B8
100
AcDbEntity
  8
DTM_AXIS
100
AcDbLine
 62
7
  6
CONTINUOUS
 10
210.7959977361
 20
105.1616589716
 11
210.3899185102
 21
104.9950990915
  0
LINE
  5
3B9
100
AcDbEntity
  8
DTM_AXIS
100
AcDbLine
 62
7
  6
CONTINUOUS
 10
210.0643241869
 20
104.8615513797
 11
209.658244961
 21
104.6949914996
  0
LINE
  5
3BA
100
AcDbEntity
  8
DTM_AXIS
100
AcDbLine
 62
7
  6
CONTINUOUS
 10
209.3326506377
 20
104.5614437878
 11
208.9265714118
 21
104.3948839078
  0
LINE
  5
3BB
100
AcDbEntity
  8
DTM_AXIS
100
AcDbLine
 62
7
  6
CONTINUOUS
 10
208.6009770884
 20
104.2613361959
 11
208.1948978626
 21
104.0947763159
  0
LINE
  5
3BC
100
AcDbEntity
  8
DTM_AXIS
100
AcDbLine
 62
7
  6
CONTINUOUS
 10
207.8693035392
 20
103.9612286041
 11
207.4632243133
 21
103.794668724
  0
LINE
  5
3BD
100
AcDbEntity
  8
DTM_AXIS
100
AcDbLine
 62
7
  6
CONTINUOUS
 10
207.13762999
 20
103.6611210122
 11
206.7315507641
 21
103.4945611321
  0
LINE
  5
3BE
100
AcDbEntity
  8
DTM_AXIS
100
AcDbLine
 62
7
  6
CONTINUOUS
 10
206.4059564408
 20
103.3610134203
 11
205.9998772149
 21
103.1944535403
  0
LINE
  5
3BF
100
AcDbEntity
  8
DTM_AXIS
100
AcDbLine
 62
7
  6
CONTINUOUS
 10
205.6742828916
 20
103.0609058284
 11
205.2682036657
 21
102.8943459484
  0
LINE
  5
3C0
100
AcDbEntity
  8
DTM_AXIS
100
AcDbLine
 62
7
  6
CONTINUOUS
 10
204.9426093424
 20
102.7607982366
 11
204.5365301165
 21
102.5942383565
  0
LINE
  5
3C1
100
AcDbEntity
  8
DTM_AXIS
100
AcDbLine
 62
7
  6
CONTINUOUS
 10
204.2109357931
 20
102.4606906447
 11
203.8048565673
 21
102.2941307646
  0
LINE
  5
3C2
100
AcDbEntity
  8
DTM_AXIS
100
AcDbLine
 62
7
  6
CONTINUOUS
 10
203.4792622439
 20
102.1605830528
 11
203.073183018
 21
101.9940231728
  0
LINE
  5
3C3
100
AcDbEntity
  8
DTM_AXIS
100
AcDbLine
 62
7
  6
CONTINUOUS
 10
202.7475886947
 20
101.8604754609
 11
202.3415094688
 21
101.6939155809
  0
LINE
  5
3C4
100
AcDbEntity
  8
DTM_AXIS
100
AcDbLine
 62
7
  6
CONTINUOUS
 10
202.0159151455
 20
101.5603678691
 11
201.6098359196
 21
101.393807989
  0
LINE
  5
3C5
100
AcDbEntity
  8
DTM_AXIS
100
AcDbLine
 62
7
  6
CONTINUOUS
 10
201.2842415963
 20
101.2602602772
 11
200.8781623704
 21
101.0937003971
  0
LINE
  5
3C6
100
AcDbEntity
  8
DTM_AXIS
100
AcDbLine
 62
7
  6
CONTINUOUS
 10
200.5525680471
 20
100.9601526853
 11
200.1464888212
 21
100.7935928053
  0
LINE
  5
3C7
100
AcDbEntity
  8
DTM_AXIS
100
AcDbLine
 62
7
  6
CONTINUOUS
 10
199.8208944978
 20
100.6600450934
 11
199.4148152719
 21
100.4934852134
  0
LINE
  5
3C8
100
AcDbEntity
  8
DTM_AXIS
100
AcDbLine
 62
7
  6
CONTINUOUS
 10
199.0892209486
 20
100.3599375016
 11
198.6831417227
 21
100.1933776215
  0
LINE
  5
3C9
100
AcDbEntity
  8
DTM_AXIS
100
AcDbLine
 62
7
  6
CONTINUOUS
 10
198.3575473994
 20
100.0598299097
 11
197.9514681735
 21
99.8932700296
  0
LINE
  5
3CA
100
AcDbEntity
  8
DTM_AXIS
100
AcDbLine
 62
7
  6
CONTINUOUS
 10
197.6258738502
 20
99.7597223178
 11
197.2197946243
 21
99.5931624378
  0
LINE
  5
3CB
100
AcDbEntity
  8
DTM_AXIS
100
AcDbLine
 62
7
  6
CONTINUOUS
 10
196.894200301
 20
99.4596147259
 11
196.4881210751
 21
99.2930548459
  0
LINE
  5
3CC
100
AcDbEntity
  8
DTM_AXIS
100
AcDbLine
 62
7
  6
CONTINUOUS
 10
196.1625267518
 20
99.1595071341
 11
195.7564475259
 21
98.992947254
  0
LINE
  5
3CD
100
AcDbEntity
  8
DTM_AXIS
100
AcDbLine
 62
7
  6
CONTINUOUS
 10
195.4308532025
 20
98.8593995422
 11
195.0247739766
 21
98.6928396621
  0
LINE
  5
3CE
100
AcDbEntity
  8
DTM_AXIS
100
AcDbLine
 62
7
  6
CONTINUOUS
 10
194.6991796533
 20
98.5592919503
 11
194.2931004274
 21
98.3927320703
  0
LINE
  5
3CF
100
AcDbEntity
  8
DTM_AXIS
100
AcDbLine
 62
7
  6
CONTINUOUS
 10
193.9675061041
 20
98.2591843585
 11
193.5614268782
 21
98.0926244784
  0
LINE
  5
3D0
100
AcDbEntity
  8
DTM_AXIS
100
AcDbLine
 62
7
  6
CONTINUOUS
 10
193.2358325549
 20
97.9590767666
 11
192.829753329
 21
97.7925168865
  0
LINE
  5
3D1
100
AcDbEntity
  8
DTM_AXIS
100
AcDbLine
 62
7
  6
CONTINUOUS
 10
192.5041590057
 20
97.6589691747
 11
192.0980797798
 21
97.4924092947
  0
LINE
  5
3D2
100
AcDbEntity
  8
DTM_AXIS
100
AcDbLine
 62
7
  6
CONTINUOUS
 10
191.7724854565
 20
97.3588615828
 11
191.3664062306
 21
97.1923017028
  0
LINE
  5
3D3
100
AcDbEntity
  8
DTM_AXIS
100
AcDbLine
 62
7
  6
CONTINUOUS
 10
191.0408119072
 20
97.058753991
 11
190.6347326813
 21
96.8921941109
  0
LINE
  5
3D4
100
AcDbEntity
  8
DTM_AXIS
100
AcDbLine
 62
7
  6
CONTINUOUS
 10
190.309138358
 20
96.7586463991
 11
189.9030591321
 21
96.592086519
  0
LINE
  5
3D5
100
AcDbEntity
  8
DTM_AXIS
100
AcDbLine
 62
7
  6
CONTINUOUS
 10
189.5774648088
 20
96.4585388072
 11
189.1713855829
 21
96.2919789272
  0
LINE
  5
3D6
100
AcDbEntity
  8
DTM_AXIS
100
AcDbLine
 62
7
  6
CONTINUOUS
 10
188.8457912596
 20
96.1584312153
 11
188.4397120337
 21
95.9918713353
  0
LINE
  5
3D7
100
AcDbEntity
  8
DTM_AXIS
100
AcDbLine
 62
7
  6
CONTINUOUS
 10
188.1141177104
 20
95.8583236235
 11
187.7080384845
 21
95.6917637434
  0
LINE
  5
3D8
100
AcDbEntity
  8
DTM_AXIS
100
AcDbLine
 62
7
  6
CONTINUOUS
 10
187.3824441611
 20
95.5582160316
 11
186.9763649353
 21
95.3916561515
  0
LINE
  5
3D9
100
AcDbEntity
  8
DTM_AXIS
100
AcDbLine
 62
7
  6
CONTINUOUS
 10
186.6507706119
 20
95.2581084397
 11
186.244691386
 21
95.0915485597
  0
LINE
  5
3DA
100
AcDbEntity
  8
DTM_AXIS
100
AcDbLine
 62
7
  6
CONTINUOUS
 10
185.9190970627
 20
94.9580008478
 11
185.5130178368
 21
94.7914409678
  0
LINE
  5
3DB
100
AcDbEntity
  8
DTM_AXIS
100
AcDbLine
 62
7
  6
CONTINUOUS
 10
185.1874235135
 20
94.657893256
 11
184.7813442876
 21
94.4913333759
  0
LINE
  5
3DC
100
AcDbEntity
  8
DTM_AXIS
100
AcDbLine
 62
7
  6
CONTINUOUS
 10
184.4557499643
 20
94.3577856641
 11
184.0496707384
 21
94.191225784
  0
LINE
  5
3DD
100
AcDbEntity
  8
DTM_AXIS
100
AcDbLine
 62
7
  6
CONTINUOUS
 10
183.7240764151
 20
94.0576780722
 11
183.3179971892
 21
93.8911181922
  0
LINE
  5
3DE
100
AcDbEntity
  8
DTM_AXIS
100
AcDbLine
 62
7
  6
CONTINUOUS
 10
182.9924028658
 20
93.7575704803
 11
182.58632364
 21
93.5910106003
  0
LINE
  5
3DF
100
AcDbEntity
  8
DTM_AXIS
100
AcDbLine
 62
7
  6
CONTINUOUS
 10
182.2607293166
 20
93.4574628885
 11
181.8546500907
 21
93.2909030084
  0
LINE
  5
3E0
100
AcDbEntity
  8
DTM_AXIS
100
AcDbLine
 62
7
  6
CONTINUOUS
 10
181.5290557674
 20
93.1573552966
 11
181.1229765415
 21
92.9907954165
  0
LINE
  5
3E1
100
AcDbEntity
  8
DTM_AXIS
100
AcDbLine
 62
7
  6
CONTINUOUS
 10
180.7973822182
 20
92.8572477047
 11
180.3913029923
 21
92.6906878247
  0
LINE
  5
3E2
100
AcDbEntity
  8
DTM_AXIS
100
AcDbLine
 62
7
  6
CONTINUOUS
 10
180.065708669
 20
92.5571401128
 11
179.6596294431
 21
92.3905802328
  0
LINE
  5
3E3
100
AcDbEntity
  8
DTM_AXIS
100
AcDbLine
 62
7
  6
CONTINUOUS
 10
179.3340351198
 20
92.257032521
 11
178.9279558939
 21
92.0904726409
  0
LINE
  5
3E4
100
AcDbEntity
  8
DTM_AXIS
100
AcDbLine
 62
7
  6
CONTINUOUS
 10
178.6023615705
 20
91.9569249291
 11
178.1962823446
 21
91.790365049
  0
LINE
  5
3E5
100
AcDbEntity
  8
0
100
AcDbLine
 62
7
  6
CONTINUOUS
 10
177.8706880213
 20
91.6568173372
 11
177.6676484084
 21
91.5735373972
  0
LINE
  5
3E6
100
AcDbEntity
  8
0
100
AcDbLine
 62
7
  6
CONTINUOUS
 10
171.8351409526
 20
137.6760373822
 11
160.8423995258
 21
137.8908459777
  0
LINE
  5
3E7
100
AcDbEntity
  8
DTM_AXIS
100
AcDbLine
 62
7
  6
CONTINUOUS
 10
230.7783525759
 20
126.8318777194
 11
230.8767778883
 21
113.398111664
  0
LINE
  5
3E8
100
AcDbEntity
  8
DTM_AXIS
100
AcDbLine
 62
7
  6
CONTINUOUS
 10
231.1844318018
 20
126.9984375995
 11
231.2828571142
 21
113.564671544
  0
LINE
  5
3E9
100
AcDbEntity
  8
DTM_AXIS
100
AcDbLine
 62
7
  6
CONTINUOUS
 10
231.5100261252
 20
127.1319853113
 11
231.6084514375
 21
113.6982192559
  0
LINE
  5
3EA
100
AcDbEntity
  8
DTM_AXIS
100
AcDbLine
 62
7
  6
CONTINUOUS
 10
231.9161053511
 20
127.2985451913
 11
232.0145306634
 21
113.8647791359
  0
LINE
  5
3EB
100
AcDbEntity
  8
DTM_AXIS
100
AcDbLine
 62
7
  6
CONTINUOUS
 10
232.2416996744
 20
127.4320929032
 11
232.3401249867
 21
113.9983268477
  0
LINE
  5
3EC
100
AcDbEntity
  8
DTM_AXIS
100
AcDbLine
 62
7
  6
CONTINUOUS
 10
232.6477789003
 20
127.5986527832
 11
232.7462042126
 21
114.1648867278
  0
LINE
  5
3ED
100
AcDbEntity
  8
DTM_AXIS
100
AcDbLine
 62
7
  6
CONTINUOUS
 10
232.9733732236
 20
127.732200495
 11
233.0717985359
 21
114.2984344396
  0
LINE
  5
3EE
100
AcDbEntity
  8
DTM_AXIS
100
AcDbLine
 62
7
  6
CONTINUOUS
 10
233.3794524495
 20
127.8987603751
 11
233.4778777618
 21
114.4649943197
  0
LINE
  5
3EF
100
AcDbEntity
  8
DTM_AXIS
100
AcDbLine
 62
7
  6
CONTINUOUS
 10
233.7050467728
 20
128.0323080869
 11
233.8034720852
 21
114.5985420315
  0
LINE
  5
3F0
100
AcDbEntity
  8
DTM_AXIS
100
AcDbLine
 62
7
  6
CONTINUOUS
 10
234.1111259987
 20
128.198867967
 11
234.2095513111
 21
114.7651019115
  0
LINE
  5
3F1
100
AcDbEntity
  8
DTM_AXIS
100
AcDbLine
 62
7
  6
CONTINUOUS
 10
234.436720322
 20
128.3324156788
 11
234.5351456344
 21
114.8986496234
  0
LINE
  5
3F2
100
AcDbEntity
  8
DTM_AXIS
100
AcDbLine
 62
7
  6
CONTINUOUS
 10
234.8427995479
 20
128.4989755588
 11
234.9412248603
 21
115.0652095034
  0
LINE
  5
3F3
100
AcDbEntity
  8
DTM_AXIS
100
AcDbLine
 62
7
  6
CONTINUOUS
 10
235.1683938712
 20
128.6325232707
 11
235.2668191836
 21
115.1987572152
  0
LINE
  5
3F4
100
AcDbEntity
  8
DTM_AXIS
100
AcDbLine
 62
7
  6
CONTINUOUS
 10
235.5744730971
 20
128.7990831507
 11
235.6728984095
 21
115.3653170953
  0
LINE
  5
3F5
100
AcDbEntity
  8
0
100
AcDbLine
 62
7
  6
CONTINUOUS
 10
256.4155277595
 20
120.9040804775
 11
175.1996825805
 21
87.5921044675
  0
LINE
  5
3F6
100
AcDbEntity
  8
0
100
AcDbLine
 62
7
  6
CONTINUOUS
 10
161.4328291675
 20
80.2396868816
 11
161.2652963321
 21
80.1709706134
  0
LINE
  5
3F7
100
AcDbEntity
  8
DTM_AXIS
100
AcDbLine
 62
7
  6
CONTINUOUS
 10
235.9000674205
 20
128.9326308625
 11
235.9984927328
 21
115.4988648071
  0
LINE
  5
3F8
100
AcDbEntity
  8
DTM_AXIS
100
AcDbLine
 62
7
  6
CONTINUOUS
 10
236.3061466464
 20
129.0991907426
 11
236.4045719587
 21
115.6654246872
  0
LINE
  5
3F9
100
AcDbEntity
  8
DTM_AXIS
100
AcDbLine
 62
7
  6
CONTINUOUS
 10
236.6317409697
 20
129.2327384544
 11
236.730166282
 21
115.798972399
  0
LINE
  5
3FA
100
AcDbEntity
  8
DTM_AXIS
100
AcDbLine
 62
7
  6
CONTINUOUS
 10
237.0378201956
 20
129.3992983345
 11
237.1362455079
 21
115.965532279
  0
LINE
  5
3FB
100
AcDbEntity
  8
DTM_AXIS
100
AcDbLine
 62
7
  6
CONTINUOUS
 10
237.3634145189
 20
129.5328460463
 11
237.4618398312
 21
116.0990799909
  0
LINE
  5
3FC
100
AcDbEntity
  8
DTM_AXIS
100
AcDbLine
 62
7
  6
CONTINUOUS
 10
237.7694937448
 20
129.6994059263
 11
237.8679190571
 21
116.2656398709
  0
LINE
  5
3FD
100
AcDbEntity
  8
DTM_AXIS
100
AcDbLine
 62
7
  6
CONTINUOUS
 10
238.0950880681
 20
129.8329536382
 11
238.1935133805
 21
116.3991875827
  0
LINE
  5
3FE
100
AcDbEntity
  8
DTM_AXIS
100
AcDbLine
 62
7
  6
CONTINUOUS
 10
238.501167294
 20
129.9995135182
 11
238.5995926064
 21
116.5657474628
  0
LINE
  5
3FF
100
AcDbEntity
  8
DTM_AXIS
100
AcDbLine
 62
7
  6
CONTINUOUS
 10
238.8267616173
 20
130.13306123
 11
238.9251869297
 21
116.6992951746
  0
LINE
  5
400
100
AcDbEntity
  8
DTM_AXIS
100
AcDbLine
 62
7
  6
CONTINUOUS
 10
239.2328408432
 20
130.2996211101
 11
239.3312661556
 21
116.8658550547
  0
LINE
  5
401
100
AcDbEntity
  8
DTM_AXIS
100
AcDbLine
 62
7
  6
CONTINUOUS
 10
239.5584351665
 20
130.4331688219
 11
239.6568604789
 21
116.9994027665
  0
LINE
  5
402
100
AcDbEntity
  8
DTM_AXIS
100
AcDbLine
 62
7
  6
CONTINUOUS
 10
239.9645143924
 20
130.599728702
 11
240.0629397048
 21
117.1659626465
  0
LINE
  5
403
100
AcDbEntity
  8
DTM_AXIS
100
AcDbLine
 62
7
  6
CONTINUOUS
 10
240.2901087158
 20
130.7332764138
 11
240.3885340281
 21
117.2995103584
  0
LINE
  5
404
100
AcDbEntity
  8
DTM_AXIS
100
AcDbLine
 62
7
  6
CONTINUOUS
 10
168.8345432386
 20
79.0513524691
 11
250.0503884176
 21
112.3633284792
  0
LINE
  5
405
100
AcDbEntity
  8
DTM_AXIS
100
AcDbLine
 62
7
  6
CONTINUOUS
 10
240.6961879417
 20
130.8998362938
 11
240.794613254
 21
117.4660702384
  0
LINE
  5
406
100
AcDbEntity
  8
DTM_AXIS
100
AcDbLine
 62
7
  6
CONTINUOUS
 10
241.021782265
 20
131.0333840057
 11
241.1202075773
 21
117.5996179502
  0
LINE
  5
407
100
AcDbEntity
  8
DTM_AXIS
100
AcDbLine
 62
7
  6
CONTINUOUS
 10
241.4278614909
 20
131.1999438857
 11
241.5262868032
 21
117.7661778303
  0
LINE
  5
408
100
AcDbEntity
  8
DTM_AXIS
100
AcDbLine
 62
7
  6
CONTINUOUS
 10
241.7534558142
 20
131.3334915975
 11
241.8518811265
 21
117.8997255421
  0
LINE
  5
409
100
AcDbEntity
  8
DTM_AXIS
100
AcDbLine
 62
7
  6
CONTINUOUS
 10
242.1595350401
 20
131.5000514776
 11
242.2579603524
 21
118.0662854222
  0
LINE
  5
40A
100
AcDbEntity
  8
DTM_AXIS
100
AcDbLine
 62
7
  6
CONTINUOUS
 10
242.4851293634
 20
131.6335991894
 11
242.5835546758
 21
118.199833134
  0
LINE
  5
40B
100
AcDbEntity
  8
DTM_AXIS
100
AcDbLine
 62
7
  6
CONTINUOUS
 10
242.8912085893
 20
131.8001590695
 11
242.9896339017
 21
118.366393014
  0
LINE
  5
40C
100
AcDbEntity
  8
DTM_AXIS
100
AcDbLine
 62
7
  6
CONTINUOUS
 10
243.2168029126
 20
131.9337067813
 11
243.315228225
 21
118.4999407259
  0
LINE
  5
40D
100
AcDbEntity
  8
DTM_AXIS
100
AcDbLine
 62
7
  6
CONTINUOUS
 10
243.6228821385
 20
132.1002666613
 11
243.7213074509
 21
118.6665006059
  0
LINE
  5
40E
100
AcDbEntity
  8
DTM_AXIS
100
AcDbLine
 62
7
  6
CONTINUOUS
 10
243.9484764619
 20
132.2338143732
 11
244.0469017742
 21
118.8000483177
  0
LINE
  5
40F
100
AcDbEntity
  8
DTM_AXIS
100
AcDbLine
 62
7
  6
CONTINUOUS
 10
244.3545556877
 20
132.4003742532
 11
244.4529810001
 21
118.9666081978
  0
LINE
  5
410
100
AcDbEntity
  8
DTM_AXIS
100
AcDbLine
 62
7
  6
CONTINUOUS
 10
244.6801500111
 20
132.533921965
 11
244.7785753234
 21
119.1001559096
  0
LINE
  5
411
100
AcDbEntity
  8
DTM_AXIS
100
AcDbLine
 62
7
  6
CONTINUOUS
 10
245.086229237
 20
132.7004818451
 11
245.1846545493
 21
119.2667157897
  0
LINE
  5
412
100
AcDbEntity
  8
0
100
AcDbLine
 62
7
  6
CONTINUOUS
 10
247.5181983611
 20
107.8772133865
 11
166.3023531822
 21
74.5652373765
  0
LINE
  5
413
100
AcDbEntity
  8
DTM_AXIS
100
AcDbLine
 62
7
  6
CONTINUOUS
 10
245.4118235603
 20
132.8340295569
 11
245.5102488726
 21
119.4002635015
  0
LINE
  5
414
100
AcDbEntity
  8
DTM_AXIS
100
AcDbLine
 62
7
  6
CONTINUOUS
 10
245.8179027862
 20
133.000589437
 11
245.9163280985
 21
119.5668233815
  0
LINE
  5
415
100
AcDbEntity
  8
DTM_AXIS
100
AcDbLine
 62
7
  6
CONTINUOUS
 10
246.1434971095
 20
133.1341371488
 11
246.2419224218
 21
119.7003710934
  0
LINE
  5
416
100
AcDbEntity
  8
DTM_AXIS
100
AcDbLine
 62
7
  6
CONTINUOUS
 10
246.5495763354
 20
133.3006970288
 11
246.6480016477
 21
119.8669309734
  0
LINE
  5
417
100
AcDbEntity
  8
DTM_AXIS
100
AcDbLine
 62
7
  6
CONTINUOUS
 10
246.8751706587
 20
133.4342447407
 11
246.9735959711
 21
120.0004786852
  0
LINE
  5
418
100
AcDbEntity
  8
DTM_AXIS
100
AcDbLine
 62
7
  6
CONTINUOUS
 10
247.2812498846
 20
133.6008046207
 11
247.379675197
 21
120.1670385653
  0
LINE
  5
419
100
AcDbEntity
  8
0
100
AcDbLine
 62
7
  6
CONTINUOUS
 10
247.5181983611
 20
107.8772133865
 11
247.4930152296
 21
111.3143810219
  0
LINE
  5
41A
100
AcDbEntity
  8
DTM_AXIS
100
AcDbLine
 62
7
  6
CONTINUOUS
 10
247.6068442079
 20
133.7343523325
 11
247.7052695203
 21
120.3005862771
  0
LINE
  5
41B
100
AcDbEntity
  8
DTM_AXIS
100
AcDbLine
 62
7
  6
CONTINUOUS
 10
248.0129234338
 20
133.9009122126
 11
248.1113487462
 21
120.4671461572
  0
LINE
  5
41C
100
AcDbEntity
  8
DTM_AXIS
100
AcDbLine
 62
7
  6
CONTINUOUS
 10
248.3385177572
 20
134.0344599244
 11
248.4369430695
 21
120.600693869
  0
LINE
  5
41D
100
AcDbEntity
  8
DTM_AXIS
100
AcDbLine
 62
7
  6
CONTINUOUS
 10
248.744596983
 20
134.2010198045
 11
248.8430222954
 21
120.767253749
  0
LINE
  5
41E
100
AcDbEntity
  8
DTM_AXIS
100
AcDbLine
 62
7
  6
CONTINUOUS
 10
249.0701913064
 20
134.3345675163
 11
249.1686166187
 21
120.9008014609
  0
LINE
  5
41F
100
AcDbEntity
  8
DTM_AXIS
100
AcDbLine
 62
7
  6
CONTINUOUS
 10
249.4762705323
 20
134.5011273963
 11
249.5746958446
 21
121.0673613409
  0
LINE
  5
420
100
AcDbEntity
  8
DTM_AXIS
100
AcDbLine
 62
7
  6
CONTINUOUS
 10
249.8018648556
 20
134.6346751082
 11
249.9002901679
 21
121.2009090527
  0
LINE
  5
421
100
AcDbEntity
  8
DTM_AXIS
100
AcDbLine
 62
7
  6
CONTINUOUS
 10
250.2079440815
 20
134.8012349882
 11
250.3063693938
 21
121.3674689328
  0
LINE
  5
422
100
AcDbEntity
  8
DTM_AXIS
100
AcDbLine
 62
7
  6
CONTINUOUS
 10
250.5335384048
 20
134.9347827
 11
250.6319637172
 21
121.5010166446
  0
LINE
  5
423
100
AcDbEntity
  8
DTM_AXIS
100
AcDbLine
 62
7
  6
CONTINUOUS
 10
250.9396176307
 20
135.1013425801
 11
251.038042943
 21
121.6675765247
  0
LINE
  5
424
100
AcDbEntity
  8
DTM_AXIS
100
AcDbLine
 62
7
  6
CONTINUOUS
 10
251.265211954
 20
135.2348902919
 11
251.3636372664
 21
121.8011242365
  0
LINE
  5
425
100
AcDbEntity
  8
DTM_AXIS
100
AcDbLine
 62
7
  6
CONTINUOUS
 10
251.6712911799
 20
135.401450172
 11
251.7697164923
 21
121.9676841165
  0
LINE
  5
426
100
AcDbEntity
  8
DTM_AXIS
100
AcDbLine
 62
7
  6
CONTINUOUS
 10
251.9968855032
 20
135.5349978838
 11
252.0953108156
 21
122.1012318284
  0
LINE
  5
427
100
AcDbEntity
  8
DTM_AXIS
100
AcDbLine
 62
7
  6
CONTINUOUS
 10
252.4029647291
 20
135.7015577638
 11
252.5013900415
 21
122.2677917084
  0
LINE
  5
428
100
AcDbEntity
  8
DTM_AXIS
100
AcDbLine
 62
7
  6
CONTINUOUS
 10
252.7285590525
 20
135.8351054757
 11
252.8269843648
 21
122.4013394202
  0
LINE
  5
429
100
AcDbEntity
  8
DTM_AXIS
100
AcDbLine
 62
7
  6
CONTINUOUS
 10
253.1346382784
 20
136.0016653557
 11
253.2330635907
 21
122.5678993003
  0
LINE
  5
42A
100
AcDbEntity
  8
DTM_AXIS
100
AcDbLine
 62
7
  6
CONTINUOUS
 10
253.4602326017
 20
136.1352130675
 11
253.558657914
 21
122.7014470121
  0
LINE
  5
42B
100
AcDbEntity
  8
DTM_AXIS
100
AcDbLine
 62
7
  6
CONTINUOUS
 10
253.8663118276
 20
136.3017729476
 11
253.9647371399
 21
122.8680068921
  0
LINE
  5
42C
100
AcDbEntity
  8
DTM_AXIS
100
AcDbLine
 62
7
  6
CONTINUOUS
 10
254.1919061509
 20
136.4353206594
 11
254.2903314632
 21
123.001554604
  0
LINE
  5
42D
100
AcDbEntity
  8
DTM_AXIS
100
AcDbLine
 62
7
  6
CONTINUOUS
 10
254.5979853768
 20
136.6018805394
 11
254.6964106891
 21
123.168114484
  0
LINE
  5
42E
100
AcDbEntity
  8
DTM_AXIS
100
AcDbLine
 62
7
  6
CONTINUOUS
 10
254.9235797001
 20
136.7354282513
 11
255.0220050125
 21
123.3016621958
  0
LINE
  5
42F
100
AcDbEntity
  8
DTM_AXIS
100
AcDbLine
 62
7
  6
CONTINUOUS
 10
255.329658926
 20
136.9019881313
 11
255.4280842383
 21
123.4682220759
  0
LINE
  5
430
100
AcDbEntity
  8
DTM_AXIS
100
AcDbLine
 62
7
  6
CONTINUOUS
 10
255.6552532493
 20
137.0355358431
 11
255.7536785617
 21
123.6017697877
  0
LINE
  5
431
100
AcDbEntity
  8
DTM_AXIS
100
AcDbLine
 62
7
  6
CONTINUOUS
 10
256.0613324752
 20
137.2020957232
 11
256.1597577876
 21
123.7683296678
  0
LINE
  5
432
100
AcDbEntity
  8
0
100
AcDbLine
 62
7
  6
CONTINUOUS
 10
256.4155277595
 20
120.9040804775
 11
256.393568697
 21
123.9012049091
  0
LINE
  5
433
100
AcDbEntity
  8
DTM_AXIS
100
AcDbLine
 62
7
  6
CONTINUOUS
 10
256.3869267985
 20
137.335643435
 11
256.4853521109
 21
123.9018773796
  0
LINE
  5
434
100
AcDbEntity
  8
DTM_AXIS
100
AcDbLine
 62
7
  6
CONTINUOUS
 10
256.7930060244
 20
137.5022033151
 11
256.8914313368
 21
124.0684372596
  0
LINE
  5
435
100
AcDbEntity
  8
DTM_AXIS
100
AcDbLine
 62
7
  6
CONTINUOUS
 10
257.1186003478
 20
137.6357510269
 11
257.2170256601
 21
124.2019849715
  0
LINE
  5
436
100
AcDbEntity
  8
DTM_AXIS
100
AcDbLine
 62
7
  6
CONTINUOUS
 10
257.5246795737
 20
137.8023109069
 11
257.623104886
 21
124.3685448515
  0
LINE
  5
437
100
AcDbEntity
  8
DTM_AXIS
100
AcDbLine
 62
7
  6
CONTINUOUS
 10
257.850273897
 20
137.9358586188
 11
257.9486992093
 21
124.5020925633
  0
LINE
  5
438
100
AcDbEntity
  8
DTM_AXIS
100
AcDbLine
 62
7
  6
CONTINUOUS
 10
258.2563531229
 20
138.1024184988
 11
258.3547784352
 21
124.6686524434
  0
LINE
  5
439
100
AcDbEntity
  8
DTM_AXIS
100
AcDbLine
 62
7
  6
CONTINUOUS
 10
258.5819474462
 20
138.2359662106
 11
258.6803727585
 21
124.8022001552
  0
LINE
  5
43A
100
AcDbEntity
  8
0
100
AcDbLine
 62
7
  6
CONTINUOUS
 10
258.8834935873
 20
124.8855134072
 11
258.785068275
 21
138.3192794626
  0
LINE
  5
43B
100
AcDbEntity
  8
0
100
AcDbLine
 62
7
  6
CONTINUOUS
 10
263.7377225959
 20
144.3502187798
 11
263.7234153924
 21
146.3029646794
  0
LINE
  5
43C
100
AcDbEntity
  8
0
100
AcDbLine
 62
7
  6
CONTINUOUS
 10
253.0509861315
 20
170.9880133922
 11
242.0582447047
 21
171.2028219877
  0
LINE
  5
43D
100
AcDbEntity
  8
0
100
AcDbLine
 62
7
  6
CONTINUOUS
 10
67.8009729279
 20
82.4071094613
 11
72.8009729279
 21
82.5380390692
  0
LINE
  5
43E
100
AcDbEntity
  8
0
100
AcDbLine
 62
7
  6
CONTINUOUS
 10
80.3009729279
 20
95.4071094613
 11
81.8009729279
 21
95.5071094613
  0
LINE
  5
43F
100
AcDbEntity
  8
0
100
AcDbLine
 62
7
  6
CONTINUOUS
 10
67.8009729279
 20
97.4071094613
 11
67.8009729279
 21
91.6362711079
  0
LINE
  5
440
100
AcDbEntity
  8
0
100
AcDbLine
 62
7
  6
CONTINUOUS
 10
67.8009729279
 20
88.1779478148
 11
67.8009729279
 21
82.4071094613
  0
LINE
  5
441
100
AcDbEntity
  8
0
100
AcDbLine
 62
7
  6
CONTINUOUS
 10
67.8009729279
 20
130.9071094613
 11
67.8009729279
 21
136.6779478148
  0
LINE
  5
442
100
AcDbEntity
  8
0
100
AcDbLine
 62
7
  6
CONTINUOUS
 10
67.8009729279
 20
140.1362711079
 11
67.8009729279
 21
145.9071094613
  0
LINE
  5
443
100
AcDbEntity
  8
0
100
AcDbLine
 62
7
  6
CONTINUOUS
 10
71.0624401561
 20
97.6924508703
 11
67.8009729279
 21
97.4071094613
  0
LINE
  5
444
100
AcDbEntity
  8
0
100
AcDbLine
 62
7
  6
CONTINUOUS
 10
81.8009729279
 20
99.4071094613
 11
84.3001162403
 21
99.4725518321
  0
LINE
  5
445
100
AcDbEntity
  8
0
100
AcDbLine
 62
7
  6
CONTINUOUS
 10
72.8009729279
 20
82.5380390692
 11
72.8009729279
 21
86.4071094613
  0
LINE
  5
446
100
AcDbEntity
  8
0
100
AcDbLine
 62
7
  6
CONTINUOUS
 10
73.8009729279
 20
100.6810349646
 11
73.8009729279
 21
117.7908153805
  0
LINE
  5
447
100
AcDbEntity
  8
0
100
AcDbLine
 62
7
  6
CONTINUOUS
 10
81.8009729279
 20
95.5071094613
 11
81.8009729279
 21
99.4071094613
  0
LINE
  5
448
100
AcDbEntity
  8
0
100
AcDbLine
 62
7
  6
CONTINUOUS
 10
84.3001162403
 20
113.4725518321
 11
85.8009729279
 21
113.5118531476
  0
LINE
  5
449
100
AcDbEntity
  8
0
100
AcDbLine
 62
7
  6
CONTINUOUS
 10
82.8009729279
 20
126.2253617877
 11
82.8009729279
 21
126.8457859864
  0
LINE
  5
44A
100
AcDbEntity
  8
0
100
AcDbLine
 62
7
  6
CONTINUOUS
 10
84.3001162403
 20
99.4725518321
 11
84.3001162403
 21
113.4725518321
  0
LINE
  5
44B
100
AcDbEntity
  8
0
100
AcDbLine
 62
7
  6
CONTINUOUS
 10
77.2093536088
 20
121.2896160179
 11
77.8774315457
 21
121.3071102544
  0
LINE
  5
44C
100
AcDbEntity
  8
0
100
AcDbLine
 62
7
  6
CONTINUOUS
 10
89.3009729279
 20
118.9071094613
 11
89.3009729279
 21
120.9071094613
  0
LINE
  5
44D
100
AcDbEntity
  8
0
100
AcDbLine
 62
7
  6
CONTINUOUS
 10
67.8009729279
 20
130.9071094613
 11
80.0624401561
 21
129.8343700807
  0
LINE
  5
44E
100
AcDbEntity
  8
0
100
AcDbLine
 62
7
  6
CONTINUOUS
 10
78.8009729279
 20
145.6190643241
 11
67.8009729279
 21
145.9071094613
  0
ARC
  5
44F
100
AcDbEntity
  8
0
100
AcDbCircle
 62
7
  6
CONTINUOUS
 10
182.5377577606
 20
107.8347166191
 40
11.1699367938
100
AcDbArc
 50
132.4497907278
 51
142.046725062
  0
ARC
  5
450
100
AcDbEntity
  8
0
100
AcDbCircle
 62
7
  6
CONTINUOUS
 10
180.2176631797
 20
120.8339850192
 40
8.1253130971
100
AcDbArc
 50
286.3665609294
 51
292.35726016
  0
ARC
  5
451
100
AcDbEntity
  8
0
100
AcDbCircle
 62
7
  6
CONTINUOUS
 10
170.5378281868
 20
109.848186739
 40
3.4936100754
100
AcDbArc
 50
91.881844417
 51
180.4389154569
  0
ARC
  5
452
100
AcDbEntity
  8
0
100
AcDbCircle
 62
7
  6
CONTINUOUS
 10
170.9757597848
 20
116.8535710822
 40
3.4936060764
100
AcDbArc
 50
271.8818387295
 51
322.0342765324
  0
ARC
  5
453
100
AcDbEntity
  8
0
100
AcDbCircle
 62
7
  6
CONTINUOUS
 10
172.9680154442
 20
118.9109909471
 40
3.0012515948
100
AcDbArc
 50
0.4085829114
 51
85.3528712711
  0
ARC
  5
454
100
AcDbEntity
  8
0
100
AcDbCircle
 62
7
  6
CONTINUOUS
 10
172.9754324731
 20
118.2895897545
 40
2.9984394216
100
AcDbArc
 50
312.436257694
 51
0.4295496138
  0
ARC
  5
455
100
AcDbEntity
  8
0
100
AcDbCircle
 62
7
  6
CONTINUOUS
 10
164.17332315
 20
92.686637394
 40
2.9942049348
100
AcDbArc
 50
275.384320999
 51
0.4389710377
  0
ARC
  5
456
100
AcDbEntity
  8
0
100
AcDbCircle
 62
7
  6
CONTINUOUS
 10
160.7537333659
 20
81.8950503731
 40
1.7983736225
100
AcDbArc
 50
286.5264933246
 51
74.2518835597
  0
ARC
  5
457
100
AcDbEntity
  8
0
100
AcDbCircle
 62
7
  6
CONTINUOUS
 10
160.3984450763
 20
130.3872486888
 40
1.7983736225
100
AcDbArc
 50
286.5264933246
 51
74.2518835522
  0
ARC
  5
458
100
AcDbEntity
  8
0
100
AcDbCircle
 62
7
  6
CONTINUOUS
 10
89.2658759466
 20
115.7178518141
 40
11.1418466591
100
AcDbArc
 50
132.0127709247
 51
141.6415856395
  0
ARC
  5
459
100
AcDbEntity
  8
0
100
AcDbCircle
 62
7
  6
CONTINUOUS
 10
77.3009729279
 20
117.7908153805
 40
3.5
100
AcDbArc
 50
91.5
 51
180.0
  0
ARC
  5
45A
100
AcDbEntity
  8
0
100
AcDbCircle
 62
7
  6
CONTINUOUS
 10
77.7858122266
 20
124.8059108918
 40
3.5
100
AcDbArc
 50
271.5
 51
321.6078054976
  0
ARC
  5
45B
100
AcDbEntity
  8
0
100
AcDbCircle
 62
7
  6
CONTINUOUS
 10
70.8009729279
 20
100.6810349646
 40
3.0
100
AcDbArc
 50
275.0
 51
360.0
  0
ARC
  5
45C
100
AcDbEntity
  8
0
100
AcDbCircle
 62
7
  6
CONTINUOUS
 10
79.8009729279
 20
126.2253617877
 40
3.0
100
AcDbArc
 50
312.0079014907
 51
360.0
  0
ARC
  5
45D
100
AcDbEntity
  8
0
100
AcDbCircle
 62
7
  6
CONTINUOUS
 10
79.8009729279
 20
126.8457859864
 40
3.0
100
AcDbArc
 50
0.0
 51
85.0
  0
ARC
  5
45E
100
AcDbEntity
  8
0
100
AcDbCircle
 62
7
  6
CONTINUOUS
 10
67.3009729279
 20
89.9071094613
 40
1.8
100
AcDbArc
 50
286.1276202132
 51
73.8723797868
  0
ARC
  5
45F
100
AcDbEntity
  8
0
100
AcDbCircle
 62
7
  6
CONTINUOUS
 10
67.3009729279
 20
138.4071094613
 40
1.8
100
AcDbArc
 50
286.1276202132
 51
73.8723797868
  0
SPLINE
  5
460
100
AcDbEntity
  8
0
100
AcDbSpline
 62
7
  6
CONTINUOUS
 70
0
 71
3
 72
9
 73
5
 74
0
 42
0.0000001
 43
0.0000001
 44
0.0000000001
 40
0.0
 40
0.0
 40
0.0
 40
0.0
 40
0.5262399574
 40
1.0
 40
1.0
 40
1.0
 40
1.0
 10
166.2740101842
 20
78.433685392
 30
0.0
 10
166.7352699268
 20
78.4771678641
 30
0.0
 10
167.607591006
 20
78.6208580282
 30
0.0
 10
168.4486446851
 20
78.8930625083
 30
0.0
 10
168.834562654
 20
79.0513049069
 30
0.0
  0
SPLINE
  5
461
100
AcDbEntity
  8
0
100
AcDbSpline
 62
7
  6
CONTINUOUS
 70
0
 71
3
 72
42
 73
38
 74
0
 42
0.0000001
 43
0.0000001
 44
0.0000000001
 40
0.0
 40
0.0
 40
0.0
 40
0.0
 40
0.0622754568
 40
0.0937548604
 40
0.1251499971
 40
0.1562959948
 40
0.1872655409
 40
0.2182542197
 40
0.2494450939
 40
0.2810130007
 40
0.3130837514
 40
0.3454606233
 40
0.3778015776
 40
0.4097833215
 40
0.4411514094
 40
0.4717788719
 40
0.4868413838
 40
0.5017736621
 40
0.5166707283
 40
0.5316293199
 40
0.5619770692
 40
0.5931361129
 40
0.6251108911
 40
0.6577064141
 40
0.6905949771
 40
0.7233378908
 40
0.7554976965
 40
0.7867508769
 40
0.8170084814
 40
0.8465668437
 40
0.8613395606
 40
0.8762987488
 40
0.8915425647
 40
0.9070344274
 40
0.9384216454
 40
0.96970524
 40
1.0
 40
1.0
 40
1.0
 40
1.0
 10
264.5242198656
 20
146.6314274239
 30
0.0
 10
265.2305227428
 20
146.9211288242
 30
0.0
 10
266.2403448368
 20
147.5028215874
 30
0.0
 10
267.4124874862
 20
148.4960250447
 30
0.0
 10
268.1974758221
 20
149.3443840551
 30
0.0
 10
268.8647284743
 20
150.2803064252
 30
0.0
 10
269.4032390576
 20
151.2901975768
 30
0.0
 10
269.8089620198
 20
152.3608344856
 30
0.0
 10
270.0782511215
 20
153.4811479187
 30
0.0
 10
270.2076006421
 20
154.6394182441
 30
0.0
 10
270.1936137751
 20
155.8191865191
 30
0.0
 10
270.0407957972
 20
156.9984595657
 30
0.0
 10
269.752737588
 20
158.1511331433
 30
0.0
 10
269.3324674805
 20
159.2495849908
 30
0.0
 10
268.7828562331
 20
160.26600345
 30
0.0
 10
268.2148505827
 20
161.0260938325
 30
0.0
 10
267.6984705293
 20
161.5616895366
 30
0.0
 10
267.2818840519
 20
161.9224232287
 30
0.0
 10
266.8368796533
 20
162.2450644782
 30
0.0
 10
266.2067740118
 20
162.6304965487
 30
0.0
 10
265.3573527434
 20
163.0333182196
 30
0.0
 10
264.2738803182
 20
163.4109385447
 30
0.0
 10
263.1387870492
 20
163.7117160971
 30
0.0
 10
261.9700603931
 20
163.9606856463
 30
0.0
 10
260.78645028
 20
164.1819991376
 30
0.0
 10
259.6091157364
 20
164.4079827096
 30
0.0
 10
258.4596557836
 20
164.6711950382
 30
0.0
 10
257.3594037976
 20
165.0048820655
 30
0.0
 10
256.3296563295
 20
165.4435755949
 30
0.0
 10
255.5487036934
 20
165.9290945422
 30
0.0
 10
254.9930739721
 20
166.3994552064
 30
0.0
 10
254.6116292584
 20
166.7990334099
 30
0.0
 10
254.2688447594
 20
167.2432594664
 30
0.0
 10
253.8615571737
 20
167.887767016
 30
0.0
 10
253.457280062
 20
168.7618375795
 30
0.0
 10
253.1458836947
 20
169.8623893042
 30
0.0
 10
253.0587217627
 20
170.6167239113
 30
0.0
 10
253.0509861315
 20
170.9880133922
 30
0.0
  0
SPLINE
  5
462
100
AcDbEntity
  8
0
100
AcDbSpline
 62
7
  6
CONTINUOUS
 70
0
 71
3
 72
9
 73
5
 74
0
 42
0.0000001
 43
0.0000001
 44
0.0000000001
 40
0.0
 40
0.0
 40
0.0
 40
0.0
 40
0.2502799041
 40
1.0
 40
1.0
 40
1.0
 40
1.0
 10
181.3264099666
 20
110.7566245594
 30
0.0
 10
181.4214170457
 20
110.7955930793
 30
0.0
 10
181.807956563
 20
110.9344008441
 30
0.0
 10
182.2156295816
 20
111.0093731077
 30
0.0
 10
182.521877417
 20
111.0382427698
 30
0.0
  0
SPLINE
  5
463
100
AcDbEntity
  8
0
100
AcDbSpline
 62
7
  6
CONTINUOUS
 70
0
 71
3
 72
14
 73
10
 74
0
 42
0.0000001
 43
0.0000001
 44
0.0000000001
 40
0.0
 40
0.0
 40
0.0
 40
0.0
 40
0.1253844666
 40
0.2445845146
 40
0.3609424391
 40
0.4773397791
 40
0.5964892194
 40
0.7211802701
 40
1.0
 40
1.0
 40
1.0
 40
1.0
 10
250.0504078329
 20
112.3632809169
 30
0.0
 10
250.4331789864
 20
112.5202329906
 30
0.0
 10
251.1578562918
 20
112.8842822562
 30
0.0
 10
252.128094959
 20
113.5829401602
 30
0.0
 10
252.9560388989
 20
114.4039955834
 30
0.0
 10
253.6473369282
 20
115.3423831368
 30
0.0
 10
254.2026110862
 20
116.3984687718
 30
0.0
 10
254.7762603688
 20
118.0296468065
 30
0.0
 10
254.9351385211
 20
119.3743052891
 30
0.0
 10
254.9307552148
 20
120.2942471492
 30
0.0
  0
SPLINE
  5
464
100
AcDbEntity
  8
0
100
AcDbSpline
 62
7
  6
CONTINUOUS
 70
0
 71
3
 72
13
 73
9
 74
0
 42
0.0000001
 43
0.0000001
 44
0.0000000001
 40
0.0
 40
0.0
 40
0.0
 40
0.0
 40
0.2501192856
 40
0.5000981361
 40
0.6251487282
 40
0.7501605827
 40
0.8751109495
 40
1.0
 40
1.0
 40
1.0
 40
1.0
 10
260.2802266537
 20
138.932542551
 30
0.0
 10
260.2666315916
 20
139.3383607368
 30
0.0
 10
260.2737126704
 20
140.1514493719
 30
0.0
 10
260.4071095093
 20
141.1621717447
 30
0.0
 10
260.6269365112
 20
141.9451543656
 30
0.0
 10
260.8618274526
 20
142.5088735611
 30
0.0
 10
261.1789727688
 20
143.0313302786
 30
0.0
 10
261.4505862106
 20
143.3365564904
 30
0.0
 10
261.5997891932
 20
143.4738314055
 30
0.0
  0
SPLINE
  5
465
100
AcDbEntity
  8
0
100
AcDbSpline
 62
7
  6
CONTINUOUS
 70
0
 71
3
 72
42
 73
38
 74
0
 42
0.0000001
 43
0.0000001
 44
0.0000000001
 40
0.0
 40
0.0
 40
0.0
 40
0.0
 40
0.0622754568
 40
0.0937548604
 40
0.1251499971
 40
0.1562959948
 40
0.1872655409
 40
0.2182542197
 40
0.2494450939
 40
0.2810130007
 40
0.3130837514
 40
0.3454606233
 40
0.3778015776
 40
0.4097833215
 40
0.4411514094
 40
0.4717788719
 40
0.4868413838
 40
0.5017736621
 40
0.5166707283
 40
0.5316293199
 40
0.5619770692
 40
0.5931361129
 40
0.6251108911
 40
0.6577064141
 40
0.6905949771
 40
0.7233378908
 40
0.7554976965
 40
0.7867508769
 40
0.8170084814
 40
0.8465668437
 40
0.8613395606
 40
0.8762987488
 40
0.8915425647
 40
0.9070344274
 40
0.9384216454
 40
0.96970524
 40
1.0
 40
1.0
 40
1.0
 40
1.0
 10
183.3083746866
 20
113.3194514139
 30
0.0
 10
184.0146775638
 20
113.6091528141
 30
0.0
 10
185.0244996579
 20
114.1908455773
 30
0.0
 10
186.1966423073
 20
115.1840490347
 30
0.0
 10
186.9816306432
 20
116.0324080451
 30
0.0
 10
187.6488832953
 20
116.9683304152
 30
0.0
 10
188.1873938786
 20
117.9782215667
 30
0.0
 10
188.5931168409
 20
119.0488584756
 30
0.0
 10
188.8624059425
 20
120.1691719086
 30
0.0
 10
188.9917554632
 20
121.3274422341
 30
0.0
 10
188.9777685961
 20
122.5072105091
 30
0.0
 10
188.8249506183
 20
123.6864835557
 30
0.0
 10
188.536892409
 20
124.8391571333
 30
0.0
 10
188.1166223015
 20
125.9376089808
 30
0.0
 10
187.5670110541
 20
126.95402744
 30
0.0
 10
186.9990054037
 20
127.7141178224
 30
0.0
 10
186.4826253504
 20
128.2497135265
 30
0.0
 10
186.0660388729
 20
128.6104472186
 30
0.0
 10
185.6210344744
 20
128.9330884681
 30
0.0
 10
184.9909288328
 20
129.3185205387
 30
0.0
 10
184.1415075644
 20
129.7213422096
 30
0.0
 10
183.0580351392
 20
130.0989625346
 30
0.0
 10
181.9229418702
 20
130.3997400871
 30
0.0
 10
180.7542152141
 20
130.6487096362
 30
0.0
 10
179.570605101
 20
130.8700231276
 30
0.0
 10
178.3932705574
 20
131.0960066995
 30
0.0
 10
177.2438106046
 20
131.3592190282
 30
0.0
 10
176.1435586187
 20
131.6929060555
 30
0.0
 10
175.1138111506
 20
132.1315995849
 30
0.0
 10
174.3328585145
 20
132.6171185322
 30
0.0
 10
173.7772287932
 20
133.0874791964
 30
0.0
 10
173.3957840794
 20
133.4870573999
 30
0.0
 10
173.0529995804
 20
133.9312834564
 30
0.0
 10
172.6457119947
 20
134.575791006
 30
0.0
 10
172.241434883
 20
135.4498615695
 30
0.0
 10
171.9300385158
 20
136.5504132942
 30
0.0
 10
171.8428765838
 20
137.3047479013
 30
0.0
 10
171.8351409526
 20
137.6760373822
 30
0.0
  0
SPLINE
  5
466
100
AcDbEntity
  8
0
100
AcDbSpline
 62
7
  6
CONTINUOUS
 70
0
 71
3
 72
15
 73
11
 74
0
 42
0.0000001
 43
0.0000001
 44
0.0000000001
 40
0.0
 40
0.0
 40
0.0
 40
0.0
 40
0.1239249175
 40
0.2416304616
 40
0.3566589492
 40
0.4720680145
 40
0.5907592285
 40
0.7157670889
 40
0.8506213806
 40
1.0
 40
1.0
 40
1.0
 40
1.0
 10
168.834562654
 20
79.0513049069
 30
0.0
 10
169.2321954512
 20
79.2143508718
 30
0.0
 10
169.9838566696
 20
79.5947477819
 30
0.0
 10
170.9849787534
 20
80.3300697599
 30
0.0
 10
171.8325615169
 20
81.1973491347
 30
0.0
 10
172.5323924357
 20
82.1915203942
 30
0.0
 10
173.0843504576
 20
83.3133193267
 30
0.0
 10
173.4814434787
 20
84.5696962503
 30
0.0
 10
173.708720557
 20
85.9753094246
 30
0.0
 10
173.7263861068
 20
86.9646948467
 30
0.0
 10
173.7016926778
 20
87.4821400707
 30
0.0
  0
SPLINE
  5
467
100
AcDbEntity
  8
0
100
AcDbSpline
 62
7
  6
CONTINUOUS
 70
0
 71
3
 72
14
 73
10
 74
0
 42
0.0000001
 43
0.0000001
 44
0.0000000001
 40
0.0
 40
0.0
 40
0.0
 40
0.0
 40
0.2501721656
 40
0.375304763
 40
0.5003981652
 40
0.6254220608
 40
0.7503398398
 40
0.875168935
 40
1.0
 40
1.0
 40
1.0
 40
1.0
 10
179.0643814747
 20
105.620566541
 30
0.0
 10
179.0476654381
 20
106.1195470986
 30
0.0
 10
179.0608770595
 20
106.8714522662
 30
0.0
 10
179.202467207
 20
107.8613429598
 30
0.0
 10
179.389592244
 20
108.5885137549
 30
0.0
 10
179.6805697978
 20
109.281802779
 30
0.0
 10
180.0993182108
 20
109.9085978449
 30
0.0
 10
180.6535157358
 20
110.4213112709
 30
0.0
 10
181.0959233034
 20
110.6620871395
 30
0.0
 10
181.3264099666
 20
110.7566245594
 30
0.0
  0
SPLINE
  5
468
100
AcDbEntity
  8
0
100
AcDbSpline
 62
7
  6
CONTINUOUS
 70
0
 71
3
 72
15
 73
11
 74
0
 42
0.0000001
 43
0.0000001
 44
0.0000000001
 40
0.0
 40
0.0
 40
0.0
 40
0.0
 40
0.125
 40
0.25
 40
0.375
 40
0.5
 40
0.625
 40
0.75
 40
0.875
 40
1.0
 40
1.0
 40
1.0
 40
1.0
 10
72.8009729279
 20
86.4071094613
 30
0.0
 10
73.4728708101
 20
86.4658929091
 30
0.0
 10
74.6778166018
 20
86.7056270788
 30
0.0
 10
76.1832068835
 20
87.3309683
 30
0.0
 10
77.4391786029
 20
88.1757606692
 30
0.0
 10
78.4723732031
 20
89.2165636886
 30
0.0
 10
79.2924782611
 20
90.4448537346
 30
0.0
 10
79.895981539
 20
91.8637210531
 30
0.0
 10
80.2646755149
 20
93.4891855487
 30
0.0
 10
80.3282059436
 20
94.7331950597
 30
0.0
 10
80.3009729279
 20
95.4071094613
 30
0.0
  0
SPLINE
  5
469
100
AcDbEntity
  8
0
100
AcDbSpline
 62
7
  6
CONTINUOUS
 70
0
 71
3
 72
14
 73
10
 74
0
 42
0.0000001
 43
0.0000001
 44
0.0000000001
 40
0.0
 40
0.0
 40
0.0
 40
0.0
 40
0.1554831941
 40
0.30264582
 40
0.4996099356
 40
0.6656855308
 40
0.8718000919
 40
0.9267108087
 40
1.0
 40
1.0
 40
1.0
 40
1.0
 10
89.3009729279
 20
120.9071094613
 30
0.0
 10
91.1330541462
 20
121.43078941
 30
0.0
 10
94.476998059
 20
123.785953107
 30
0.0
 10
96.6023172881
 20
129.8365048123
 30
0.0
 10
94.2779503801
 20
136.8503726121
 30
0.0
 10
87.2013659001
 20
138.8047822712
 30
0.0
 10
81.4280608609
 20
139.526980786
 30
0.0
 10
79.1757693056
 20
143.1224588429
 30
0.0
 10
78.8127315866
 20
144.7490357329
 30
0.0
 10
78.8009729279
 20
145.6190643241
 30
0.0
  0
SPLINE
  5
46A
100
AcDbEntity
  8
0
100
AcDbSpline
 62
7
  6
CONTINUOUS
 70
0
 71
3
 72
11
 73
7
 74
0
 42
0.0000001
 43
0.0000001
 44
0.0000000001
 40
0.0
 40
0.0
 40
0.0
 40
0.0
 40
0.25
 40
0.5
 40
0.75
 40
1.0
 40
1.0
 40
1.0
 40
1.0
 10
85.8009729279
 20
113.5118531476
 30
0.0
 10
85.7819379491
 20
114.2387696615
 30
0.0
 10
85.8579368587
 20
115.5907923328
 30
0.0
 10
86.3868444959
 20
117.2485056552
 30
0.0
 10
87.4331689315
 20
118.4444068285
 30
0.0
 10
88.5765743175
 20
118.8437327951
 30
0.0
 10
89.3009729279
 20
118.9071094613
 30
0.0
  0
ENDSEC
  0
SECTION
  2
OBJECTS
  0
DICTIONARY
  5
C
100
AcDbDictionary
280
0
281
1
  3
ACAD_GROUP
350
D
  3
ACAD_MLINESTYLE
350
17
  3
ACAD_LAYOUT
350
1A
  3
ACAD_PLOTSETTINGS
350
19
  3
ACAD_PLOTSTYLENAME
350
E
  3
ACAD_TABLESTYLE
350
       46B
  0
DICTIONARY
  5
D
102
{ACAD_REACTORS
330
C
102
}
100
AcDbDictionary
280
0
281
1
  0
ACDBDICTIONARYWDFLT
  5
E
102
{ACAD_REACTORS
330
C
102
}
100
AcDbDictionary
281
1
  3
Normal
350
F
100
AcDbDictionaryWithDefault
340
F
  0
DICTIONARY
  5
17
102
{ACAD_REACTORS
330
C
102
}
100
AcDbDictionary
280
0
281
1
  3
Standard
350
18
  0
DICTIONARY
  5
46B
330
C
100
AcDbDictionary
281
1
  3
Standard
350
       46E
  3
Standard1
350
       46F
  0
DICTIONARY
  5
19
102
{ACAD_REACTORS
330
C
102
}
100
AcDbDictionary
281
1
  0
DICTIONARY
  5
1A
102
{ACAD_REACTORS
330
C
102
}
100
AcDbDictionary
281
1
  3
Model
350
46C
  3
Layout1
350
46D
  0
ACDBPLACEHOLDER
  5
F
102
{ACAD_REACTORS
330
E
102
}
  0
MLINESTYLE
  5
18
102
{ACAD_REACTORS
330
17
102
}
100
AcDbMlineStyle
  2
STANDARD
 70
0
  3

 62
256
 51
90.0
 52
90.0
 71
2
 49
0.5
 62
256
  6
BYLAYER
 49
-0.5
 62
256
  6
BYLAYER
  0
LAYOUT
  5
46C
102
{ACAD_REACTORS
330
1A
102
}
100
AcDbPlotSettings
  1

  2
none_device
  4
ISO_A4_(297.00_x_210.00_MM)
  6

 40
0.0
 41
0.0
 42
0.0
 43
0.0
 44
297.0
 45
210.0
 46
0.0
 47
0.0
 48
0.0
 49
0.0
140
0.0
141
0.0
142
1.0
143
1.0
 70
1024
 72
1
 73
0
 74
0
  7

 75
0
147
1.0
148
0.0
149
0.0
100
AcDbLayout
  1
Model
 70
0
 71
0
 10
0.0
 20
0.0
 11
297.0
 21
210.0
 12
0.0
 22
0.0
 32
0.0
 14
0.0
 24
0.0
 34
0.0
 15
0.0
 25
0.0
 35
0.0
146
0.0
 13
0.0
 23
0.0
 33
0.0
 16
1.0
 26
0.0
 36
0.0
 17
0.0
 27
1.0
 37
0.0
 76
0
330
20A
345
0
346
0
  0
LAYOUT
  5
46D
102
{ACAD_REACTORS
330
1A
102
}
100
AcDbPlotSettings
  1

  2
none_device
  4
ISO_A4_(297.00_x_210.00_MM)
  6

 40
0.0
 41
0.0
 42
0.0
 43
0.0
 44
297.0
 45
210.0
 46
0.0
 47
0.0
 48
0.0
 49
0.0
140
0.0
141
0.0
142
1.0
143
1.0
 70
0
 72
1
 73
0
 74
0
  7

 75
0
147
1.0
148
0.0
149
0.0
100
AcDbLayout
  1
Layout1
 70
0
 71
1
 10
0.0
 20
0.0
 11
297.0
 21
210.0
 12
0.0
 22
0.0
 32
0.0
 14
0.0
 24
0.0
 34
0.0
 15
0.0
 25
0.0
 35
0.0
146
0.0
 13
0.0
 23
0.0
 33
0.0
 16
1.0
 26
0.0
 36
0.0
 17
0.0
 27
1.0
 37
0.0
 76
0
330
20B
345
0
346
0
  0
TABLESTYLE
  5
46E
102
{ACAD_REACTORS
330
46B
330
250
102
}
330
46B
100
AcDbTableStyle
  3
Standard
 70
0
 71
0
 40
0.06
 41
0.06
280
1
281
1
  7
Standard
140
0.18
170
1
 62
0
 63
7
283
0
  7
Standard
140
0.18
170
1
 62
0
 63
7
283
0
  7
Standard
140
0.18
170
1
 62
0
 63
7
283
0
  0
TABLESTYLE
  5
46F
102
{ACAD_REACTORS
330
46B
102
}
330
46B
100
AcDbTableStyle
  3
Standard1
 70
1
 71
0
 40
0.06
 41
0.06
280
1
281
1
  7
Standard
140
0.18
170
1
 62
0
 63
7
283
0
  7
Standard
140
0.18
170
1
 62
0
 63
7
283
0
  7
Standard
140
0.18
170
1
 62
0
 63
7
283
0
  0
ENDSEC
  0
EOF
