999
DXF file: O:\ORAC_PRODUCTEN\ORAC_LIJN6\R-Type\R38\r38-prod-inches.dxf
999
Pro/ENGINEER 2016130 by Parametric Technology Corporation
  0
SECTION
  2
HEADER
  9
$ACADVER
  1
AC1024
  9
$DWGCODEPAGE
  3
ANSI_1250
  9
$EXTMAX
 10
297.0
 20
210.0
 30
0.0
  9
$EXTMIN
 10
0.0
 20
0.0
 30
0.0
  9
$LIMMIN
 10
0.0
 20
0.0
  9
$LIMMAX
 10
297.0
 20
210.0
  9
$VIEWCTR
 10
148.5
 20
105.0
  9
$VIEWSIZE
 40
210.0
  9
$CLAYER
  8
0
  9
$LTSCALE
 40
16.335
  9
$CELTYPE
  6
BYLAYER
  9
$DIMSCALE
 40
1.0
  9
$DIMASZ
 40
3.5
  9
$DIMEXO
 40
1.0
  9
$DIMDLI
 40
11.286
  9
$DIMEXE
 40
1.5
  9
$DIMCEN
 40
2.673
  9
$DIMLFAC
 40
5.0
  9
$DIMBLK
  1
_FILLED
  9
$DIMALT
 70
0
  9
$DIMALTF
 40
0.0393700787
  9
$DIMTXT
 40
2.5
  9
$DIMTOL
 70
1
  9
$DIMLIM
 70
0
  9
$DIMTFAC
 40
1.0
  9
$DIMTP
 40
0.001
  9
$DIMTM
 40
0.001
  9
$DIMGAP
 40
0.625
  9
$DIMDSEP
 70
44
  9
$AUNITS
 70
0
  9
$PDMODE
 70
3
  9
$PDSIZE
 40
8.0
  9
$HANDSEED
  5
3B5
  9
$TILEMODE
 70
1
  9
$MEASUREMENT
 70
1
  9
$INSUNITS
 70
4
  0
ENDSEC
  0
SECTION
  2
CLASSES
  0
CLASS
  1
ACDBDICTIONARYWDFLT
  2
AcDbDictionaryWithDefault
  3
AutoCAD 2000
 90
0
 91
1
280
0
281
0
  0
CLASS
  1
ACDBPLACEHOLDER
  2
AcDbPlaceHolder
  3
AutoCAD 2000
 90
0
 91
1
280
0
281
0
  0
CLASS
  1
LAYOUT
  2
AcDbLayout
  3
AutoCAD 2000
 90
0
 91
0
280
0
281
0
  0
CLASS
  1
TABLESTYLE
  2
AcDbTableStyle
  3
ObjectDBX Classes
 90
2047
 91
1
280
0
281
0
  0
CLASS
  1
ACAD_TABLE
  2
AcDbTable
  3
ObjectDBX Classes
 90
1025
 91
1
280
0
281
1
  0
ENDSEC
  0
SECTION
  2
TABLES
  0
TABLE
  2
VPORT
  5
8
100
AcDbSymbolTable
 70
2
  0
VPORT
  5
1F4
100
AcDbSymbolTableRecord
100
AcDbViewportTableRecord
  2
*ACTIVE
 70
0
 10
0.0
 20
0.0
 11
1.0
 21
1.0
 12
148.5
 22
105.0
 13
0.0
 23
0.0
 14
1.0
 24
1.0
 15
0.0
 25
0.0
 16
0.0
 26
0.0
 36
1.0
 17
0.0
 27
0.0
 37
0.0
 40
210.0
 41
1.4142857143
 42
50.0
 43
0.0
 44
0.0
 50
0.0
 51
0.0
 71
0
 72
100
 73
1
 74
1
 75
0
 76
0
 77
0
 78
0
  0
ENDTAB
  0
TABLE
  2
LTYPE
  5
5
100
AcDbSymbolTable
 70
6
  0
LTYPE
  5
14
100
AcDbSymbolTableRecord
100
AcDbLinetypeTableRecord
  2
BYBLOCK
 70
0
  3

 72
65
 73
0
 40
0.0
  0
LTYPE
  5
15
100
AcDbSymbolTableRecord
100
AcDbLinetypeTableRecord
  2
BYLAYER
 70
0
  3

 72
65
 73
0
 40
0.0
  0
LTYPE
  5
16
100
AcDbSymbolTableRecord
100
AcDbLinetypeTableRecord
  2
CONTINUOUS
 70
64
  3
Solid line
 72
65
 73
0
 40
0.0
  0
LTYPE
  5
1F5
100
AcDbSymbolTableRecord
100
AcDbLinetypeTableRecord
  2
CENTER
 70
64
  3
____ _ ____ _ ____ _ ____ _ ____ _ ____ _ ____
 72
65
 73
4
 40
0.6
 49
0.375
 74
0
 49
-0.075
 74
0
 49
0.075
 74
0
 49
-0.075
 74
0
  0
LTYPE
  5
1F6
100
AcDbSymbolTableRecord
100
AcDbLinetypeTableRecord
  2
HIDDEN
 70
64
  3
- - - - - - - - - - - - - - - - - - - -
 72
65
 73
2
 40
0.2
 49
0.1
 74
0
 49
-0.1
 74
0
  0
LTYPE
  5
1F7
100
AcDbSymbolTableRecord
100
AcDbLinetypeTableRecord
  2
PHANTOM
 70
64
  3
_____ _ _ _____ _ _ _____ _ _ _____
 72
65
 73
6
 40
0.8
 49
0.45
 74
0
 49
-0.05
 74
0
 49
0.1
 74
0
 49
-0.05
 74
0
 49
0.1
 74
0
 49
-0.05
 74
0
  0
LTYPE
  5
1F8
100
AcDbSymbolTableRecord
100
AcDbLinetypeTableRecord
  2
DOT
 70
64
  3
. . . . . . . . . . . . . . . . . . . .
 72
65
 73
2
 40
0.2
 49
0.1
 74
0
 49
-0.1
 74
0
  0
LTYPE
  5
1F9
100
AcDbSymbolTableRecord
100
AcDbLinetypeTableRecord
  2
DASHED
 70
64
  3
- - - - - - - - - - - - - - - - - - - -
 72
65
 73
2
 40
0.2
 49
0.1
 74
0
 49
-0.1
 74
0
  0
ENDTAB
  0
TABLE
  2
LAYER
  5
2
100
AcDbSymbolTable
 70
36
  0
LAYER
  5
10
100
AcDbSymbolTableRecord
100
AcDbLayerTableRecord
  2
0
 70
0
 62
7
  6
CONTINUOUS
370
-3
390
F
  0
LAYER
  5
1FA
100
AcDbSymbolTableRecord
100
AcDbLayerTableRecord
  2
DEFAULT_1
 70
0
 62
7
  6
CENTER
370
-3
390
F
  0
LAYER
  5
1FB
100
AcDbSymbolTableRecord
100
AcDbLayerTableRecord
  2
DEFAULT_2
 70
0
 62
8
  6
HIDDEN
370
-3
390
F
  0
LAYER
  5
1FC
100
AcDbSymbolTableRecord
100
AcDbLayerTableRecord
  2
DEFAULT_3
 70
0
 62
7
  6
PHANTOM
370
-3
390
F
  0
LAYER
  5
1FD
100
AcDbSymbolTableRecord
100
AcDbLayerTableRecord
  2
DTM_ALL
 70
0
 62
7
  6
CONTINUOUS
370
-3
390
F
  0
LAYER
  5
1FE
100
AcDbSymbolTableRecord
100
AcDbLayerTableRecord
  2
DTM_AXIS
 70
0
 62
7
  6
CONTINUOUS
370
-3
390
F
  0
LAYER
  5
1FF
100
AcDbSymbolTableRecord
100
AcDbLayerTableRecord
  2
DTM_CSYS
 70
0
 62
7
  6
CONTINUOUS
370
-3
390
F
  0
LAYER
  5
200
100
AcDbSymbolTableRecord
100
AcDbLayerTableRecord
  2
DTM_CURVE
 70
0
 62
7
  6
CONTINUOUS
370
-3
390
F
  0
LAYER
  5
201
100
AcDbSymbolTableRecord
100
AcDbLayerTableRecord
  2
DTM_MASTER
 70
0
 62
7
  6
CONTINUOUS
370
-3
390
F
  0
LAYER
  5
202
100
AcDbSymbolTableRecord
100
AcDbLayerTableRecord
  2
DTM_POINT
 70
0
 62
7
  6
CONTINUOUS
370
-3
390
F
  0
LAYER
  5
203
100
AcDbSymbolTableRecord
100
AcDbLayerTableRecord
  2
DTM_QUILT
 70
0
 62
7
  6
CONTINUOUS
370
-3
390
F
  0
LAYER
  5
204
100
AcDbSymbolTableRecord
100
AcDbLayerTableRecord
  2
GTOL
 70
0
 62
7
  6
CONTINUOUS
370
-3
390
F
  0
LAYER
  5
205
100
AcDbSymbolTableRecord
100
AcDbLayerTableRecord
  2
NOTES
 70
0
 62
7
  6
CONTINUOUS
370
-3
390
F
  0
ENDTAB
  0
TABLE
  2
STYLE
  5
3
100
AcDbSymbolTable
 70
1
  0
STYLE
  5
11
100
AcDbSymbolTableRecord
100
AcDbTextStyleTableRecord
  2
STANDARD
 70
0
 40
0.0
 41
1.0
 50
0.0
 71
0
 42
0.2
  3
cgtime.ttf
  4

  0
STYLE
  5
206
100
AcDbSymbolTableRecord
100
AcDbTextStyleTableRecord
  2
TEXTSTYLE_1
 70
0
 40
0.0
 41
0.8
 50
0.0
 71
0
 42
0.2
  3
gdt
  4

  0
STYLE
  5
207
100
AcDbSymbolTableRecord
100
AcDbTextStyleTableRecord
  2
TEXTSTYLE_2
 70
0
 40
0.0
 41
0.85
 50
0.0
 71
0
 42
0.2
  3
gdt
  4

  0
STYLE
  5
208
100
AcDbSymbolTableRecord
100
AcDbTextStyleTableRecord
  2
TEXTSTYLE_3
 70
0
 40
0.0
 41
1.0
 50
0.0
 71
0
 42
0.2
  3
trium.ttf
  4

  0
STYLE
  5
209
100
AcDbSymbolTableRecord
100
AcDbTextStyleTableRecord
  2
TEXTSTYLE_4
 70
0
 40
0.0
 41
1.0
 50
0.0
 71
0
 42
0.2
  3
calibri.ttf
  4

  0
ENDTAB
  0
TABLE
  2
VIEW
  5
6
100
AcDbSymbolTable
 70
0
  0
ENDTAB
  0
TABLE
  2
UCS
  5
7
100
AcDbSymbolTable
 70
0
  0
ENDTAB
  0
TABLE
  2
APPID
  5
9
100
AcDbSymbolTable
 70
1
  0
APPID
  5
20A
100
AcDbSymbolTableRecord
100
AcDbRegAppTableRecord
  2
ACAD
 70
0
  0
ENDTAB
  0
TABLE
  2
BLOCK_RECORD
  5
1
100
AcDbSymbolTable
 70
0
  0
BLOCK_RECORD
  5
20B
100
AcDbSymbolTableRecord
100
AcDbBlockTableRecord
  2
*Model_Space
  0
BLOCK_RECORD
  5
20C
100
AcDbSymbolTableRecord
100
AcDbBlockTableRecord
  2
*Paper_Space
  0
BLOCK_RECORD
  5
20D
100
AcDbSymbolTableRecord
100
AcDbBlockTableRecord
  2
_FILLED
  0
BLOCK_RECORD
  5
20E
100
AcDbSymbolTableRecord
100
AcDbBlockTableRecord
  2
*D0
  0
BLOCK_RECORD
  5
20F
100
AcDbSymbolTableRecord
100
AcDbBlockTableRecord
  2
*D1
  0
BLOCK_RECORD
  5
210
100
AcDbSymbolTableRecord
100
AcDbBlockTableRecord
  2
*T1
  0
ENDTAB
  0
TABLE
  2
DIMSTYLE
  5
A
100
AcDbSymbolTable
 70
1
100
AcDbDimStyleTable
 71
0
  0
DIMSTYLE
105
211
100
AcDbSymbolTableRecord
100
AcDbDimStyleTableRecord
  2
STANDARD
 70
0
  3

  4

 40
1.0
 41
3.5
 42
1.0
 43
0.38
 44
1.5
 45
0.0
 46
0.0
 47
0.001
 48
0.001
140
2.5
141
0.09
142
0.0
143
25.4
144
1.0
145
0.0
146
1.0
147
0.625
 71
1.0
 72
0.0
 73
1
 74
1
 75
0
 76
0
 77
0
 78
8
170
0
171
2
172
0
173
0
174
0
175
0
176
0
177
0
178
0
270
2
271
3
272
3
273
2
274
2
275
0
280
0
281
0
282
0
283
1
284
8
285
0
286
0
287
3
288
0
340
11
278
44
341
20D
342
20D
343
20D
344
20D
  0
DIMSTYLE
105
212
100
AcDbSymbolTableRecord
100
AcDbDimStyleTableRecord
  2
DIMSTYLE_1
 70
0
  3

  4

 40
1.0
 41
3.5
 42
1.0
 43
0.38
 44
1.5
 45
0.0
 46
0.0
 47
0.0
 48
0.0
140
2.5
141
0.09
142
0.0
143
25.4
144
5.0
145
0.0
146
1.0
147
1.25
 71
0.0
 72
0.0
 73
1
 74
1
 75
0
 76
0
 77
0
 78
8
170
0
171
2
172
0
173
0
174
0
175
0
176
0
177
0
178
0
270
2
271
3
272
3
273
2
274
2
275
0
280
0
281
0
282
0
283
1
284
8
285
0
286
0
287
3
288
0
340
11
278
44
341
20D
342
20D
343
20D
344
20D
  0
ENDTAB
  0
ENDSEC
  0
SECTION
  2
BLOCKS
  0
BLOCK
  5
20
100
AcDbEntity
  8
0
100
AcDbBlockBegin
  2
*Model_Space
 70
0
 10
0.0
 20
0.0
 30
0.0
  3
*Model_Space
  1

  0
ENDBLK
  5
21
100
AcDbEntity
  8
0
100
AcDbBlockEnd
  0
BLOCK
  5
1C
100
AcDbEntity
  8
0
100
AcDbBlockBegin
  2
*Paper_Space
 70
0
 10
0.0
 20
0.0
 30
0.0
  3
*Paper_Space
  1

  0
ENDBLK
  5
1D
100
AcDbEntity
  8
0
100
AcDbBlockEnd
  0
BLOCK
  5
213
100
AcDbEntity
  8
0
100
AcDbBlockBegin
  2
_FILLED
 70
64
 10
0.0
 20
0.0
  3
_FILLED
  1

  0
SOLID
  5
214
100
AcDbEntity
  8
0
  6
BYBLOCK
 62
0
100
AcDbTrace
 10
0.0
 20
0.0
 11
-1.0
 21
0.2142857143
 12
-1.0
 22
-0.2142857143
 13
-1.0
 23
-0.2142857143
  0
ENDBLK
  5
215
100
AcDbEntity
  8
0
  6
BYBLOCK
 62
0
100
AcDbBlockEnd
  0
BLOCK
  5
216
100
AcDbEntity
  8
0
100
AcDbBlockBegin
 62
2
  6
CONTINUOUS
  2
*D0
 70
65
 10
0.0
 20
0.0
  3
*D0
  1

  0
TEXT
  5
217
100
AcDbEntity
  8
0
100
AcDbText
 62
2
  6
CONTINUOUS
 10
40.8844150397
 20
169.7236026072
  7
STANDARD
 40
2.5
  1
42
 72
5
 11
44.5225473354
 21
169.7236026072
100
AcDbText
  0
TEXT
  5
218
100
AcDbEntity
  8
0
100
AcDbText
 62
2
  6
CONTINUOUS
 10
44.5225473354
 20
169.7236026072
  7
STANDARD
 40
2.5
  1
mm
 72
5
 11
50.1937535611
 21
169.7236026072
100
AcDbText
  0
TEXT
  5
219
100
AcDbEntity
  8
0
100
AcDbText
 62
2
  6
CONTINUOUS
 10
40.8844150397
 20
165.9736026072
  7
STANDARD
 40
2.5
  1
1-5/8"
 72
5
 11
50.4563994754
 21
165.9736026072
100
AcDbText
  0
LINE
  5
21A
100
AcDbEntity
  8
0
100
AcDbLine
 62
2
  6
CONTINUOUS
 10
88.0275712759
 20
161.7042968057
 11
33.3844150397
 21
161.7042968057
  0
LINE
  5
21B
100
AcDbEntity
  8
0
100
AcDbLine
 62
2
  6
CONTINUOUS
 10
46.0549197497
 20
153.8232858833
 11
33.3844150397
 21
153.8232858833
  0
LINE
  5
21C
100
AcDbEntity
  8
0
100
AcDbLine
 62
2
  6
CONTINUOUS
 10
34.8844150397
 20
161.7042968057
 11
34.8844150397
 21
170.9736026072
  0
LINE
  5
21D
100
AcDbEntity
  8
0
100
AcDbLine
 62
2
  6
CONTINUOUS
 10
34.8844150397
 20
170.9736026072
 11
39.6344150397
 21
170.9736026072
  0
LINE
  5
21E
100
AcDbEntity
  8
0
100
AcDbLine
 62
2
  6
CONTINUOUS
 10
34.8844150397
 20
153.8232858833
 11
34.8844150397
 21
148.8232858833
  0
INSERT
  5
21F
100
AcDbEntity
  8
0
100
AcDbBlockReference
 62
2
  6
CONTINUOUS
  2
_FILLED
 10
34.8844150397
 20
161.7042968057
 41
3.5
 42
3.5
 43
3.5
 50
270.0
  0
INSERT
  5
220
100
AcDbEntity
  8
0
100
AcDbBlockReference
 62
2
  6
CONTINUOUS
  2
_FILLED
 10
34.8844150397
 20
153.8232858833
 41
3.5
 42
3.5
 43
3.5
 50
90.0
  0
ENDBLK
  5
221
100
AcDbEntity
  8
0
  6
BYBLOCK
 62
0
100
AcDbBlockEnd
  0
BLOCK
  5
222
100
AcDbEntity
  8
0
100
AcDbBlockBegin
 62
2
  6
CONTINUOUS
  2
*D1
 70
65
 10
0.0
 20
0.0
  3
*D1
  1

  0
TEXT
  5
223
100
AcDbEntity
  8
0
100
AcDbText
 62
2
  6
CONTINUOUS
 10
111.0015507484
 20
145.33197488
  7
TEXTSTYLE_2
 40
2.5
  1
n
 72
5
 11
114.3348840818
 21
145.33197488
100
AcDbText
  0
TEXT
  5
224
100
AcDbEntity
  8
0
100
AcDbText
 62
2
  6
CONTINUOUS
 10
114.3348840818
 20
145.33197488
  7
STANDARD
 40
2.5
  1
710
 72
5
 11
119.7920825253
 21
145.33197488
100
AcDbText
  0
TEXT
  5
225
100
AcDbEntity
  8
0
100
AcDbText
 62
2
  6
CONTINUOUS
 10
119.7920825253
 20
145.33197488
  7
STANDARD
 40
2.5
  1
mm
 72
5
 11
125.463288751
 21
145.33197488
100
AcDbText
  0
TEXT
  5
226
100
AcDbEntity
  8
0
100
AcDbText
 62
2
  6
CONTINUOUS
 10
115.5719139132
 20
141.58197488
  7
STANDARD
 40
2.5
  1
28"
 72
5
 11
120.8929255863
 21
141.58197488
100
AcDbText
  0
LINE
  5
227
100
AcDbEntity
  8
0
100
AcDbLine
 62
2
  6
CONTINUOUS
 10
47.0549197497
 20
152.8232858833
 11
47.0549197497
 21
145.08197488
  0
LINE
  5
228
100
AcDbEntity
  8
0
100
AcDbLine
 62
2
  6
CONTINUOUS
 10
189.4099197497
 20
152.8232858833
 11
189.4099197497
 21
145.08197488
  0
LINE
  5
229
100
AcDbEntity
  8
0
100
AcDbLine
 62
2
  6
CONTINUOUS
 10
47.0549197497
 20
146.58197488
 11
109.7515507484
 21
146.58197488
  0
LINE
  5
22A
100
AcDbEntity
  8
0
100
AcDbLine
 62
2
  6
CONTINUOUS
 10
189.4099197497
 20
146.58197488
 11
126.713288751
 21
146.58197488
  0
INSERT
  5
22B
100
AcDbEntity
  8
0
100
AcDbBlockReference
 62
2
  6
CONTINUOUS
  2
_FILLED
 10
47.0549197497
 20
146.58197488
 41
3.5
 42
3.5
 43
3.5
 50
180.0
  0
INSERT
  5
22C
100
AcDbEntity
  8
0
100
AcDbBlockReference
 62
2
  6
CONTINUOUS
  2
_FILLED
 10
189.4099197497
 20
146.58197488
 41
3.5
 42
3.5
 43
3.5
  0
ENDBLK
  5
22D
100
AcDbEntity
  8
0
  6
BYBLOCK
 62
0
100
AcDbBlockEnd
  0
BLOCK
  5
22E
100
AcDbEntity
  8
0
100
AcDbBlockBegin
  2
*T1
 70
1
 10
0.0
 20
0.0
  3
*T1
  1

  0
LINE
  5
22F
100
AcDbEntity
  8
0
100
AcDbLine
 62
7
  6
CONTINUOUS
 10
0.0
 20
0.0
 11
148.0
 21
0.0
  0
LINE
  5
230
100
AcDbEntity
  8
0
100
AcDbLine
 62
7
  6
CONTINUOUS
 10
0.0
 20
0.0
 11
0.0
 21
-43.0
  0
LINE
  5
231
100
AcDbEntity
  8
0
100
AcDbLine
 62
7
  6
CONTINUOUS
 10
45.0
 20
-23.0
 11
148.0
 21
-23.0
  0
LINE
  5
232
100
AcDbEntity
  8
0
100
AcDbLine
 62
7
  6
CONTINUOUS
 10
45.0
 20
-28.0
 11
148.0
 21
-28.0
  0
LINE
  5
233
100
AcDbEntity
  8
0
100
AcDbLine
 62
7
  6
CONTINUOUS
 10
0.0
 20
-43.0
 11
148.0
 21
-43.0
  0
LINE
  5
234
100
AcDbEntity
  8
0
100
AcDbLine
 62
7
  6
CONTINUOUS
 10
45.0
 20
0.0
 11
45.0
 21
-43.0
  0
LINE
  5
235
100
AcDbEntity
  8
0
100
AcDbLine
 62
7
  6
CONTINUOUS
 10
143.0
 20
0.0
 11
143.0
 21
-23.0
  0
LINE
  5
236
100
AcDbEntity
  8
0
100
AcDbLine
 62
7
  6
CONTINUOUS
 10
148.0
 20
0.0
 11
148.0
 21
-43.0
  0
TEXT
  5
237
100
AcDbEntity
  8
0
100
AcDbText
 62
7
  6
CONTINUOUS
 10
8.9659749243
 20
-10.675
  7
STANDARD
 40
8.0
  1
O
 72
5
 11
17.370644185
 21
-10.675
100
AcDbText
  0
TEXT
  5
238
100
AcDbEntity
  8
0
100
AcDbText
 62
7
  6
CONTINUOUS
 10
17.370644185
 20
-10.675
  7
STANDARD
 40
5.5
  1
RAC
 72
5
 11
33.9562472979
 21
-10.675
100
AcDbText
  0
TEXT
  5
239
100
AcDbEntity
  8
0
100
AcDbText
 62
7
  6
CONTINUOUS
 10
33.9562472979
 20
-5.925
  7
TEXTSTYLE_3
 40
3.0
  1
®
 72
5
 11
36.0340250757
 21
-5.925
100
AcDbText
  0
TEXT
  5
23A
100
AcDbEntity
  8
0
100
AcDbText
 62
7
  6
CONTINUOUS
 10
9.5323389537
 20
-15.325
  7
TEXTSTYLE_3
 40
3.0
  1
D  E  C  O  R
 72
5
 11
34.3878945093
 21
-15.325
100
AcDbText
  0
TEXT
  5
23B
100
AcDbEntity
  8
0
100
AcDbText
 62
7
  6
CONTINUOUS
 10
34.3878945093
 20
-15.325
  7
STANDARD
 40
2.5
  1
 
 72
5
 11
35.4676610463
 21
-15.325
100
AcDbText
  0
TEXT
  5
23C
100
AcDbEntity
  8
0
100
AcDbText
 62
7
  6
CONTINUOUS
 10
52.5257352941
 20
-6.0
  7
TEXTSTYLE_4
 40
2.75
  1
Part name:
 72
5
 11
71.9375
 21
-6.0
100
AcDbText
  0
TEXT
  5
23D
100
AcDbEntity
  8
0
100
AcDbText
 62
7
  6
CONTINUOUS
 10
49.2788865546
 20
-12.875
  7
TEXTSTYLE_4
 40
2.75
  1
Designed by:
 72
5
 11
71.9375
 21
-12.875
100
AcDbText
  0
TEXT
  5
23E
100
AcDbEntity
  8
0
100
AcDbText
 62
7
  6
CONTINUOUS
 10
48.9553571429
 20
-19.75
  7
TEXTSTYLE_4
 40
2.75
  1
Designed on:
 72
5
 11
71.9375
 21
-19.75
100
AcDbText
  0
TEXT
  5
23F
100
AcDbEntity
  8
0
100
AcDbText
 62
2
  6
CONTINUOUS
 10
74.0625
 20
-6.0
  7
TEXTSTYLE_4
 40
2.75
  1
R38
 72
5
 11
80.8103991597
 21
-6.0
100
AcDbText
  0
TEXT
  5
240
100
AcDbEntity
  8
0
100
AcDbText
 62
2
  6
CONTINUOUS
 10
74.0625
 20
-12.875
  7
TEXTSTYLE_4
 40
2.75
  1
ORAC
 72
5
 11
84.1034663866
 21
-12.875
100
AcDbText
  0
TEXT
  5
241
100
AcDbEntity
  8
0
100
AcDbText
 62
2
  6
CONTINUOUS
 10
74.0625
 20
-19.75
  7
TEXTSTYLE_4
 40
2.75
  1
13-Apr-2005
 72
5
 11
96.1896008403
 21
-19.75
100
AcDbText
  0
TEXT
  5
242
100
AcDbEntity
  8
0
100
AcDbText
 62
2
  6
CONTINUOUS
 10
96.1896008403
 20
-19.75
  7
TEXTSTYLE_4
 40
2.75
  1
 
 72
5
 11
97.1717436975
 21
-19.75
100
AcDbText
  0
TEXT
  5
243
100
AcDbEntity
  8
0
100
AcDbText
 62
2
  6
CONTINUOUS
 10
146.5625
 20
-17.5
  7
TEXTSTYLE_4
 40
1.5
  1
Version: 
 50
90.0
 72
5
 11
146.5625
 21
-9.0294117647
100
AcDbText
  0
TEXT
  5
244
100
AcDbEntity
  8
0
100
AcDbText
 62
2
  6
CONTINUOUS
 10
146.5625
 20
-9.0294117647
  7
TEXTSTYLE_4
 40
1.5
  1
1.0
 50
90.0
 72
5
 11
146.5625
 21
-6.0357142857
100
AcDbText
  0
TEXT
  5
245
100
AcDbEntity
  8
0
100
AcDbText
 62
2
  6
CONTINUOUS
 10
146.5625
 20
-6.0357142857
  7
TEXTSTYLE_4
 40
1.5
  1
 
 50
90.0
 72
5
 11
146.5625
 21
-5.5
100
AcDbText
  0
TEXT
  5
246
100
AcDbEntity
  8
0
100
AcDbText
 62
7
  6
CONTINUOUS
 10
9.6586134454
 20
-24.25
  7
TEXTSTYLE_4
 40
2.5
  1
Biekorfstraat 32
 72
5
 11
35.3413865546
 21
-24.25
100
AcDbText
  0
TEXT
  5
247
100
AcDbEntity
  8
0
100
AcDbText
 62
7
  6
CONTINUOUS
 10
2.2584033613
 20
-28.0
  7
TEXTSTYLE_4
 40
2.5
  1
8400 Oostende - Belgium
 72
5
 11
42.7415966387
 21
-28.0
100
AcDbText
  0
TEXT
  5
248
100
AcDbEntity
  8
0
100
AcDbText
 62
7
  6
CONTINUOUS
 10
4.2699579832
 20
-31.75
  7
TEXTSTYLE_4
 40
2.5
  1
Tel  +32 (0)59 80 32 52
 72
5
 11
40.7300420168
 21
-31.75
100
AcDbText
  0
TEXT
  5
249
100
AcDbEntity
  8
0
100
AcDbText
 62
7
  6
CONTINUOUS
 10
5.7405462185
 20
-35.5
  7
TEXTSTYLE_4
 40
2.5
  1
www.oracdecor.com
 72
5
 11
39.2594537815
 21
-35.5
100
AcDbText
  0
TEXT
  5
24A
100
AcDbEntity
  8
0
100
AcDbText
 62
7
  6
CONTINUOUS
 10
5.5777310924
 20
-39.25
  7
TEXTSTYLE_4
 40
2.5
  1
info@oracdecor.com
 72
5
 11
39.4222689076
 21
-39.25
100
AcDbText
  0
TEXT
  5
24B
100
AcDbEntity
  8
0
100
AcDbText
 62
7
  6
CONTINUOUS
 10
46.0625
 20
-26.75
  7
TEXTSTYLE_4
 40
2.5
  1
All dimensions are in mm unless otherwise specified   
 72
5
 11
132.3019957983
 21
-26.75
100
AcDbText
  0
TEXT
  5
24C
100
AcDbEntity
  8
0
100
AcDbText
 62
7
  6
CONTINUOUS
 10
46.0625
 20
-31.7075
  7
TEXTSTYLE_4
 40
1.85
  1
All information in this document is Orac's exclusive property.  It may in no case 
 72
5
 11
140.0471638655
 21
-31.7075
100
AcDbText
  0
TEXT
  5
24D
100
AcDbEntity
  8
0
100
AcDbText
 62
7
  6
CONTINUOUS
 10
46.0625
 20
-34.8525
  7
TEXTSTYLE_4
 40
1.85
  1
be reproduced, even partly, be communicated to a third party or used for any 
 72
5
 11
138.8345588235
 21
-34.8525
100
AcDbText
  0
TEXT
  5
24E
100
AcDbEntity
  8
0
100
AcDbText
 62
7
  6
CONTINUOUS
 10
46.0625
 20
-37.9975
  7
TEXTSTYLE_4
 40
1.85
  1
possible purpose without ORAC's express written permission. 
 72
5
 11
119.4484243697
 21
-37.9975
100
AcDbText
  0
TEXT
  5
24F
100
AcDbEntity
  8
0
100
AcDbText
 62
7
  6
CONTINUOUS
 10
46.0625
 20
-41.1425
  7
TEXTSTYLE_4
 40
1.85
  1
Further legal information can be found at http://www.oracdecor.be/nl/disclaimer 
 72
5
 11
143.7316176471
 21
-41.1425
100
AcDbText
  0
ENDBLK
  5
250
100
AcDbEntity
  8
0
  6
BYBLOCK
 62
0
100
AcDbBlockEnd
  0
ENDSEC
  0
SECTION
  2
ENTITIES
  0
DIMENSION
  5
251
100
AcDbEntity
  8
0
100
AcDbDimension
 62
2
  6
CONTINUOUS
  2
*D0
 10
34.8844150397
 20
153.8232858833
 11
45.6704072576
 21
169.0986026072
 70
160
 71
1
 42
39.4050546121
  1
<>mm\P1-5/8"
  3
DIMSTYLE_1
100
AcDbAlignedDimension
 13
89.0275712759
 23
161.7042968057
 14
47.0549197497
 24
153.8232858833
 50
270.0
100
AcDbRotatedDimension
  0
DIMENSION
  5
252
100
AcDbEntity
  8
0
100
AcDbDimension
 62
2
  6
CONTINUOUS
  2
*D1
 10
189.4099197497
 20
146.58197488
 11
118.2324197497
 21
144.70697488
 70
160
 71
2
 42
711.775
  1
%%c<>mm\P28"
  3
DIMSTYLE_1
100
AcDbAlignedDimension
 13
47.0549197497
 23
153.8232858833
 14
189.4099197497
 24
153.8232858833
100
AcDbRotatedDimension
  0
ACAD_TABLE
  5
253
100
AcDbEntity
  8
0
 62
2
  6
CONTINUOUS
100
AcDbBlockReference
  2
*T1
 10
143.9999958937
 20
47.9999925619
 30
0.0
100
AcDbTable
342
       3B3
343
210
 11
1.0
 21
0.0
 31
0.0
 90
22
 91
4
 92
4
 93
0
 94
0
 95
0
 96
0
141
18.0
141
5.0
141
5.0
141
15.0
142
45.0
142
28.0
142
70.0
142
5.0
171
1
172
0
173
0
174
0
175
1
176
1
 91
41
178
0
145
0.0
301
CELL_VALUE
 90
4
  1
\A1;O\H5.5;RAC\Ftrium.ttf;\H3.0;\S®^ ;\PD  E  C  O  R\Fcgtime.ttf;\H2.5; 
304
ACVALUE_END
170
5
140
8.0
 64
7
171
1
172
0
173
0
174
0
175
1
176
2
 91
57
178
0
145
0.0
  7
TEXTSTYLE_4
301
CELL_VALUE
 90
4
  1
Part name:\PDesigned by:\PDesigned on:
304
ACVALUE_END
170
6
140
2.75
 64
7
171
1
172
0
173
0
174
0
175
1
176
2
 91
49
178
0
145
0.0
  7
TEXTSTYLE_4
301
CELL_VALUE
 90
4
  1
R38\PORAC\P13-Apr-2005 
304
ACVALUE_END
170
4
140
2.75
171
1
172
0
173
0
174
0
175
1
176
2
 91
49
178
0
145
0.0
  7
TEXTSTYLE_4
301
CELL_VALUE
 90
4
  1
Version: 1.0 
304
ACVALUE_END
170
6
140
1.5
171
1
172
0
173
0
174
0
175
1
176
3
 91
57
178
0
145
0.0
  7
TEXTSTYLE_4
301
CELL_VALUE
 90
4
  1
Biekorfstraat 32\P8400 Oostende - Belgium\PTel  +32 (0)59 80 32 52\Pwww.oracdecor.com\Pinfo@oracdecor.com
304
ACVALUE_END
170
5
140
2.5
 64
7
171
1
172
0
173
1
174
0
175
1
176
1
 91
1
178
0
145
0.0
170
1
171
1
172
0
173
1
174
0
175
1
176
1
 91
1
178
0
145
0.0
170
1
171
1
172
0
173
1
174
0
175
1
176
1
 91
1
178
0
145
0.0
170
1
171
1
172
0
173
1
174
0
175
1
176
1
 91
1
178
0
145
0.0
170
1
171
1
172
0
173
0
174
0
175
3
176
1
 91
57
178
0
145
0.0
  7
TEXTSTYLE_4
301
CELL_VALUE
 90
4
  1
All dimensions are in mm unless otherwise specified   
304
ACVALUE_END
170
1
140
2.5
 64
7
171
1
172
0
173
1
174
0
175
1
176
1
 91
1
178
0
145
0.0
170
1
171
1
172
0
173
1
174
0
175
1
176
1
 91
1
178
0
145
0.0
170
1
171
1
172
0
173
1
174
0
175
1
176
1
 91
1
178
0
145
0.0
170
1
171
1
172
0
173
0
174
0
175
3
176
1
 91
57
178
0
145
0.0
  7
TEXTSTYLE_4
301
CELL_VALUE
 90
4
  2
All information in this document is Orac's exclusive property.  It may in no case \Pbe reproduced, even partly, be communicated to a third party or used for any \Ppossible purpose without ORAC's express written permission. \PFurther legal information
  1
 can be found at http://www.oracdecor.be/nl/disclaimer 
304
ACVALUE_END
170
4
140
1.85
 64
7
171
1
172
0
173
1
174
0
175
1
176
1
 91
1
178
0
145
0.0
170
1
171
1
172
0
173
1
174
0
175
1
176
1
 91
1
178
0
145
0.0
170
1
  0
LINE
  5
254
100
AcDbEntity
  8
0
100
AcDbLine
 62
5
  6
CONTINUOUS
 10
0.0
 20
0.0
 11
0.0
 21
210.0
  0
LINE
  5
255
100
AcDbEntity
  8
0
100
AcDbLine
 62
7
  6
CONTINUOUS
 10
5.0
 20
5.0
 11
5.0
 21
195.0
  0
LINE
  5
256
100
AcDbEntity
  8
0
100
AcDbLine
 62
5
  6
CONTINUOUS
 10
0.0
 20
0.0
 11
297.0
 21
0.0
  0
LINE
  5
257
100
AcDbEntity
  8
0
100
AcDbLine
 62
7
  6
CONTINUOUS
 10
5.0
 20
5.0
 11
292.0
 21
5.0
  0
LINE
  5
258
100
AcDbEntity
  8
0
100
AcDbLine
 62
4
  6
CONTINUOUS
 10
148.5
 20
195.0
 11
148.5
 21
205.0
  0
LINE
  5
259
100
AcDbEntity
  8
0
100
AcDbLine
 62
7
  6
CONTINUOUS
 10
5.0
 20
195.0
 11
292.0
 21
195.0
  0
LINE
  5
25A
100
AcDbEntity
  8
0
100
AcDbLine
 62
5
  6
CONTINUOUS
 10
0.0
 20
210.0
 11
297.0
 21
210.0
  0
LINE
  5
25B
100
AcDbEntity
  8
0
100
AcDbLine
 62
7
  6
CONTINUOUS
 10
292.0
 20
5.0
 11
292.0
 21
195.0
  0
LINE
  5
25C
100
AcDbEntity
  8
0
100
AcDbLine
 62
5
  6
CONTINUOUS
 10
297.0
 20
0.0
 11
297.0
 21
210.0
  0
LINE
  5
25D
100
AcDbEntity
  8
DTM_AXIS
100
AcDbLine
 62
7
  6
CONTINUOUS
 10
126.6961700096
 20
89.4647852423
 11
126.3551589656
 21
87.5137318064
  0
LINE
  5
25E
100
AcDbEntity
  8
DTM_AXIS
100
AcDbLine
 62
7
  6
CONTINUOUS
 10
130.6562580623
 20
91.3564260018
 11
130.6401579193
 21
90.5757247319
  0
LINE
  5
25F
100
AcDbEntity
  8
DTM_AXIS
100
AcDbLine
 62
7
  6
CONTINUOUS
 10
137.1140542171
 20
91.3878799412
 11
137.097954074
 21
90.6071786714
  0
LINE
  5
260
100
AcDbEntity
  8
DTM_AXIS
100
AcDbLine
 62
7
  6
CONTINUOUS
 10
161.5403967699
 20
92.0553580313
 11
161.5403704228
 21
92.0553077525
  0
LINE
  5
261
100
AcDbEntity
  8
DTM_AXIS
100
AcDbLine
 62
7
  6
CONTINUOUS
 10
200.0031803699
 20
101.6715829835
 11
199.4178637324
 21
101.6783770815
  0
LINE
  5
262
100
AcDbEntity
  8
DTM_AXIS
100
AcDbLine
 62
7
  6
CONTINUOUS
 10
200.6077097448
 20
101.6617786761
 11
200.0031803699
 21
101.6715829835
  0
LINE
  5
263
100
AcDbEntity
  8
DTM_AXIS
100
AcDbLine
 62
7
  6
CONTINUOUS
 10
201.2017433274
 20
101.649369813
 11
200.6077097448
 21
101.6617786761
  0
LINE
  5
264
100
AcDbEntity
  8
DTM_AXIS
100
AcDbLine
 62
7
  6
CONTINUOUS
 10
201.7853052386
 20
101.634482834
 11
201.2017433274
 21
101.649369813
  0
LINE
  5
265
100
AcDbEntity
  8
DTM_AXIS
100
AcDbLine
 62
7
  6
CONTINUOUS
 10
202.3584382702
 20
101.617239283
 11
201.7853052386
 21
101.634482834
  0
LINE
  5
266
100
AcDbEntity
  8
DTM_AXIS
100
AcDbLine
 62
7
  6
CONTINUOUS
 10
202.9212024641
 20
101.5977558251
 11
202.3584382702
 21
101.617239283
  0
LINE
  5
267
100
AcDbEntity
  8
DTM_AXIS
100
AcDbLine
 62
7
  6
CONTINUOUS
 10
203.4736737539
 20
101.5761442751
 11
202.9212024641
 21
101.5977558251
  0
LINE
  5
268
100
AcDbEntity
  8
DTM_AXIS
100
AcDbLine
 62
7
  6
CONTINUOUS
 10
204.0159426673
 20
101.5525116356
 11
203.4736737539
 21
101.5761442751
  0
LINE
  5
269
100
AcDbEntity
  8
DTM_AXIS
100
AcDbLine
 62
7
  6
CONTINUOUS
 10
204.5481130914
 20
101.5269601439
 11
204.0159426673
 21
101.5525116356
  0
LINE
  5
26A
100
AcDbEntity
  8
DTM_AXIS
100
AcDbLine
 62
7
  6
CONTINUOUS
 10
205.0703012623
 20
101.4995873183
 11
204.5481130914
 21
101.5269601439
  0
LINE
  5
26B
100
AcDbEntity
  8
DTM_AXIS
100
AcDbLine
 62
7
  6
CONTINUOUS
 10
205.6670742322
 20
101.4654740613
 11
205.0703012623
 21
101.4995873183
  0
LINE
  5
26C
100
AcDbEntity
  8
DTM_AXIS
100
AcDbLine
 62
7
  6
CONTINUOUS
 10
206.2506501606
 20
101.4291477782
 11
205.6670742322
 21
101.4654740613
  0
LINE
  5
26D
100
AcDbEntity
  8
DTM_AXIS
100
AcDbLine
 62
7
  6
CONTINUOUS
 10
206.8212651252
 20
101.3907397497
 11
206.2506501606
 21
101.4291477782
  0
LINE
  5
26E
100
AcDbEntity
  8
DTM_AXIS
100
AcDbLine
 62
7
  6
CONTINUOUS
 10
207.3791671425
 20
101.3503732692
 11
206.8212651252
 21
101.3907397497
  0
LINE
  5
26F
100
AcDbEntity
  8
DTM_AXIS
100
AcDbLine
 62
7
  6
CONTINUOUS
 10
207.9246168299
 20
101.3081636802
 11
207.3791671425
 21
101.3503732692
  0
LINE
  5
270
100
AcDbEntity
  8
DTM_AXIS
100
AcDbLine
 62
7
  6
CONTINUOUS
 10
208.4578881151
 20
101.2642183481
 11
207.9246168299
 21
101.3081636802
  0
LINE
  5
271
100
AcDbEntity
  8
DTM_AXIS
100
AcDbLine
 62
7
  6
CONTINUOUS
 10
208.9792615597
 20
101.2186372396
 11
208.4578881151
 21
101.2642183481
  0
LINE
  5
272
100
AcDbEntity
  8
DTM_AXIS
100
AcDbLine
 62
7
  6
CONTINUOUS
 10
209.4890254875
 20
101.1715129252
 11
208.9792615597
 21
101.2186372396
  0
LINE
  5
273
100
AcDbEntity
  8
DTM_AXIS
100
AcDbLine
 62
7
  6
CONTINUOUS
 10
209.9874640586
 20
101.1229318205
 11
209.4890254875
 21
101.1715129252
  0
LINE
  5
274
100
AcDbEntity
  8
DTM_AXIS
100
AcDbLine
 62
7
  6
CONTINUOUS
 10
210.4748203833
 20
101.0729783774
 11
209.9874640586
 21
101.1229318205
  0
LINE
  5
275
100
AcDbEntity
  8
DTM_AXIS
100
AcDbLine
 62
7
  6
CONTINUOUS
 10
210.9513328558
 20
101.0217323059
 11
210.4748203833
 21
101.0729783774
  0
LINE
  5
276
100
AcDbEntity
  8
DTM_AXIS
100
AcDbLine
 62
7
  6
CONTINUOUS
 10
211.4172466961
 20
100.9692675303
 11
210.9513328558
 21
101.0217323059
  0
LINE
  5
277
100
AcDbEntity
  8
DTM_AXIS
100
AcDbLine
 62
7
  6
CONTINUOUS
 10
211.8728092297
 20
100.9156527295
 11
211.4172466961
 21
100.9692675303
  0
LINE
  5
278
100
AcDbEntity
  8
DTM_AXIS
100
AcDbLine
 62
7
  6
CONTINUOUS
 10
212.3182708295
 20
100.8609512893
 11
211.8728092297
 21
100.9156527295
  0
LINE
  5
279
100
AcDbEntity
  8
DTM_AXIS
100
AcDbLine
 62
7
  6
CONTINUOUS
 10
212.7538858443
 20
100.8052212082
 11
212.3182708295
 21
100.8609512893
  0
LINE
  5
27A
100
AcDbEntity
  8
DTM_AXIS
100
AcDbLine
 62
7
  6
CONTINUOUS
 10
213.1196253464
 20
100.7566743304
 11
212.7538858443
 21
100.8052212082
  0
LINE
  5
27B
100
AcDbEntity
  8
DTM_AXIS
100
AcDbLine
 62
7
  6
CONTINUOUS
 10
213.4784779036
 20
100.707441457
 11
213.1196253464
 21
100.7566743304
  0
LINE
  5
27C
100
AcDbEntity
  8
DTM_AXIS
100
AcDbLine
 62
7
  6
CONTINUOUS
 10
213.8306042804
 20
100.6575505893
 11
213.4784779036
 21
100.707441457
  0
LINE
  5
27D
100
AcDbEntity
  8
DTM_AXIS
100
AcDbLine
 62
7
  6
CONTINUOUS
 10
214.1761646283
 20
100.6070272614
 11
213.8306042804
 21
100.6575505893
  0
LINE
  5
27E
100
AcDbEntity
  8
DTM_AXIS
100
AcDbLine
 62
7
  6
CONTINUOUS
 10
214.5152998758
 20
100.5558974141
 11
214.1761646283
 21
100.6070272614
  0
LINE
  5
27F
100
AcDbEntity
  8
DTM_AXIS
100
AcDbLine
 62
7
  6
CONTINUOUS
 10
214.8481242094
 20
100.5041890286
 11
214.5152998758
 21
100.5558974141
  0
LINE
  5
280
100
AcDbEntity
  8
DTM_AXIS
100
AcDbLine
 62
7
  6
CONTINUOUS
 10
215.1747505111
 20
100.4519286261
 11
214.8481242094
 21
100.5041890286
  0
LINE
  5
281
100
AcDbEntity
  8
DTM_AXIS
100
AcDbLine
 62
7
  6
CONTINUOUS
 10
215.495292255
 20
100.3991409954
 11
215.1747505111
 21
100.4519286261
  0
LINE
  5
282
100
AcDbEntity
  8
DTM_AXIS
100
AcDbLine
 62
7
  6
CONTINUOUS
 10
215.809863317
 20
100.345849221
 11
215.495292255
 21
100.3991409954
  0
LINE
  5
283
100
AcDbEntity
  8
DTM_AXIS
100
AcDbLine
 62
7
  6
CONTINUOUS
 10
216.1185777955
 20
100.2920747116
 11
215.809863317
 21
100.345849221
  0
LINE
  5
284
100
AcDbEntity
  8
DTM_AXIS
100
AcDbLine
 62
7
  6
CONTINUOUS
 10
216.4215498436
 20
100.2378372274
 11
216.1185777955
 21
100.2920747116
  0
LINE
  5
285
100
AcDbEntity
  8
DTM_AXIS
100
AcDbLine
 62
7
  6
CONTINUOUS
 10
216.7188935123
 20
100.1831549062
 11
216.4215498436
 21
100.2378372274
  0
LINE
  5
286
100
AcDbEntity
  8
DTM_AXIS
100
AcDbLine
 62
7
  6
CONTINUOUS
 10
217.0107226037
 20
100.1280442885
 11
216.7188935123
 21
100.1831549062
  0
LINE
  5
287
100
AcDbEntity
  8
DTM_AXIS
100
AcDbLine
 62
7
  6
CONTINUOUS
 10
217.297150535
 20
100.0725203418
 11
217.0107226037
 21
100.1280442885
  0
LINE
  5
288
100
AcDbEntity
  8
DTM_AXIS
100
AcDbLine
 62
7
  6
CONTINUOUS
 10
217.5782902118
 20
100.0165964824
 11
217.297150535
 21
100.0725203418
  0
LINE
  5
289
100
AcDbEntity
  8
DTM_AXIS
100
AcDbLine
 62
7
  6
CONTINUOUS
 10
217.8542539106
 20
99.9602845971
 11
217.5782902118
 21
100.0165964824
  0
LINE
  5
28A
100
AcDbEntity
  8
DTM_AXIS
100
AcDbLine
 62
7
  6
CONTINUOUS
 10
218.1251531707
 20
99.9035950613
 11
217.8542539106
 21
99.9602845971
  0
LINE
  5
28B
100
AcDbEntity
  8
DTM_AXIS
100
AcDbLine
 62
7
  6
CONTINUOUS
 10
218.391098695
 20
99.8465367572
 11
218.1251531707
 21
99.9035950613
  0
LINE
  5
28C
100
AcDbEntity
  8
DTM_AXIS
100
AcDbLine
 62
7
  6
CONTINUOUS
 10
218.6522002583
 20
99.7891170878
 11
218.391098695
 21
99.8465367572
  0
LINE
  5
28D
100
AcDbEntity
  8
DTM_AXIS
100
AcDbLine
 62
7
  6
CONTINUOUS
 10
218.9085632225
 20
99.7313427668
 11
218.6522002583
 21
99.7891170878
  0
LWPOLYLINE
  5
28E
100
AcDbEntity
  8
DTM_AXIS
100
AcDbPolyline
 62
7
  6
CONTINUOUS
 90
3
 70
0
 10
219.1602544255
 20
99.6732278772
 10
219.1186284271
 20
99.6829365492
 10
218.9085632225
 20
99.7313427668
  0
LINE
  5
28F
100
AcDbEntity
  8
DTM_AXIS
100
AcDbLine
 62
7
  6
CONTINUOUS
 10
219.3664605824
 20
99.6245520777
 11
219.1602544255
 21
99.6732278772
  0
LINE
  5
290
100
AcDbEntity
  8
DTM_AXIS
100
AcDbLine
 62
7
  6
CONTINUOUS
 10
219.5694800582
 20
99.5756631219
 11
219.3664605824
 21
99.6245520777
  0
LINE
  5
291
100
AcDbEntity
  8
DTM_AXIS
100
AcDbLine
 62
7
  6
CONTINUOUS
 10
219.7693401456
 20
99.5265711187
 11
219.5694800582
 21
99.5756631219
  0
LINE
  5
292
100
AcDbEntity
  8
DTM_AXIS
100
AcDbLine
 62
7
  6
CONTINUOUS
 10
219.9660689629
 20
99.4772858156
 11
219.7693401456
 21
99.5265711187
  0
LINE
  5
293
100
AcDbEntity
  8
DTM_AXIS
100
AcDbLine
 62
7
  6
CONTINUOUS
 10
220.1596953553
 20
99.4278166096
 11
219.9660689629
 21
99.4772858156
  0
LINE
  5
294
100
AcDbEntity
  8
DTM_AXIS
100
AcDbLine
 62
7
  6
CONTINUOUS
 10
220.350248765
 20
99.378172569
 11
220.1596953553
 21
99.4278166096
  0
LINE
  5
295
100
AcDbEntity
  8
DTM_AXIS
100
AcDbLine
 62
7
  6
CONTINUOUS
 10
220.5377593851
 20
99.3283623814
 11
220.350248765
 21
99.378172569
  0
LINE
  5
296
100
AcDbEntity
  8
DTM_AXIS
100
AcDbLine
 62
7
  6
CONTINUOUS
 10
220.7222580496
 20
99.2783943689
 11
220.5377593851
 21
99.3283623814
  0
LINE
  5
297
100
AcDbEntity
  8
DTM_AXIS
100
AcDbLine
 62
7
  6
CONTINUOUS
 10
220.9037760915
 20
99.2282765145
 11
220.7222580496
 21
99.2783943689
  0
LINE
  5
298
100
AcDbEntity
  8
DTM_AXIS
100
AcDbLine
 62
7
  6
CONTINUOUS
 10
221.0823455228
 20
99.1780164008
 11
220.9037760915
 21
99.2282765145
  0
LINE
  5
299
100
AcDbEntity
  8
DTM_AXIS
100
AcDbLine
 62
7
  6
CONTINUOUS
 10
221.2579989126
 20
99.1276212295
 11
221.0823455228
 21
99.1780164008
  0
LINE
  5
29A
100
AcDbEntity
  8
DTM_AXIS
100
AcDbLine
 62
7
  6
CONTINUOUS
 10
221.4307692343
 20
99.0770978533
 11
221.2579989126
 21
99.1276212295
  0
LINE
  5
29B
100
AcDbEntity
  8
DTM_AXIS
100
AcDbLine
 62
7
  6
CONTINUOUS
 10
221.6006900704
 20
99.0264527036
 11
221.4307692343
 21
99.0770978533
  0
LINE
  5
29C
100
AcDbEntity
  8
DTM_AXIS
100
AcDbLine
 62
7
  6
CONTINUOUS
 10
221.767795479
 20
98.9756918158
 11
221.6006900704
 21
99.0264527036
  0
LINE
  5
29D
100
AcDbEntity
  8
DTM_AXIS
100
AcDbLine
 62
7
  6
CONTINUOUS
 10
221.9321198301
 20
98.9248208654
 11
221.767795479
 21
98.9756918158
  0
LINE
  5
29E
100
AcDbEntity
  8
DTM_AXIS
100
AcDbLine
 62
7
  6
CONTINUOUS
 10
222.0936980346
 20
98.8738450863
 11
221.9321198301
 21
98.9248208654
  0
LINE
  5
29F
100
AcDbEntity
  8
DTM_AXIS
100
AcDbLine
 62
7
  6
CONTINUOUS
 10
222.2210070833
 20
98.832992241
 11
222.0936980346
 21
98.8738450863
  0
LINE
  5
2A0
100
AcDbEntity
  8
DTM_AXIS
100
AcDbLine
 62
7
  6
CONTINUOUS
 10
222.3465993782
 20
98.7920776936
 11
222.2210070833
 21
98.832992241
  0
LINE
  5
2A1
100
AcDbEntity
  8
DTM_AXIS
100
AcDbLine
 62
7
  6
CONTINUOUS
 10
222.4704932321
 20
98.751103574
 11
222.3465993782
 21
98.7920776936
  0
LINE
  5
2A2
100
AcDbEntity
  8
DTM_AXIS
100
AcDbLine
 62
7
  6
CONTINUOUS
 10
222.5927072329
 20
98.7100717909
 11
222.4704932321
 21
98.751103574
  0
LINE
  5
2A3
100
AcDbEntity
  8
DTM_AXIS
100
AcDbLine
 62
7
  6
CONTINUOUS
 10
222.7132595718
 20
98.6689842543
 11
222.5927072329
 21
98.7100717909
  0
LINE
  5
2A4
100
AcDbEntity
  8
DTM_AXIS
100
AcDbLine
 62
7
  6
CONTINUOUS
 10
222.8321632103
 20
98.627844569
 11
222.7132595718
 21
98.6689842543
  0
LINE
  5
2A5
100
AcDbEntity
  8
DTM_AXIS
100
AcDbLine
 62
7
  6
CONTINUOUS
 10
222.949426427
 20
98.5866579776
 11
222.8321632103
 21
98.627844569
  0
LINE
  5
2A6
100
AcDbEntity
  8
DTM_AXIS
100
AcDbLine
 62
7
  6
CONTINUOUS
 10
223.0650581387
 20
98.5454295772
 11
222.949426427
 21
98.5866579776
  0
LINE
  5
2A7
100
AcDbEntity
  8
DTM_AXIS
100
AcDbLine
 62
7
  6
CONTINUOUS
 10
223.1790677228
 20
98.5041643728
 11
223.0650581387
 21
98.5454295772
  0
LINE
  5
2A8
100
AcDbEntity
  8
DTM_AXIS
100
AcDbLine
 62
7
  6
CONTINUOUS
 10
223.2914646603
 20
98.4628674029
 11
223.1790677228
 21
98.5041643728
  0
LINE
  5
2A9
100
AcDbEntity
  8
DTM_AXIS
100
AcDbLine
 62
7
  6
CONTINUOUS
 10
223.4022591899
 20
98.4215434969
 11
223.2914646603
 21
98.4628674029
  0
LINE
  5
2AA
100
AcDbEntity
  8
DTM_AXIS
100
AcDbLine
 62
7
  6
CONTINUOUS
 10
223.511461946
 20
98.380197397
 11
223.4022591899
 21
98.4215434969
  0
LINE
  5
2AB
100
AcDbEntity
  8
DTM_AXIS
100
AcDbLine
 62
7
  6
CONTINUOUS
 10
223.6190836265
 20
98.3388338813
 11
223.511461946
 21
98.380197397
  0
LINE
  5
2AC
100
AcDbEntity
  8
DTM_AXIS
100
AcDbLine
 62
7
  6
CONTINUOUS
 10
223.7251356135
 20
98.2974575232
 11
223.6190836265
 21
98.3388338813
  0
LINE
  5
2AD
100
AcDbEntity
  8
DTM_AXIS
100
AcDbLine
 62
7
  6
CONTINUOUS
 10
223.8296296263
 20
98.2560728146
 11
223.7251356135
 21
98.2974575232
  0
LINE
  5
2AE
100
AcDbEntity
  8
DTM_AXIS
100
AcDbLine
 62
7
  6
CONTINUOUS
 10
223.9325773997
 20
98.214684291
 11
223.8296296263
 21
98.2560728146
  0
LINE
  5
2AF
100
AcDbEntity
  8
DTM_AXIS
100
AcDbLine
 62
7
  6
CONTINUOUS
 10
224.0339912778
 20
98.1732962911
 11
223.9325773997
 21
98.214684291
  0
LINE
  5
2B0
100
AcDbEntity
  8
DTM_AXIS
100
AcDbLine
 62
7
  6
CONTINUOUS
 10
224.1338838796
 20
98.1319130826
 11
224.0339912778
 21
98.1732962911
  0
LINE
  5
2B1
100
AcDbEntity
  8
DTM_AXIS
100
AcDbLine
 62
7
  6
CONTINUOUS
 10
224.2322677826
 20
98.0905389916
 11
224.1338838796
 21
98.1319130826
  0
LINE
  5
2B2
100
AcDbEntity
  8
DTM_AXIS
100
AcDbLine
 62
7
  6
CONTINUOUS
 10
224.3291560995
 20
98.0491781593
 11
224.2322677826
 21
98.0905389916
  0
LINE
  5
2B3
100
AcDbEntity
  8
DTM_AXIS
100
AcDbLine
 62
7
  6
CONTINUOUS
 10
224.4245621508
 20
98.007834672
 11
224.3291560995
 21
98.0491781593
  0
LINE
  5
2B4
100
AcDbEntity
  8
DTM_AXIS
100
AcDbLine
 62
7
  6
CONTINUOUS
 10
224.5184991511
 20
97.9665126969
 11
224.4245621508
 21
98.007834672
  0
LINE
  5
2B5
100
AcDbEntity
  8
DTM_AXIS
100
AcDbLine
 62
7
  6
CONTINUOUS
 10
224.6109807762
 20
97.9252162328
 11
224.5184991511
 21
97.9665126969
  0
LINE
  5
2B6
100
AcDbEntity
  8
DTM_AXIS
100
AcDbLine
 62
7
  6
CONTINUOUS
 10
224.7020207061
 20
97.8839493076
 11
224.6109807762
 21
97.9252162328
  0
LINE
  5
2B7
100
AcDbEntity
  8
DTM_AXIS
100
AcDbLine
 62
7
  6
CONTINUOUS
 10
224.7916348241
 20
97.8427149603
 11
224.7020207061
 21
97.8839493076
  0
LINE
  5
2B8
100
AcDbEntity
  8
DTM_AXIS
100
AcDbLine
 62
7
  6
CONTINUOUS
 10
224.8798496034
 20
97.8015112205
 11
224.7916348241
 21
97.8427149603
  0
LINE
  5
2B9
100
AcDbEntity
  8
DTM_AXIS
100
AcDbLine
 62
7
  6
CONTINUOUS
 10
224.9666953805
 20
97.760333945
 11
224.8798496034
 21
97.8015112205
  0
LINE
  5
2BA
100
AcDbEntity
  8
DTM_AXIS
100
AcDbLine
 62
7
  6
CONTINUOUS
 10
225.0309496166
 20
97.7294655802
 11
224.9666953805
 21
97.760333945
  0
LINE
  5
2BB
100
AcDbEntity
  8
DTM_AXIS
100
AcDbLine
 62
7
  6
CONTINUOUS
 10
225.0944633735
 20
97.6986075536
 11
225.0309496166
 21
97.7294655802
  0
LINE
  5
2BC
100
AcDbEntity
  8
DTM_AXIS
100
AcDbLine
 62
7
  6
CONTINUOUS
 10
225.1572490846
 20
97.6677577891
 11
225.0944633735
 21
97.6986075536
  0
LINE
  5
2BD
100
AcDbEntity
  8
DTM_AXIS
100
AcDbLine
 62
7
  6
CONTINUOUS
 10
225.2193190592
 20
97.6369141253
 11
225.1572490846
 21
97.6677577891
  0
LINE
  5
2BE
100
AcDbEntity
  8
DTM_AXIS
100
AcDbLine
 62
7
  6
CONTINUOUS
 10
225.2806854813
 20
97.606074315
 11
225.2193190592
 21
97.6369141253
  0
LINE
  5
2BF
100
AcDbEntity
  8
DTM_AXIS
100
AcDbLine
 62
7
  6
CONTINUOUS
 10
225.3413604078
 20
97.5752360256
 11
225.2806854813
 21
97.606074315
  0
LINE
  5
2C0
100
AcDbEntity
  8
DTM_AXIS
100
AcDbLine
 62
7
  6
CONTINUOUS
 10
225.4013557667
 20
97.5443968392
 11
225.3413604078
 21
97.5752360256
  0
LINE
  5
2C1
100
AcDbEntity
  8
DTM_AXIS
100
AcDbLine
 62
7
  6
CONTINUOUS
 10
225.4606833561
 20
97.513554253
 11
225.4013557667
 21
97.5443968392
  0
LINE
  5
2C2
100
AcDbEntity
  8
DTM_AXIS
100
AcDbLine
 62
7
  6
CONTINUOUS
 10
225.5193548422
 20
97.4827056788
 11
225.4606833561
 21
97.513554253
  0
LINE
  5
2C3
100
AcDbEntity
  8
DTM_AXIS
100
AcDbLine
 62
7
  6
CONTINUOUS
 10
225.5773817582
 20
97.4518484439
 11
225.5193548422
 21
97.4827056788
  0
LINE
  5
2C4
100
AcDbEntity
  8
DTM_AXIS
100
AcDbLine
 62
7
  6
CONTINUOUS
 10
225.6347755027
 20
97.4209797905
 11
225.5773817582
 21
97.4518484439
  0
LINE
  5
2C5
100
AcDbEntity
  8
DTM_AXIS
100
AcDbLine
 62
7
  6
CONTINUOUS
 10
225.6915473386
 20
97.3900968762
 11
225.6347755027
 21
97.4209797905
  0
LINE
  5
2C6
100
AcDbEntity
  8
DTM_AXIS
100
AcDbLine
 62
7
  6
CONTINUOUS
 10
225.7477083914
 20
97.3591967739
 11
225.6915473386
 21
97.3900968762
  0
LINE
  5
2C7
100
AcDbEntity
  8
DTM_AXIS
100
AcDbLine
 62
7
  6
CONTINUOUS
 10
225.8032696479
 20
97.3282764719
 11
225.7477083914
 21
97.3591967739
  0
LINE
  5
2C8
100
AcDbEntity
  8
DTM_AXIS
100
AcDbLine
 62
7
  6
CONTINUOUS
 10
225.8582419553
 20
97.297332874
 11
225.8032696479
 21
97.3282764719
  0
LINE
  5
2C9
100
AcDbEntity
  8
DTM_AXIS
100
AcDbLine
 62
7
  6
CONTINUOUS
 10
225.9126360191
 20
97.2663627995
 11
225.8582419553
 21
97.297332874
  0
LINE
  5
2CA
100
AcDbEntity
  8
DTM_AXIS
100
AcDbLine
 62
7
  6
CONTINUOUS
 10
225.9664623949
 20
97.2353629877
 11
225.9126360191
 21
97.2663627995
  0
LINE
  5
2CB
100
AcDbEntity
  8
DTM_AXIS
100
AcDbLine
 62
7
  6
CONTINUOUS
 10
226.0197314359
 20
97.2043301281
 11
225.9664623949
 21
97.2353629877
  0
LINE
  5
2CC
100
AcDbEntity
  8
DTM_AXIS
100
AcDbLine
 62
7
  6
CONTINUOUS
 10
226.0724552825
 20
97.1732596822
 11
226.0197314359
 21
97.2043301281
  0
LINE
  5
2CD
100
AcDbEntity
  8
DTM_AXIS
100
AcDbLine
 62
7
  6
CONTINUOUS
 10
226.124641846
 20
97.1421494237
 11
226.0724552825
 21
97.1732596822
  0
LINE
  5
2CE
100
AcDbEntity
  8
DTM_AXIS
100
AcDbLine
 62
7
  6
CONTINUOUS
 10
226.1762923187
 20
97.111001089
 11
226.124641846
 21
97.1421494237
  0
LINE
  5
2CF
100
AcDbEntity
  8
DTM_AXIS
100
AcDbLine
 62
7
  6
CONTINUOUS
 10
226.2274348888
 20
97.0797999486
 11
226.1762923187
 21
97.111001089
  0
LINE
  5
2D0
100
AcDbEntity
  8
DTM_AXIS
100
AcDbLine
 62
7
  6
CONTINUOUS
 10
226.2781128474
 20
97.0485215089
 11
226.2274348888
 21
97.0797999486
  0
LINE
  5
2D1
100
AcDbEntity
  8
DTM_AXIS
100
AcDbLine
 62
7
  6
CONTINUOUS
 10
226.3283432632
 20
97.0171568139
 11
226.2781128474
 21
97.0485215089
  0
LINE
  5
2D2
100
AcDbEntity
  8
DTM_AXIS
100
AcDbLine
 62
7
  6
CONTINUOUS
 10
226.3781325063
 20
96.985703336
 11
226.3283432632
 21
97.0171568139
  0
LINE
  5
2D3
100
AcDbEntity
  8
DTM_AXIS
100
AcDbLine
 62
7
  6
CONTINUOUS
 10
226.4274883532
 20
96.954157579
 11
226.3781325063
 21
96.985703336
  0
LINE
  5
2D4
100
AcDbEntity
  8
DTM_AXIS
100
AcDbLine
 62
7
  6
CONTINUOUS
 10
226.4764187747
 20
96.922515814
 11
226.4274883532
 21
96.954157579
  0
LINE
  5
2D5
100
AcDbEntity
  8
DTM_AXIS
100
AcDbLine
 62
7
  6
CONTINUOUS
 10
226.5249319308
 20
96.8907740736
 11
226.4764187747
 21
96.922515814
  0
LINE
  5
2D6
100
AcDbEntity
  8
DTM_AXIS
100
AcDbLine
 62
7
  6
CONTINUOUS
 10
226.5730361669
 20
96.8589281455
 11
226.5249319308
 21
96.8907740736
  0
LINE
  5
2D7
100
AcDbEntity
  8
DTM_AXIS
100
AcDbLine
 62
7
  6
CONTINUOUS
 10
226.6207400089
 20
96.8269735671
 11
226.5730361669
 21
96.8589281455
  0
LINE
  5
2D8
100
AcDbEntity
  8
DTM_AXIS
100
AcDbLine
 62
7
  6
CONTINUOUS
 10
226.6680521598
 20
96.7949056188
 11
226.6207400089
 21
96.8269735671
  0
LINE
  5
2D9
100
AcDbEntity
  8
DTM_AXIS
100
AcDbLine
 62
7
  6
CONTINUOUS
 10
226.7149814951
 20
96.7627193177
 11
226.6680521598
 21
96.7949056188
  0
LINE
  5
2DA
100
AcDbEntity
  8
DTM_AXIS
100
AcDbLine
 62
7
  6
CONTINUOUS
 10
226.7615370597
 20
96.7304094112
 11
226.7149814951
 21
96.7627193177
  0
LINE
  5
2DB
100
AcDbEntity
  8
DTM_AXIS
100
AcDbLine
 62
7
  6
CONTINUOUS
 10
226.8077280634
 20
96.6979703701
 11
226.7615370597
 21
96.7304094112
  0
LINE
  5
2DC
100
AcDbEntity
  8
DTM_AXIS
100
AcDbLine
 62
7
  6
CONTINUOUS
 10
226.853563878
 20
96.6653963821
 11
226.8077280634
 21
96.6979703701
  0
LINE
  5
2DD
100
AcDbEntity
  8
DTM_AXIS
100
AcDbLine
 62
7
  6
CONTINUOUS
 10
226.8990540331
 20
96.6326813449
 11
226.853563878
 21
96.6653963821
  0
LINE
  5
2DE
100
AcDbEntity
  8
DTM_AXIS
100
AcDbLine
 62
7
  6
CONTINUOUS
 10
226.9442082129
 20
96.5998188595
 11
226.8990540331
 21
96.6326813449
  0
LINE
  5
2DF
100
AcDbEntity
  8
DTM_AXIS
100
AcDbLine
 62
7
  6
CONTINUOUS
 10
226.9890362524
 20
96.5668022232
 11
226.9442082129
 21
96.5998188595
  0
LINE
  5
2E0
100
AcDbEntity
  8
DTM_AXIS
100
AcDbLine
 62
7
  6
CONTINUOUS
 10
227.0335481341
 20
96.5336244232
 11
226.9890362524
 21
96.5668022232
  0
LINE
  5
2E1
100
AcDbEntity
  8
DTM_AXIS
100
AcDbLine
 62
7
  6
CONTINUOUS
 10
227.0777539836
 20
96.5002781296
 11
227.0335481341
 21
96.5336244232
  0
LINE
  5
2E2
100
AcDbEntity
  8
DTM_AXIS
100
AcDbLine
 62
7
  6
CONTINUOUS
 10
227.1216640663
 20
96.4667556897
 11
227.0777539836
 21
96.5002781296
  0
LINE
  5
2E3
100
AcDbEntity
  8
DTM_AXIS
100
AcDbLine
 62
7
  6
CONTINUOUS
 10
227.1652887829
 20
96.4330491215
 11
227.1216640663
 21
96.4667556897
  0
LINE
  5
2E4
100
AcDbEntity
  8
DTM_AXIS
100
AcDbLine
 62
7
  6
CONTINUOUS
 10
227.2086387051
 20
96.3991500767
 11
227.1652887829
 21
96.4330491215
  0
LINE
  5
2E5
100
AcDbEntity
  8
DTM_AXIS
100
AcDbLine
 62
7
  6
CONTINUOUS
 10
227.2517243964
 20
96.3650499727
 11
227.2086387051
 21
96.3991500767
  0
LINE
  5
2E6
100
AcDbEntity
  8
DTM_AXIS
100
AcDbLine
 62
7
  6
CONTINUOUS
 10
227.2945534552
 20
96.3307423734
 11
227.2517243964
 21
96.3650499727
  0
LINE
  5
2E7
100
AcDbEntity
  8
DTM_AXIS
100
AcDbLine
 62
7
  6
CONTINUOUS
 10
227.3371314417
 20
96.2962223757
 11
227.2945534552
 21
96.3307423734
  0
LINE
  5
2E8
100
AcDbEntity
  8
DTM_AXIS
100
AcDbLine
 62
7
  6
CONTINUOUS
 10
227.3794640424
 20
96.2614849256
 11
227.3371314417
 21
96.2962223757
  0
LINE
  5
2E9
100
AcDbEntity
  8
DTM_AXIS
100
AcDbLine
 62
7
  6
CONTINUOUS
 10
227.4215574501
 20
96.2265244991
 11
227.3794640424
 21
96.2614849256
  0
LINE
  5
2EA
100
AcDbEntity
  8
DTM_AXIS
100
AcDbLine
 62
7
  6
CONTINUOUS
 10
227.4634183003
 20
96.1913351362
 11
227.4215574501
 21
96.2265244991
  0
LINE
  5
2EB
100
AcDbEntity
  8
DTM_AXIS
100
AcDbLine
 62
7
  6
CONTINUOUS
 10
227.5050536609
 20
96.155910431
 11
227.4634183003
 21
96.1913351362
  0
LWPOLYLINE
  5
2EC
100
AcDbEntity
  8
DTM_AXIS
100
AcDbPolyline
 62
7
  6
CONTINUOUS
 90
3
 70
0
 10
227.5602297976
 20
96.1082994134
 10
227.5464710233
 20
96.1202435237
 10
227.5050536609
 20
96.155910431
  0
LINE
  5
2ED
100
AcDbEntity
  8
DTM_AXIS
100
AcDbLine
 62
7
  6
CONTINUOUS
 10
227.6013688691
 20
96.0722980909
 11
227.5602297976
 21
96.1082994134
  0
LINE
  5
2EE
100
AcDbEntity
  8
DTM_AXIS
100
AcDbLine
 62
7
  6
CONTINUOUS
 10
227.6423090123
 20
96.036036748
 11
227.6013688691
 21
96.0722980909
  0
LINE
  5
2EF
100
AcDbEntity
  8
DTM_AXIS
100
AcDbLine
 62
7
  6
CONTINUOUS
 10
227.6830590557
 20
95.9995069572
 11
227.6423090123
 21
96.036036748
  0
LINE
  5
2F0
100
AcDbEntity
  8
DTM_AXIS
100
AcDbLine
 62
7
  6
CONTINUOUS
 10
227.7236282038
 20
95.9626998107
 11
227.6830590557
 21
95.9995069572
  0
LINE
  5
2F1
100
AcDbEntity
  8
DTM_AXIS
100
AcDbLine
 62
7
  6
CONTINUOUS
 10
227.7640260223
 20
95.9256059216
 11
227.7236282038
 21
95.9626998107
  0
LINE
  5
2F2
100
AcDbEntity
  8
DTM_AXIS
100
AcDbLine
 62
7
  6
CONTINUOUS
 10
227.80426242
 20
95.8882154282
 11
227.7640260223
 21
95.9256059216
  0
LINE
  5
2F3
100
AcDbEntity
  8
DTM_AXIS
100
AcDbLine
 62
7
  6
CONTINUOUS
 10
227.8443500316
 20
95.850515731
 11
227.80426242
 21
95.8882154282
  0
LINE
  5
2F4
100
AcDbEntity
  8
DTM_AXIS
100
AcDbLine
 62
7
  6
CONTINUOUS
 10
227.8843170308
 20
95.8124790823
 11
227.8443500316
 21
95.850515731
  0
LINE
  5
2F5
100
AcDbEntity
  8
DTM_AXIS
100
AcDbLine
 62
7
  6
CONTINUOUS
 10
227.92416779
 20
95.7740998213
 11
227.8843170308
 21
95.8124790823
  0
LINE
  5
2F6
100
AcDbEntity
  8
DTM_AXIS
100
AcDbLine
 62
7
  6
CONTINUOUS
 10
227.963902438
 20
95.7353765708
 11
227.92416779
 21
95.7740998213
  0
LINE
  5
2F7
100
AcDbEntity
  8
DTM_AXIS
100
AcDbLine
 62
7
  6
CONTINUOUS
 10
228.0035230348
 20
95.696306382
 11
227.963902438
 21
95.7353765708
  0
LINE
  5
2F8
100
AcDbEntity
  8
DTM_AXIS
100
AcDbLine
 62
7
  6
CONTINUOUS
 10
228.0430336052
 20
95.6568846182
 11
228.0035230348
 21
95.696306382
  0
LINE
  5
2F9
100
AcDbEntity
  8
DTM_AXIS
100
AcDbLine
 62
7
  6
CONTINUOUS
 10
228.0824401838
 20
95.617104824
 11
228.0430336052
 21
95.6568846182
  0
LINE
  5
2FA
100
AcDbEntity
  8
DTM_AXIS
100
AcDbLine
 62
7
  6
CONTINUOUS
 10
228.1217508695
 20
95.576958582
 11
228.0824401838
 21
95.617104824
  0
LINE
  5
2FB
100
AcDbEntity
  8
DTM_AXIS
100
AcDbLine
 62
7
  6
CONTINUOUS
 10
228.1609758884
 20
95.5364353597
 11
228.1217508695
 21
95.576958582
  0
LINE
  5
2FC
100
AcDbEntity
  8
DTM_AXIS
100
AcDbLine
 62
7
  6
CONTINUOUS
 10
228.2001276592
 20
95.4955223508
 11
228.1609758884
 21
95.5364353597
  0
LINE
  5
2FD
100
AcDbEntity
  8
DTM_AXIS
100
AcDbLine
 62
7
  6
CONTINUOUS
 10
228.2392208566
 20
95.4542043192
 11
228.2001276592
 21
95.4955223508
  0
LINE
  5
2FE
100
AcDbEntity
  8
DTM_AXIS
100
AcDbLine
 62
7
  6
CONTINUOUS
 10
228.2782724633
 20
95.4124634556
 11
228.2392208566
 21
95.4542043192
  0
LINE
  5
2FF
100
AcDbEntity
  8
DTM_AXIS
100
AcDbLine
 62
7
  6
CONTINUOUS
 10
228.3173017969
 20
95.370279267
 11
228.2782724633
 21
95.4124634556
  0
LINE
  5
300
100
AcDbEntity
  8
DTM_AXIS
100
AcDbLine
 62
7
  6
CONTINUOUS
 10
228.3563304902
 20
95.3276285238
 11
228.3173017969
 21
95.370279267
  0
LINE
  5
301
100
AcDbEntity
  8
DTM_AXIS
100
AcDbLine
 62
7
  6
CONTINUOUS
 10
228.3953823964
 20
95.2844853071
 11
228.3563304902
 21
95.3276285238
  0
LINE
  5
302
100
AcDbEntity
  8
DTM_AXIS
100
AcDbLine
 62
7
  6
CONTINUOUS
 10
228.4344833706
 20
95.2408212182
 11
228.3953823964
 21
95.2844853071
  0
LINE
  5
303
100
AcDbEntity
  8
DTM_AXIS
100
AcDbLine
 62
7
  6
CONTINUOUS
 10
228.4736608599
 20
95.1966058423
 11
228.4344833706
 21
95.2408212182
  0
LINE
  5
304
100
AcDbEntity
  8
DTM_AXIS
100
AcDbLine
 62
7
  6
CONTINUOUS
 10
228.5128942697
 20
95.1518636944
 11
228.4736608599
 21
95.1966058423
  0
LINE
  5
305
100
AcDbEntity
  8
DTM_AXIS
100
AcDbLine
 62
7
  6
CONTINUOUS
 10
228.5521378284
 20
95.1066507205
 11
228.5128942697
 21
95.1518636944
  0
LINE
  5
306
100
AcDbEntity
  8
DTM_AXIS
100
AcDbLine
 62
7
  6
CONTINUOUS
 10
228.5914926853
 20
95.0608546356
 11
228.5521378284
 21
95.1066507205
  0
LINE
  5
307
100
AcDbEntity
  8
DTM_AXIS
100
AcDbLine
 62
7
  6
CONTINUOUS
 10
228.6310390047
 20
95.0143849824
 11
228.5914926853
 21
95.0608546356
  0
LINE
  5
308
100
AcDbEntity
  8
DTM_AXIS
100
AcDbLine
 62
7
  6
CONTINUOUS
 10
228.6708187379
 20
94.9671952666
 11
228.6310390047
 21
95.0143849824
  0
LINE
  5
309
100
AcDbEntity
  8
DTM_AXIS
100
AcDbLine
 62
7
  6
CONTINUOUS
 10
228.7108223173
 20
94.9193015426
 11
228.6708187379
 21
94.9671952666
  0
LINE
  5
30A
100
AcDbEntity
  8
DTM_AXIS
100
AcDbLine
 62
7
  6
CONTINUOUS
 10
228.7637322286
 20
94.855301022
 11
228.7108223173
 21
94.9193015426
  0
LINE
  5
30B
100
AcDbEntity
  8
DTM_AXIS
100
AcDbLine
 62
7
  6
CONTINUOUS
 10
228.8147804908
 20
94.7928262828
 11
228.7637322286
 21
94.855301022
  0
LINE
  5
30C
100
AcDbEntity
  8
DTM_AXIS
100
AcDbLine
 62
7
  6
CONTINUOUS
 10
228.8639712528
 20
94.7319083949
 11
228.8147804908
 21
94.7928262828
  0
LINE
  5
30D
100
AcDbEntity
  8
DTM_AXIS
100
AcDbLine
 62
7
  6
CONTINUOUS
 10
228.8997008497
 20
94.6871960356
 11
228.8639712528
 21
94.7319083949
  0
LINE
  5
30E
100
AcDbEntity
  8
DTM_AXIS
100
AcDbLine
 62
7
  6
CONTINUOUS
 10
228.9344755207
 20
94.6432854307
 11
228.8997008497
 21
94.6871960356
  0
LINE
  5
30F
100
AcDbEntity
  8
DTM_AXIS
100
AcDbLine
 62
7
  6
CONTINUOUS
 10
228.9683325177
 20
94.600145778
 11
228.9344755207
 21
94.6432854307
  0
LINE
  5
310
100
AcDbEntity
  8
DTM_AXIS
100
AcDbLine
 62
7
  6
CONTINUOUS
 10
229.001306277
 20
94.5577493518
 11
228.9683325177
 21
94.600145778
  0
LINE
  5
311
100
AcDbEntity
  8
DTM_AXIS
100
AcDbLine
 62
7
  6
CONTINUOUS
 10
229.0334286331
 20
94.5160712815
 11
229.001306277
 21
94.5577493518
  0
LINE
  5
312
100
AcDbEntity
  8
DTM_AXIS
100
AcDbLine
 62
7
  6
CONTINUOUS
 10
229.0647290705
 20
94.4750892797
 11
229.0334286331
 21
94.5160712815
  0
LINE
  5
313
100
AcDbEntity
  8
DTM_AXIS
100
AcDbLine
 62
7
  6
CONTINUOUS
 10
229.0952349544
 20
94.4347833902
 11
229.0647290705
 21
94.4750892797
  0
LINE
  5
314
100
AcDbEntity
  8
DTM_AXIS
100
AcDbLine
 62
7
  6
CONTINUOUS
 10
229.1347173605
 20
94.3820631876
 11
229.0952349544
 21
94.4347833902
  0
LINE
  5
315
100
AcDbEntity
  8
DTM_AXIS
100
AcDbLine
 62
7
  6
CONTINUOUS
 10
229.1728876298
 20
94.3304766753
 11
229.1347173605
 21
94.3820631876
  0
LINE
  5
316
100
AcDbEntity
  8
DTM_AXIS
100
AcDbLine
 62
7
  6
CONTINUOUS
 10
229.2097972876
 20
94.2799910446
 11
229.1728876298
 21
94.3304766753
  0
LINE
  5
317
100
AcDbEntity
  8
DTM_AXIS
100
AcDbLine
 62
7
  6
CONTINUOUS
 10
229.245495652
 20
94.2305752668
 11
229.2097972876
 21
94.2799910446
  0
LINE
  5
318
100
AcDbEntity
  8
DTM_AXIS
100
AcDbLine
 62
7
  6
CONTINUOUS
 10
229.2800492052
 20
94.1821727697
 11
229.245495652
 21
94.2305752668
  0
LINE
  5
319
100
AcDbEntity
  8
DTM_AXIS
100
AcDbLine
 62
7
  6
CONTINUOUS
 10
229.3135303666
 20
94.1347158258
 11
229.2800492052
 21
94.1821727697
  0
LINE
  5
31A
100
AcDbEntity
  8
DTM_AXIS
100
AcDbLine
 62
7
  6
CONTINUOUS
 10
229.3460044002
 20
94.0881437589
 11
229.3135303666
 21
94.1347158258
  0
LINE
  5
31B
100
AcDbEntity
  8
DTM_AXIS
100
AcDbLine
 62
7
  6
CONTINUOUS
 10
229.3775325135
 20
94.0423988555
 11
229.3460044002
 21
94.0881437589
  0
LINE
  5
31C
100
AcDbEntity
  8
DTM_AXIS
100
AcDbLine
 62
7
  6
CONTINUOUS
 10
229.4081740533
 20
93.9974233187
 11
229.3775325135
 21
94.0423988555
  0
LINE
  5
31D
100
AcDbEntity
  8
DTM_AXIS
100
AcDbLine
 62
7
  6
CONTINUOUS
 10
229.4379829237
 20
93.9531646456
 11
229.4081740533
 21
93.9974233187
  0
LINE
  5
31E
100
AcDbEntity
  8
DTM_AXIS
100
AcDbLine
 62
7
  6
CONTINUOUS
 10
229.4670068362
 20
93.9095771055
 11
229.4379829237
 21
93.9531646456
  0
LINE
  5
31F
100
AcDbEntity
  8
DTM_AXIS
100
AcDbLine
 62
7
  6
CONTINUOUS
 10
229.495290769
 20
93.8666168844
 11
229.4670068362
 21
93.9095771055
  0
LINE
  5
320
100
AcDbEntity
  8
DTM_AXIS
100
AcDbLine
 62
7
  6
CONTINUOUS
 10
229.5228761428
 20
93.8242435006
 11
229.495290769
 21
93.8666168844
  0
LINE
  5
321
100
AcDbEntity
  8
DTM_AXIS
100
AcDbLine
 62
7
  6
CONTINUOUS
 10
229.5498024098
 20
93.7824175486
 11
229.5228761428
 21
93.8242435006
  0
LINE
  5
322
100
AcDbEntity
  8
DTM_AXIS
100
AcDbLine
 62
7
  6
CONTINUOUS
 10
229.5761084242
 20
93.7410986312
 11
229.5498024098
 21
93.7824175486
  0
LINE
  5
323
100
AcDbEntity
  8
DTM_AXIS
100
AcDbLine
 62
7
  6
CONTINUOUS
 10
229.6018301911
 20
93.7002489386
 11
229.5761084242
 21
93.7410986312
  0
LINE
  5
324
100
AcDbEntity
  8
DTM_AXIS
100
AcDbLine
 62
7
  6
CONTINUOUS
 10
229.6270022456
 20
93.6598312081
 11
229.6018301911
 21
93.7002489386
  0
LINE
  5
325
100
AcDbEntity
  8
DTM_AXIS
100
AcDbLine
 62
7
  6
CONTINUOUS
 10
229.6516588808
 20
93.6198067916
 11
229.6270022456
 21
93.6598312081
  0
LINE
  5
326
100
AcDbEntity
  8
DTM_AXIS
100
AcDbLine
 62
7
  6
CONTINUOUS
 10
229.6758320657
 20
93.5801390571
 11
229.6516588808
 21
93.6198067916
  0
LINE
  5
327
100
AcDbEntity
  8
DTM_AXIS
100
AcDbLine
 62
7
  6
CONTINUOUS
 10
229.6995531237
 20
93.540790746
 11
229.6758320657
 21
93.5801390571
  0
LINE
  5
328
100
AcDbEntity
  8
DTM_AXIS
100
AcDbLine
 62
7
  6
CONTINUOUS
 10
229.7112497004
 20
93.5212312964
 11
229.6995531237
 21
93.540790746
  0
LINE
  5
329
100
AcDbEntity
  8
DTM_AXIS
100
AcDbLine
 62
7
  6
CONTINUOUS
 10
229.7343062637
 20
93.4823649139
 11
229.7112497004
 21
93.5212312964
  0
LINE
  5
32A
100
AcDbEntity
  8
DTM_AXIS
100
AcDbLine
 62
7
  6
CONTINUOUS
 10
229.7568881489
 20
93.4438916281
 11
229.7343062637
 21
93.4823649139
  0
LINE
  5
32B
100
AcDbEntity
  8
DTM_AXIS
100
AcDbLine
 62
7
  6
CONTINUOUS
 10
229.778968548
 20
93.4058741399
 11
229.7568881489
 21
93.4438916281
  0
LINE
  5
32C
100
AcDbEntity
  8
DTM_AXIS
100
AcDbLine
 62
7
  6
CONTINUOUS
 10
229.800520982
 20
93.3683769762
 11
229.778968548
 21
93.4058741399
  0
LINE
  5
32D
100
AcDbEntity
  8
DTM_AXIS
100
AcDbLine
 62
7
  6
CONTINUOUS
 10
229.8215175242
 20
93.3314695607
 11
229.800520982
 21
93.3683769762
  0
LINE
  5
32E
100
AcDbEntity
  8
DTM_AXIS
100
AcDbLine
 62
7
  6
CONTINUOUS
 10
229.8469420907
 20
93.28626859
 11
229.8215175242
 21
93.3314695607
  0
LINE
  5
32F
100
AcDbEntity
  8
DTM_AXIS
100
AcDbLine
 62
7
  6
CONTINUOUS
 10
229.8714090692
 20
93.2422299848
 11
229.8469420907
 21
93.28626859
  0
LINE
  5
330
100
AcDbEntity
  8
DTM_AXIS
100
AcDbLine
 62
7
  6
CONTINUOUS
 10
229.8949342866
 20
93.1993747461
 11
229.8714090692
 21
93.2422299848
  0
LINE
  5
331
100
AcDbEntity
  8
DTM_AXIS
100
AcDbLine
 62
7
  6
CONTINUOUS
 10
233.3466151423
 20
92.5054252257
 11
233.3463909396
 21
92.5058402568
  0
LINE
  5
332
100
AcDbEntity
  8
DTM_AXIS
100
AcDbLine
 62
7
  6
CONTINUOUS
 10
229.917587431
 20
93.1576229657
 11
229.8949342866
 21
93.1993747461
  0
LINE
  5
333
100
AcDbEntity
  8
DTM_AXIS
100
AcDbLine
 62
7
  6
CONTINUOUS
 10
229.9394382441
 20
93.1168889299
 11
229.917587431
 21
93.1576229657
  0
LINE
  5
334
100
AcDbEntity
  8
DTM_AXIS
100
AcDbLine
 62
7
  6
CONTINUOUS
 10
229.9605517192
 20
93.0770902758
 11
229.9394382441
 21
93.1168889299
  0
LINE
  5
335
100
AcDbEntity
  8
DTM_AXIS
100
AcDbLine
 62
7
  6
CONTINUOUS
 10
229.9809877504
 20
93.0381492208
 11
229.9605517192
 21
93.0770902758
  0
LINE
  5
336
100
AcDbEntity
  8
DTM_AXIS
100
AcDbLine
 62
7
  6
CONTINUOUS
 10
230.0046971317
 20
92.9924431922
 11
229.9809877504
 21
93.0381492208
  0
LINE
  5
337
100
AcDbEntity
  8
DTM_AXIS
100
AcDbLine
 62
7
  6
CONTINUOUS
 10
230.0276093726
 20
92.9477242037
 11
230.0046971317
 21
92.9924431922
  0
LINE
  5
338
100
AcDbEntity
  8
DTM_AXIS
100
AcDbLine
 62
7
  6
CONTINUOUS
 10
230.0498185069
 20
92.903850993
 11
230.0276093726
 21
92.9477242037
  0
LINE
  5
339
100
AcDbEntity
  8
DTM_AXIS
100
AcDbLine
 62
7
  6
CONTINUOUS
 10
230.0714159958
 20
92.8606789851
 11
230.0498185069
 21
92.903850993
  0
LINE
  5
33A
100
AcDbEntity
  8
DTM_AXIS
100
AcDbLine
 62
7
  6
CONTINUOUS
 10
230.0924623382
 20
92.8181184362
 11
230.0714159958
 21
92.8606789851
  0
LINE
  5
33B
100
AcDbEntity
  8
DTM_AXIS
100
AcDbLine
 62
7
  6
CONTINUOUS
 10
230.1129787412
 20
92.7761552168
 11
230.0924623382
 21
92.8181184362
  0
LINE
  5
33C
100
AcDbEntity
  8
DTM_AXIS
100
AcDbLine
 62
7
  6
CONTINUOUS
 10
230.1362684032
 20
92.7279417275
 11
230.1129787412
 21
92.7761552168
  0
LINE
  5
33D
100
AcDbEntity
  8
DTM_AXIS
100
AcDbLine
 62
7
  6
CONTINUOUS
 10
230.1588883966
 20
92.6805153561
 11
230.1362684032
 21
92.7279417275
  0
LINE
  5
33E
100
AcDbEntity
  8
DTM_AXIS
100
AcDbLine
 62
7
  6
CONTINUOUS
 10
230.1808655094
 20
92.6338609155
 11
230.1588883966
 21
92.6805153561
  0
LINE
  5
33F
100
AcDbEntity
  8
DTM_AXIS
100
AcDbLine
 62
7
  6
CONTINUOUS
 10
230.2022254942
 20
92.5879630788
 11
230.1808655094
 21
92.6338609155
  0
LINE
  5
340
100
AcDbEntity
  8
DTM_AXIS
100
AcDbLine
 62
7
  6
CONTINUOUS
 10
230.2229893334
 20
92.5428146351
 11
230.2022254942
 21
92.5879630788
  0
LINE
  5
341
100
AcDbEntity
  8
DTM_AXIS
100
AcDbLine
 62
7
  6
CONTINUOUS
 10
230.2460132597
 20
92.4921292051
 11
230.2229893334
 21
92.5428146351
  0
LINE
  5
342
100
AcDbEntity
  8
DTM_AXIS
100
AcDbLine
 62
7
  6
CONTINUOUS
 10
230.2683099241
 20
92.4424106832
 11
230.2460132597
 21
92.4921292051
  0
LINE
  5
343
100
AcDbEntity
  8
DTM_AXIS
100
AcDbLine
 62
7
  6
CONTINUOUS
 10
230.447363505
 20
92.0216269678
 11
230.4470184491
 21
92.0224076298
  0
LINE
  5
344
100
AcDbEntity
  8
DTM_AXIS
100
AcDbLine
 62
7
  6
CONTINUOUS
 10
230.2899058898
 20
92.3936505293
 11
230.2683099241
 21
92.4424106832
  0
LINE
  5
345
100
AcDbEntity
  8
DTM_AXIS
100
AcDbLine
 62
7
  6
CONTINUOUS
 10
230.3108269456
 20
92.3458391123
 11
230.2899058898
 21
92.3936505293
  0
LINE
  5
346
100
AcDbEntity
  8
DTM_AXIS
100
AcDbLine
 62
7
  6
CONTINUOUS
 10
230.4470184491
 20
92.0224076298
 11
230.4461149395
 21
92.0244751716
  0
LINE
  5
347
100
AcDbEntity
  8
DTM_AXIS
100
AcDbLine
 62
7
  6
CONTINUOUS
 10
230.3335444116
 20
92.2932723926
 11
230.3108269456
 21
92.3458391123
  0
LINE
  5
348
100
AcDbEntity
  8
DTM_AXIS
100
AcDbLine
 62
7
  6
CONTINUOUS
 10
230.4461149395
 20
92.0244751716
 11
230.4442109886
 21
92.0288885558
  0
LINE
  5
349
100
AcDbEntity
  8
DTM_AXIS
100
AcDbLine
 62
7
  6
CONTINUOUS
 10
230.3552832617
 20
92.2423280661
 11
230.3335444116
 21
92.2932723926
  0
LINE
  5
34A
100
AcDbEntity
  8
DTM_AXIS
100
AcDbLine
 62
7
  6
CONTINUOUS
 10
230.4442109886
 20
92.0288885558
 11
230.4411226842
 21
92.0361432319
  0
LINE
  5
34B
100
AcDbEntity
  8
DTM_AXIS
100
AcDbLine
 62
7
  6
CONTINUOUS
 10
230.3781370346
 20
92.1880850317
 11
230.3552832617
 21
92.2423280661
  0
LINE
  5
34C
100
AcDbEntity
  8
DTM_AXIS
100
AcDbLine
 62
7
  6
CONTINUOUS
 10
230.4411226842
 20
92.0361432319
 11
230.4355996345
 21
92.0492930788
  0
LINE
  5
34D
100
AcDbEntity
  8
DTM_AXIS
100
AcDbLine
 62
7
  6
CONTINUOUS
 10
230.4011804798
 20
92.1326712192
 11
230.3781370346
 21
92.1880850317
  0
LINE
  5
34E
100
AcDbEntity
  8
DTM_AXIS
100
AcDbLine
 62
7
  6
CONTINUOUS
 10
230.4355996345
 20
92.0492930788
 11
230.4212010845
 21
92.0840739746
  0
LINE
  5
34F
100
AcDbEntity
  8
DTM_AXIS
100
AcDbLine
 62
7
  6
CONTINUOUS
 10
230.4212010845
 20
92.0840739746
 11
230.4011804798
 21
92.1326712192
  0
LINE
  5
350
100
AcDbEntity
  8
DTM_AXIS
100
AcDbLine
 62
7
  6
CONTINUOUS
 10
257.7793809047
 20
92.1442645856
 11
257.8052669727
 21
91.3638265042
  0
LINE
  5
351
100
AcDbEntity
  8
DTM_AXIS
100
AcDbLine
 62
7
  6
CONTINUOUS
 10
264.2370639003
 20
92.1937706897
 11
264.2629499683
 21
91.4133326083
  0
LINE
  5
352
100
AcDbEntity
  8
DTM_AXIS
100
AcDbLine
 62
7
  6
CONTINUOUS
 10
268.2205551357
 20
90.3519238649
 11
268.585998585
 21
88.4052988041
  0
LINE
  5
353
100
AcDbEntity
  8
DTM_AXIS
100
AcDbLine
 62
7
  6
CONTINUOUS
 10
51.4394492586
 20
158.3342610579
 11
51.418455346
 21
157.5325358833
  0
LINE
  5
354
100
AcDbEntity
  8
DTM_AXIS
100
AcDbLine
 62
7
  6
CONTINUOUS
 10
47.408455346
 20
155.8282858833
 11
47.0549197497
 21
153.8232858833
  0
LINE
  5
355
100
AcDbEntity
  8
0
100
AcDbLine
 62
7
  6
CONTINUOUS
 10
189.4099140284
 20
153.8232858833
 11
47.054925471
 21
153.8232858833
  0
LINE
  5
356
100
AcDbEntity
  8
DTM_AXIS
100
AcDbLine
 62
7
  6
CONTINUOUS
 10
47.408455346
 20
155.8282858833
 11
189.0563841534
 21
155.8282858833
  0
LINE
  5
357
100
AcDbEntity
  8
DTM_AXIS
100
AcDbLine
 62
7
  6
CONTINUOUS
 10
50.816955238
 20
157.5325358833
 11
185.6478842615
 21
157.5325358833
  0
LINE
  5
358
100
AcDbEntity
  8
DTM_AXIS
100
AcDbLine
 62
7
  6
CONTINUOUS
 10
51.4394492586
 20
158.3342610579
 11
185.0253902409
 21
158.3342610579
  0
LINE
  5
359
100
AcDbEntity
  8
DTM_AXIS
100
AcDbLine
 62
7
  6
CONTINUOUS
 10
162.1960297739
 20
160.3795345273
 11
74.2688097255
 21
160.3795345273
  0
LINE
  5
35A
100
AcDbEntity
  8
DTM_AXIS
100
AcDbLine
 62
7
  6
CONTINUOUS
 10
147.4372682236
 20
161.7042968057
 11
89.0275712759
 21
161.7042968057
  0
LINE
  5
35B
100
AcDbEntity
  8
DTM_AXIS
100
AcDbLine
 62
7
  6
CONTINUOUS
 10
185.0253902409
 20
158.3342610579
 11
185.0463841534
 21
157.5325358833
  0
LINE
  5
35C
100
AcDbEntity
  8
DTM_AXIS
100
AcDbLine
 62
7
  6
CONTINUOUS
 10
189.0563841534
 20
155.8282858833
 11
189.4099197497
 21
153.8232858833
  0
ARC
  5
35D
100
AcDbEntity
  8
DTM_AXIS
100
AcDbCircle
 62
7
  6
CONTINUOUS
 10
225.2871535276
 20
98.760366936
 40
12.0395792825
100
AcDbArc
 50
300.3931155133
 51
300.6697690445
  0
ARC
  5
35E
100
AcDbEntity
  8
DTM_AXIS
100
AcDbCircle
 62
7
  6
CONTINUOUS
 10
169.5155440477
 20
98.4016347864
 40
12.029022446
100
AcDbArc
 50
240.0257744007
 51
240.3248740468
  0
ARC
  5
35F
100
AcDbEntity
  8
DTM_AXIS
100
AcDbCircle
 62
7
  6
CONTINUOUS
 10
141.444876619
 20
90.840467871
 40
3.1123891514
100
AcDbArc
 50
172.9215077394
 51
177.3362075948
  0
ARC
  5
360
100
AcDbEntity
  8
DTM_AXIS
100
AcDbCircle
 62
7
  6
CONTINUOUS
 10
253.4557983577
 20
91.5426060618
 40
3.1123520566
100
AcDbArc
 50
3.3811427518
 51
7.7927593393
  0
ARC
  5
361
100
AcDbEntity
  8
DTM_AXIS
100
AcDbCircle
 62
7
  6
CONTINUOUS
 10
179.2359821194
 20
91.3762571896
 40
1.0353896302
100
AcDbArc
 50
188.4866816606
 51
190.0036601851
  0
ARC
  5
362
100
AcDbEntity
  8
DTM_AXIS
100
AcDbCircle
 62
7
  6
CONTINUOUS
 10
215.6697210174
 20
91.6033168478
 40
1.0264871426
100
AcDbArc
 50
351.1671330249
 51
354.2841313783
  0
ARC
  5
363
100
AcDbEntity
  8
DTM_AXIS
100
AcDbCircle
 62
7
  6
CONTINUOUS
 10
179.2248848186
 20
91.3745967609
 40
1.0241687974
100
AcDbArc
 50
186.9255886252
 51
188.4864291825
  0
SPLINE
  5
364
100
AcDbEntity
  8
DTM_AXIS
100
AcDbSpline
 62
7
  6
CONTINUOUS
 70
0
 71
3
 72
9
 73
5
 74
0
 42
0.0000001
 43
0.0000001
 44
0.0000000001
 40
0.0
 40
0.0
 40
0.0
 40
0.0
 40
0.5313684763
 40
1.0
 40
1.0
 40
1.0
 40
1.0
 10
171.6106089794
 20
91.9124472016
 30
0.0
 10
171.493588958
 20
92.0451160665
 30
0.0
 10
171.2938144612
 20
92.3148976108
 30
0.0
 10
171.1674920766
 20
92.6285770016
 30
0.0
 10
171.1333048396
 20
92.7808020197
 30
0.0
  0
SPLINE
  5
365
100
AcDbEntity
  8
DTM_AXIS
100
AcDbSpline
 62
7
  6
CONTINUOUS
 70
0
 71
3
 72
9
 73
5
 74
0
 42
0.0000001
 43
0.0000001
 44
0.0000000001
 40
0.0
 40
0.0
 40
0.0
 40
0.0
 40
0.5313639817
 40
1.0
 40
1.0
 40
1.0
 40
1.0
 10
223.2790287813
 20
92.2364067401
 30
0.0
 10
223.394354909
 20
92.3705165712
 30
0.0
 10
223.5906960579
 20
92.6427493864
 30
0.0
 10
223.7130586537
 20
92.9579430699
 30
0.0
 10
223.7453343062
 20
93.1105643876
 30
0.0
  0
SPLINE
  5
366
100
AcDbEntity
  8
DTM_AXIS
100
AcDbSpline
 62
7
  6
CONTINUOUS
 70
0
 71
3
 72
9
 73
5
 74
0
 42
0.0000001
 43
0.0000001
 44
0.0000000001
 40
0.0
 40
0.0
 40
0.0
 40
0.0
 40
0.5260456279
 40
1.0
 40
1.0
 40
1.0
 40
1.0
 10
143.1926717637
 20
85.9986795234
 30
0.0
 10
142.8283255699
 20
86.2073706169
 30
0.0
 10
142.1482171637
 20
86.626621976
 30
0.0
 10
141.5047498233
 20
87.1012108276
 30
0.0
 10
141.2129314115
 20
87.3419491425
 30
0.0
  0
SPLINE
  5
367
100
AcDbEntity
  8
DTM_AXIS
100
AcDbSpline
 62
7
  6
CONTINUOUS
 70
0
 71
3
 72
9
 73
5
 74
0
 42
0.0000001
 43
0.0000001
 44
0.0000000001
 40
0.0
 40
0.0
 40
0.0
 40
0.0
 40
0.5260472556
 40
1.0
 40
1.0
 40
1.0
 40
1.0
 10
251.7684790585
 20
86.6790930975
 30
0.0
 10
252.1302209108
 20
86.8923498156
 30
0.0
 10
252.8050939192
 20
87.3201232477
 30
0.0
 10
253.4426311566
 20
87.8027783195
 30
0.0
 10
253.7314391808
 20
88.0471750756
 30
0.0
  0
SPLINE
  5
368
100
AcDbEntity
  8
DTM_AXIS
100
AcDbSpline
 62
7
  6
CONTINUOUS
 70
0
 71
3
 72
27
 73
23
 74
0
 42
0.0000001
 43
0.0000001
 44
0.0000000001
 40
0.0
 40
0.0
 40
0.0
 40
0.0
 40
0.1858403954
 40
0.2759886167
 40
0.363292747
 40
0.447043732
 40
0.5265707728
 40
0.6012503225
 40
0.6705161539
 40
0.7338714392
 40
0.7909046438
 40
0.8413128318
 40
0.8639824098
 40
0.884953334
 40
0.9042408101
 40
0.9218811969
 40
0.937938617
 40
0.9525141233
 40
0.9657577589
 40
0.9778825283
 40
0.9891759726
 40
1.0
 40
1.0
 40
1.0
 40
1.0
 10
193.4904801056
 20
78.2079016206
 30
0.0
 10
189.8550775911
 20
78.24188116
 30
0.0
 10
184.4561395839
 20
78.4054638872
 30
0.0
 10
177.3633578372
 20
78.8624539151
 30
0.0
 10
172.2728104696
 20
79.3127589829
 30
0.0
 10
167.4018994615
 20
79.8698958382
 30
0.0
 10
162.7929721434
 20
80.5289001217
 30
0.0
 10
158.4860577067
 20
81.2838149478
 30
0.0
 10
154.5184474799
 20
82.1278181737
 30
0.0
 10
150.9241057884
 20
83.0532097081
 30
0.0
 10
147.7338336659
 20
84.0516838784
 30
0.0
 10
145.3557422756
 20
84.9665963917
 30
0.0
 10
143.6847719924
 20
85.7380684827
 30
0.0
 10
142.5934389383
 20
86.308961083
 30
0.0
 10
141.6212233903
 20
86.8915467745
 30
0.0
 10
140.770044439
 20
87.4847839992
 30
0.0
 10
140.0415256663
 20
88.0877052979
 30
0.0
 10
139.4370930869
 20
88.6995918602
 30
0.0
 10
138.9581761015
 20
89.3199686423
 30
0.0
 10
138.6065798657
 20
89.9486836922
 30
0.0
 10
138.3848679247
 20
90.5847188566
 30
0.0
 10
138.3250741611
 20
91.016814662
 30
0.0
 10
138.3180546289
 20
91.2284467279
 30
0.0
  0
SPLINE
  5
369
100
AcDbEntity
  8
DTM_AXIS
100
AcDbSpline
 62
7
  6
CONTINUOUS
 70
0
 71
3
 72
27
 73
23
 74
0
 42
0.0000001
 43
0.0000001
 44
0.0000000001
 40
0.0
 40
0.0
 40
0.0
 40
0.0
 40
0.1803716023
 40
0.2692345513
 40
0.3560421936
 40
0.4399462833
 40
0.5201347815
 40
0.5958433133
 40
0.6663674792
 40
0.7310768704
 40
0.7894324828
 40
0.8410110108
 40
0.864172857
 40
0.8855563109
 40
0.9051638149
 40
0.9230197708
 40
0.939177677
 40
0.9537304674
 40
0.9668249528
 40
0.9786800411
 40
0.9896042463
 40
1.0
 40
1.0
 40
1.0
 40
1.0
 10
193.4904801056
 20
78.2079016206
 30
0.0
 10
197.5047494422
 20
78.1703808722
 30
0.0
 10
203.4992950444
 20
78.252896161
 30
0.0
 10
211.4145287923
 20
78.6417086431
 30
0.0
 10
217.1767893273
 20
79.0663054157
 30
0.0
 10
222.7340393753
 20
79.6205893578
 30
0.0
 10
228.0286965463
 20
80.2986937716
 30
0.0
 10
233.0059192895
 20
81.0933288051
 30
0.0
 10
237.6142814788
 20
81.9959520327
 30
0.0
 10
241.8065919199
 20
82.9967471032
 30
0.0
 10
245.5398905941
 20
84.0849874294
 30
0.0
 10
248.3304035048
 20
85.0874799178
 30
0.0
 10
250.2951425859
 20
85.935744912
 30
0.0
 10
251.578145097
 20
86.563742958
 30
0.0
 10
252.7211295027
 20
87.2049083499
 30
0.0
 10
253.7214005637
 20
87.8578115203
 30
0.0
 10
254.5767078179
 20
88.521113351
 30
0.0
 10
255.2851507258
 20
89.1938078331
 30
0.0
 10
255.8449329644
 20
89.875283968
 30
0.0
 10
256.2537991305
 20
90.5655451367
 30
0.0
 10
256.5082769649
 20
91.2636643694
 30
0.0
 10
256.5727031418
 20
91.738423639
 30
0.0
 10
256.5774737783
 20
91.96974778
 30
0.0
  0
SPLINE
  5
36A
100
AcDbEntity
  8
DTM_AXIS
100
AcDbSpline
 62
7
  6
CONTINUOUS
 70
0
 71
3
 72
27
 73
23
 74
0
 42
0.0000001
 43
0.0000001
 44
0.0000000001
 40
0.0
 40
0.0
 40
0.0
 40
0.0
 40
0.1858403861
 40
0.2759886034
 40
0.36329273
 40
0.4470437122
 40
0.5265707509
 40
0.6012502994
 40
0.6705161305
 40
0.7338714167
 40
0.7909046233
 40
0.841312814
 40
0.8639823939
 40
0.8849533201
 40
0.9042407984
 40
0.9218811875
 40
0.9379386099
 40
0.9525141185
 40
0.9657577561
 40
0.9778825272
 40
0.9891759725
 40
1.0
 40
1.0
 40
1.0
 40
1.0
 10
193.058349372
 20
76.7363813282
 30
0.0
 10
189.0259135445
 20
76.774071876
 30
0.0
 10
183.037341166
 20
76.9555199626
 30
0.0
 10
175.1699352269
 20
77.4624192154
 30
0.0
 10
169.5234337169
 20
77.9619034327
 30
0.0
 10
164.1205556841
 20
78.5798868509
 30
0.0
 10
159.0082733319
 20
79.3108629378
 30
0.0
 10
154.2309875567
 20
80.1482242475
 30
0.0
 10
149.8300623814
 20
81.0844035636
 30
0.0
 10
145.8431714736
 20
82.1108598592
 30
0.0
 10
142.3044797351
 20
83.2183803479
 30
0.0
 10
139.6666694673
 20
84.23321319
 30
0.0
 10
137.8132071654
 20
85.0889400283
 30
0.0
 10
136.6026860893
 20
85.7221815163
 30
0.0
 10
135.5242916901
 20
86.3683931331
 30
0.0
 10
134.5801526408
 20
87.0264195641
 30
0.0
 10
133.7720698494
 20
87.6951877039
 30
0.0
 10
133.1016250627
 20
88.373900226
 30
0.0
 10
132.5704038006
 20
89.0620302144
 30
0.0
 10
132.1804083493
 20
89.7594091176
 30
0.0
 10
131.9344822471
 20
90.4649075839
 30
0.0
 10
131.8681579187
 20
90.9441938929
 30
0.0
 10
131.8603716878
 20
91.1789389486
 30
0.0
  0
SPLINE
  5
36B
100
AcDbEntity
  8
DTM_AXIS
100
AcDbSpline
 62
7
  6
CONTINUOUS
 70
0
 71
3
 72
28
 73
24
 74
0
 42
0.0000001
 43
0.0000001
 44
0.0000000001
 40
0.0
 40
0.0
 40
0.0
 40
0.0
 40
0.1803701278
 40
0.2692323501
 40
0.3560392821
 40
0.4399426847
 40
0.5201305255
 40
0.5958384359
 40
0.666362022
 40
0.73107088
 40
0.7894260103
 40
0.8160869232
 40
0.8410123398
 40
0.8641739934
 40
0.8855572691
 40
0.9051646093
 40
0.9230204156
 40
0.9391781862
 40
0.9537308541
 40
0.9668252294
 40
0.9786802179
 40
0.9896043321
 40
1.0
 40
1.0
 40
1.0
 40
1.0
 10
193.058349372
 20
76.7363813282
 30
0.0
 10
197.5110299156
 20
76.6947628187
 30
0.0
 10
204.1602590966
 20
76.7862898519
 30
0.0
 10
212.9399406652
 20
77.217565902
 30
0.0
 10
219.3315165692
 20
77.6885340763
 30
0.0
 10
225.4956898014
 20
78.3033539581
 30
0.0
 10
231.3685995227
 20
79.0555137278
 30
0.0
 10
236.8893791754
 20
79.9369425464
 30
0.0
 10
242.0011065403
 20
80.9381137745
 30
0.0
 10
246.6510381377
 20
82.0483087101
 30
0.0
 10
250.2018795153
 20
83.0829035938
 30
0.0
 10
252.768870551
 20
83.9659806218
 30
0.0
 10
254.4918200239
 20
84.6280700215
 30
0.0
 10
256.0668209037
 20
85.3082369074
 30
0.0
 10
257.4899534602
 20
86.0047845942
 30
0.0
 10
258.7577642975
 20
86.7159822255
 30
0.0
 10
259.8672783538
 20
87.4401890919
 30
0.0
 10
260.8159959858
 20
88.1759327137
 30
0.0
 10
261.601809862
 20
88.9220942432
 30
0.0
 10
262.2227273372
 20
89.6779966025
 30
0.0
 10
262.6762466649
 20
90.4436434319
 30
0.0
 10
262.9585164233
 20
91.2180065226
 30
0.0
 10
263.0299784464
 20
91.744615751
 30
0.0
 10
263.0352699755
 20
92.001203526
 30
0.0
  0
SPLINE
  5
36C
100
AcDbEntity
  8
0
100
AcDbSpline
 62
7
  6
CONTINUOUS
 70
0
 71
3
 72
28
 73
24
 74
0
 42
0.0000001
 43
0.0000001
 44
0.0000000001
 40
0.0
 40
0.0
 40
0.0
 40
0.0
 40
0.1895544396
 40
0.2813504807
 40
0.3700796492
 40
0.4549759316
 40
0.5353174314
 40
0.6104369077
 40
0.6797337272
 40
0.7426885455
 40
0.7988832996
 40
0.824354708
 40
0.8480426478
 40
0.8699408823
 40
0.8900603763
 40
0.9084342096
 40
0.9251245924
 40
0.9402327539
 40
0.9539122532
 40
0.9663849378
 40
0.9779550532
 40
0.9890108056
 40
1.0
 40
1.0
 40
1.0
 40
1.0
 10
192.7119963187
 20
71.0710970474
 30
0.0
 10
188.1998468908
 20
71.1132714033
 30
0.0
 10
181.5024517378
 20
71.3204610819
 30
0.0
 10
172.7113597046
 20
71.9029043856
 30
0.0
 10
166.4183739308
 20
72.4768177058
 30
0.0
 10
160.4137350936
 20
73.186772082
 30
0.0
 10
154.7529642852
 20
74.0260146849
 30
0.0
 10
149.4883846853
 20
74.9864656958
 30
0.0
 10
144.6682716423
 20
76.0588063028
 30
0.0
 10
140.3368668931
 20
77.2327666225
 30
0.0
 10
137.0670958008
 20
78.3187749603
 30
0.0
 10
134.7342240734
 20
79.2410266177
 30
0.0
 10
133.1880443917
 20
79.9284380233
 30
0.0
 10
131.7906744672
 20
80.6327649621
 30
0.0
 10
130.5451408508
 20
81.3525245099
 30
0.0
 10
129.4540455349
 20
82.0862526494
 30
0.0
 10
128.5195973566
 20
82.8326695924
 30
0.0
 10
127.7437012936
 20
83.5907837559
 30
0.0
 10
127.1282238151
 20
84.3600327516
 30
0.0
 10
126.6755096685
 20
85.14012076
 30
0.0
 10
126.388994143
 20
85.9304742762
 30
0.0
 10
126.2727597555
 20
86.7279564572
 30
0.0
 10
126.3101215444
 20
87.2560584959
 30
0.0
 10
126.3551622452
 20
87.5137498291
 30
0.0
  0
SPLINE
  5
36D
100
AcDbEntity
  8
0
100
AcDbSpline
 62
7
  6
CONTINUOUS
 70
0
 71
3
 72
28
 73
24
 74
0
 42
0.0000001
 43
0.0000001
 44
0.0000000001
 40
0.0
 40
0.0
 40
0.0
 40
0.0
 40
0.0105221034
 40
0.0211561798
 40
0.032403628
 40
0.0446849658
 40
0.0583155966
 40
0.0735145539
 40
0.0904253581
 40
0.1091360319
 40
0.1296943372
 40
0.1521184243
 40
0.1764040659
 40
0.2025295994
 40
0.2601393083
 40
0.3245418323
 40
0.3951835192
 40
0.4714037911
 40
0.5524562943
 40
0.6375255285
 40
0.7257411298
 40
0.8161910699
 40
1.0
 40
1.0
 40
1.0
 40
1.0
 10
268.5860002556
 20
88.4052897877
 30
0.0
 10
268.6385101569
 20
88.1255809641
 30
0.0
 10
268.6812014955
 20
87.5489077195
 30
0.0
 10
268.5395624434
 20
86.676585579
 30
0.0
 10
268.1958779103
 20
85.8120044293
 30
0.0
 10
267.6561653706
 20
84.958621032
 30
0.0
 10
266.9248319815
 20
84.1165525126
 30
0.0
 10
266.0046753874
 20
83.2859913238
 30
0.0
 10
264.8980269631
 20
82.4677331673
 30
0.0
 10
263.6074539518
 20
81.6632010455
 30
0.0
 10
262.1360451961
 20
80.8741772077
 30
0.0
 10
260.4874768868
 20
80.1026465872
 30
0.0
 10
258.6660200643
 20
79.350597346
 30
0.0
 10
255.9226874969
 20
78.343625285
 30
0.0
 10
252.0907973898
 20
77.1632469153
 30
0.0
 10
247.0345083656
 20
75.896349583
 30
0.0
 10
241.4346073133
 20
74.751495056
 30
0.0
 10
235.3521731276
 20
73.7416866321
 30
0.0
 10
228.8535028008
 20
72.8785192066
 30
0.0
 10
222.009870605
 20
72.1718223047
 30
0.0
 10
214.8963209071
 20
71.6295377195
 30
0.0
 10
205.1043178421
 20
71.1316095809
 30
0.0
 10
197.6833234553
 20
71.0246308292
 30
0.0
 10
192.7119963187
 20
71.0710970474
 30
0.0
  0
SPLINE
  5
36E
100
AcDbEntity
  8
DTM_AXIS
100
AcDbSpline
 62
7
  6
CONTINUOUS
 70
0
 71
3
 72
15
 73
11
 74
0
 42
0.0000001
 43
0.0000001
 44
0.0000000001
 40
0.0
 40
0.0
 40
0.0
 40
0.0
 40
0.0872606433
 40
0.181342302
 40
0.2850811373
 40
0.4005148638
 40
0.529018822
 40
0.6714697618
 40
0.8283809824
 40
1.0
 40
1.0
 40
1.0
 40
1.0
 10
268.2205551461
 20
90.3519238087
 30
0.0
 10
268.1668468213
 20
90.6380144891
 30
0.0
 10
267.9865532148
 20
91.2210995723
 30
0.0
 10
267.5293734807
 20
92.0605247973
 30
0.0
 10
266.8837337996
 20
92.8871022242
 30
0.0
 10
266.0529262756
 20
93.7002021293
 30
0.0
 10
265.0392817763
 20
94.4995453486
 30
0.0
 10
263.8451326459
 20
95.2839639553
 30
0.0
 10
262.4732760278
 20
96.0519023525
 30
0.0
 10
261.4865705604
 20
96.5302575706
 30
0.0
 10
260.9656293934
 20
96.7676836637
 30
0.0
  0
SPLINE
  5
36F
100
AcDbEntity
  8
DTM_AXIS
100
AcDbSpline
 62
7
  6
CONTINUOUS
 70
0
 71
3
 72
9
 73
5
 74
0
 42
0.0000001
 43
0.0000001
 44
0.0000000001
 40
0.0
 40
0.0
 40
0.0
 40
0.0
 40
0.2330361946
 40
1.0
 40
1.0
 40
1.0
 40
1.0
 10
264.4527905873
 20
92.9990562861
 30
0.0
 10
264.3903553824
 20
93.1265968641
 30
0.0
 10
264.0976067486
 20
93.661769744
 30
0.0
 10
263.7152321012
 20
94.1445922185
 30
0.0
 10
263.3957318893
 20
94.485680734
 30
0.0
  0
SPLINE
  5
370
100
AcDbEntity
  8
DTM_AXIS
100
AcDbSpline
 62
7
  6
CONTINUOUS
 70
0
 71
3
 72
27
 73
23
 74
0
 42
0.0000001
 43
0.0000001
 44
0.0000000001
 40
0.0
 40
0.0
 40
0.0
 40
0.0
 40
0.0108240274
 40
0.0221174722
 40
0.0342422425
 40
0.0474858791
 40
0.0620613865
 40
0.0781188078
 40
0.0957591957
 40
0.1150466729
 40
0.1360175981
 40
0.158687177
 40
0.2090953664
 40
0.266128572
 40
0.3294838577
 40
0.398749689
 40
0.4734292381
 40
0.5529562778
 40
0.6367072614
 40
0.7240113899
 40
0.8141596092
 40
1.0
 40
1.0
 40
1.0
 40
1.0
 10
264.2370638857
 20
92.1937709633
 30
0.0
 10
264.22913487
 20
92.4328215323
 30
0.0
 10
264.1615942508
 20
92.9208985485
 30
0.0
 10
263.9111577217
 20
93.6393367609
 30
0.0
 10
263.5140094166
 20
94.3495064713
 30
0.0
 10
262.9730450556
 20
95.0502576474
 30
0.0
 10
262.2903036194
 20
95.7414186248
 30
0.0
 10
261.4673997082
 20
96.4224528134
 30
0.0
 10
260.5059441049
 20
97.0925482998
 30
0.0
 10
259.4077707221
 20
97.7506122596
 30
0.0
 10
258.1750472857
 20
98.3954681999
 30
0.0
 10
256.2875903079
 20
99.2668901798
 30
0.0
 10
253.6013994424
 20
100.3003363465
 30
0.0
 10
249.9978038208
 20
101.4281701878
 30
0.0
 10
245.9377884637
 20
102.4734530133
 30
0.0
 10
241.4561449002
 20
103.4268030619
 30
0.0
 10
236.5912377835
 20
104.2795226565
 30
0.0
 10
231.3851898091
 20
105.0239057902
 30
0.0
 10
225.8832162429
 20
105.6532238227
 30
0.0
 10
220.1331508204
 20
106.161869224
 30
0.0
 10
212.1214467738
 20
106.6780656649
 30
0.0
 10
206.0230364494
 20
106.862841742
 30
0.0
 10
201.9166406766
 20
106.9012235818
 30
0.0
  0
SPLINE
  5
371
100
AcDbEntity
  8
DTM_AXIS
100
AcDbSpline
 62
7
  6
CONTINUOUS
 70
0
 71
3
 72
27
 73
23
 74
0
 42
0.0000001
 43
0.0000001
 44
0.0000000001
 40
0.0
 40
0.0
 40
0.0
 40
0.0
 40
0.0108240275
 40
0.0221174728
 40
0.0342422439
 40
0.0474858814
 40
0.0620613899
 40
0.0781188124
 40
0.0957592014
 40
0.1150466796
 40
0.1360176059
 40
0.1586871857
 40
0.2090953764
 40
0.266128583
 40
0.3294838691
 40
0.3987497003
 40
0.4734292488
 40
0.5529562875
 40
0.6367072697
 40
0.7240113964
 40
0.8141596137
 40
1.0
 40
1.0
 40
1.0
 40
1.0
 10
257.7793808669
 20
92.1442656114
 30
0.0
 10
257.7722184622
 20
92.3602031817
 30
0.0
 10
257.7112079648
 20
92.8010896615
 30
0.0
 10
257.4849851627
 20
93.4500644601
 30
0.0
 10
257.1262356634
 20
94.091570218
 30
0.0
 10
256.6375752095
 20
94.7245680845
 30
0.0
 10
256.0208456376
 20
95.3489029957
 30
0.0
 10
255.2775054422
 20
95.9640902464
 30
0.0
 10
254.4090096617
 20
96.5693964161
 30
0.0
 10
253.4170149002
 20
97.1638343563
 30
0.0
 10
252.3034792821
 20
97.7463413068
 30
0.0
 10
250.5985141059
 20
98.5335083723
 30
0.0
 10
248.1720419555
 20
99.4670340496
 30
0.0
 10
244.9168658531
 20
100.4858213645
 30
0.0
 10
241.2493997447
 20
101.4300392425
 30
0.0
 10
237.2010712836
 20
102.2912130262
 30
0.0
 10
232.8065357708
 20
103.0614859745
 30
0.0
 10
228.1038431944
 20
103.7338971629
 30
0.0
 10
223.1338371047
 20
104.3023685061
 30
0.0
 10
217.9397263504
 20
104.761834663
 30
0.0
 10
210.7026472984
 20
105.228121775
 30
0.0
 10
205.1938719727
 20
105.395032462
 30
0.0
 10
201.484509943
 20
105.4297032894
 30
0.0
  0
SPLINE
  5
372
100
AcDbEntity
  8
DTM_AXIS
100
AcDbSpline
 62
7
  6
CONTINUOUS
 70
0
 71
3
 72
22
 73
18
 74
0
 42
0.0000001
 43
0.0000001
 44
0.0000000001
 40
0.0
 40
0.0
 40
0.0
 40
0.0
 40
0.0031385919
 40
0.0112007581
 40
0.0232520717
 40
0.0385836821
 40
0.056673841
 40
0.0771372291
 40
0.1240841484
 40
0.1777741965
 40
0.2371024182
 40
0.3012435806
 40
0.3695225093
 40
0.5161672538
 40
0.6727697246
 40
0.835344518
 40
1.0
 40
1.0
 40
1.0
 40
1.0
 10
231.4628177375
 20
88.4144623304
 30
0.0
 10
231.4277859129
 20
88.3973824624
 30
0.0
 10
231.3008977974
 20
88.3403361228
 30
0.0
 10
231.0348930867
 20
88.2279994164
 30
0.0
 10
230.6243417832
 20
88.0691289597
 30
0.0
 10
230.0925613221
 20
87.8790864564
 30
0.0
 10
229.4570488664
 20
87.6694707578
 30
0.0
 10
228.4415016763
 20
87.3595553527
 30
0.0
 10
226.9895225649
 20
86.9667049076
 30
0.0
 10
225.0549899378
 20
86.5144118552
 30
0.0
 10
222.8983701806
 20
86.0786916714
 30
0.0
 10
220.5523938068
 20
85.6699918981
 30
0.0
 10
217.1247887525
 20
85.1582806443
 30
0.0
 10
212.5400316316
 20
84.6315278823
 30
0.0
 10
206.771217855
 20
84.1910513717
 30
0.0
 10
200.7671297618
 20
83.9440756288
 30
0.0
 10
196.7029372358
 20
83.9135110227
 30
0.0
 10
194.6584038372
 20
83.9326208335
 30
0.0
  0
SPLINE
  5
373
100
AcDbEntity
  8
DTM_AXIS
100
AcDbSpline
 62
7
  6
CONTINUOUS
 70
0
 71
3
 72
30
 73
26
 74
0
 42
0.0000001
 43
0.0000001
 44
0.0000000001
 40
0.0
 40
0.0
 40
0.0
 40
0.0
 40
0.0101367339
 40
0.0273753848
 40
0.0442553137
 40
0.060566417
 40
0.0763602178
 40
0.0917327946
 40
0.106774202
 40
0.1215595592
 40
0.1505939987
 40
0.1791981764
 40
0.2076145927
 40
0.2360105656
 40
0.2645042142
 40
0.2931800694
 40
0.3513028899
 40
0.4106809599
 40
0.4714460541
 40
0.53362451
 40
0.5971724999
 40
0.6619972317
 40
0.7279705732
 40
0.8627234403
 40
1.0
 40
1.0
 40
1.0
 40
1.0
 10
241.4647456942
 20
98.1174495478
 30
0.0
 10
241.5975438079
 20
98.0724795989
 30
0.0
 10
240.7597082435
 20
98.3581094116
 30
0.0
 10
240.4618353655
 20
98.4580545864
 30
0.0
 10
239.7142379481
 20
98.7061362762
 30
0.0
 10
239.0912872599
 20
98.90683551
 30
0.0
 10
238.4592613664
 20
99.1057015274
 30
0.0
 10
237.8495293387
 20
99.2921943442
 30
0.0
 10
237.2499346789
 20
99.4705805388
 30
0.0
 10
236.4679452755
 20
99.6966756662
 30
0.0
 10
235.5024483062
 20
99.9640244667
 30
0.0
 10
234.3507894557
 20
100.2647970532
 30
0.0
 10
233.2035741634
 20
100.5472594665
 30
0.0
 10
232.0541692847
 20
100.813946796
 30
0.0
 10
230.8979328357
 20
101.0666375762
 30
0.0
 10
229.335953675
 20
101.3879864885
 30
0.0
 10
227.3485170523
 20
101.760383802
 30
0.0
 10
224.9156170753
 20
102.1621255891
 30
0.0
 10
222.419670083
 20
102.5232026957
 30
0.0
 10
219.8602151906
 20
102.8448594807
 30
0.0
 10
217.2396982976
 20
103.127594561
 30
0.0
 10
214.5625775798
 20
103.3714987133
 30
0.0
 10
210.899812726
 20
103.6466373976
 30
0.0
 10
206.2303397175
 20
103.8895587013
 30
0.0
 10
202.4682258232
 20
103.9770756049
 30
0.0
 10
200.5695754087
 20
103.9948219954
 30
0.0
  0
SPLINE
  5
374
100
AcDbEntity
  8
DTM_AXIS
100
AcDbSpline
 62
7
  6
CONTINUOUS
 70
0
 71
3
 72
32
 73
28
 74
0
 42
0.0000001
 43
0.0000001
 44
0.0000000001
 40
0.0
 40
0.0
 40
0.0
 40
0.0
 40
0.0019527303
 40
0.00390581
 40
0.0078116616
 40
0.011717761
 40
0.0156239709
 40
0.023435738
 40
0.0312479285
 40
0.046870619
 40
0.0624946565
 40
0.0781193202
 40
0.0937443207
 40
0.1249922784
 40
0.1562416571
 40
0.1874917449
 40
0.2187422289
 40
0.249992954
 40
0.3124921249
 40
0.374992535
 40
0.4374936166
 40
0.4999950971
 40
0.5624968301
 40
0.6249987298
 40
0.7499985193
 40
0.8749991384
 40
1.0
 40
1.0
 40
1.0
 40
1.0
 10
224.9617223506
 20
93.4268316115
 30
0.0
 10
224.9506906183
 20
93.410478412
 30
0.0
 10
224.9260036238
 20
93.3796020938
 30
0.0
 10
224.8749168521
 20
93.3194820489
 30
0.0
 10
224.8068005089
 20
93.2480049995
 30
0.0
 10
224.7210790594
 20
93.1663324844
 30
0.0
 10
224.6024785551
 20
93.0621368552
 30
0.0
 10
224.4479096061
 20
92.9393338876
 30
0.0
 10
224.1911879089
 20
92.7555243253
 30
0.0
 10
223.8568994388
 20
92.5452613049
 30
0.0
 10
223.4422677313
 20
92.316277881
 30
0.0
 10
223.0179394847
 20
92.1058422511
 30
0.0
 10
222.4425674972
 20
91.8457074022
 30
0.0
 10
221.7093612312
 20
91.5527229122
 30
0.0
 10
220.8151713648
 20
91.2401745448
 30
0.0
 10
219.910677881
 20
90.9589245575
 30
0.0
 10
218.9985518225
 20
90.7036508928
 30
0.0
 10
217.7745488893
 20
90.3928819165
 30
0.0
 10
216.2328567485
 20
90.0524429349
 30
0.0
 10
214.3706257119
 20
89.7049724574
 30
0.0
 10
212.4996100002
 20
89.4086064495
 30
0.0
 10
210.6221647978
 20
89.1564655446
 30
0.0
 10
208.7398685888
 20
88.9436703773
 30
0.0
 10
206.225284103
 20
88.7077264062
 30
0.0
 10
203.0749064847
 20
88.4955492628
 30
0.0
 10
199.2885652655
 20
88.3602206667
 30
0.0
 10
196.7626651333
 20
88.3458603034
 30
0.0
 10
195.4999742783
 20
88.3576620055
 30
0.0
  0
SPLINE
  5
375
100
AcDbEntity
  8
DTM_AXIS
100
AcDbSpline
 62
7
  6
CONTINUOUS
 70
0
 71
3
 72
39
 73
35
 74
0
 42
0.0000001
 43
0.0000001
 44
0.0000000001
 40
0.0
 40
0.0
 40
0.0
 40
0.0
 40
0.000282566
 40
0.0012069464
 40
0.0025978278
 40
0.0043497709
 40
0.0063945666
 40
0.0086858906
 40
0.0111911484
 40
0.0138867727
 40
0.0197832638
 40
0.0262706072
 40
0.03325576
 40
0.0407194655
 40
0.048652436
 40
0.0570470765
 40
0.0751941214
 40
0.09511685
 40
0.1167726525
 40
0.1401185305
 40
0.1651092785
 40
0.1916966341
 40
0.2198288963
 40
0.2494508239
 40
0.2805036484
 40
0.3466470216
 40
0.4177261011
 40
0.4931569575
 40
0.5723141902
 40
0.6545370808
 40
0.7391360022
 40
0.8253991197
 40
0.9125991208
 40
1.0
 40
1.0
 40
1.0
 40
1.0
 10
231.0809237615
 20
91.0792097976
 30
0.0
 10
231.082672456
 20
91.0822375549
 30
0.0
 10
231.0657050357
 20
91.0540264546
 30
0.0
 10
231.0567604779
 20
91.0422341747
 30
0.0
 10
231.023041317
 20
90.9934686668
 30
0.0
 10
230.9858470824
 20
90.9454059848
 30
0.0
 10
230.9376404133
 20
90.8859935278
 30
0.0
 10
230.8823209086
 20
90.8223851922
 30
0.0
 10
230.8194274106
 20
90.7541027351
 30
0.0
 10
230.7235629466
 20
90.6558215372
 30
0.0
 10
230.5877873434
 20
90.5276635821
 30
0.0
 10
230.4056721898
 20
90.3717417282
 30
0.0
 10
230.2015770075
 20
90.2120520606
 30
0.0
 10
229.9767210175
 20
90.0502527842
 30
0.0
 10
229.7315797166
 20
89.8871298591
 30
0.0
 10
229.3686644101
 20
89.6627931667
 30
0.0
 10
228.8656675469
 20
89.3835876149
 30
0.0
 10
228.2016690558
 20
89.0585099214
 30
0.0
 10
227.4650123072
 20
88.7373954432
 30
0.0
 10
226.6582279275
 20
88.4219308001
 30
0.0
 10
225.7837732386
 20
88.1134793583
 30
0.0
 10
224.8441265524
 20
87.8131898723
 30
0.0
 10
223.8417998247
 20
87.5220628873
 30
0.0
 10
222.7793611205
 20
87.2409767754
 30
0.0
 10
221.2537905703
 20
86.8728940371
 30
0.0
 10
219.2151468472
 20
86.4464500009
 30
0.0
 10
216.6222403875
 20
85.9957478057
 30
0.0
 10
213.8575740146
 20
85.6004610234
 30
0.0
 10
210.9462887133
 20
85.2644084666
 30
0.0
 10
207.9145798548
 20
84.9907923078
 30
0.0
 10
204.7896018825
 20
84.7821738624
 30
0.0
 10
201.5992366785
 20
84.6404884802
 30
0.0
 10
198.3719148001
 20
84.5670405622
 30
0.0
 10
196.2112163863
 20
84.5640093609
 30
0.0
 10
195.1297680794
 20
84.5741174813
 30
0.0
  0
SPLINE
  5
376
100
AcDbEntity
  8
DTM_AXIS
100
AcDbSpline
 62
7
  6
CONTINUOUS
 70
0
 71
3
 72
14
 73
10
 74
0
 42
0.0000001
 43
0.0000001
 44
0.0000000001
 40
0.0
 40
0.0
 40
0.0
 40
0.0
 40
0.1333634101
 40
0.2453536978
 40
0.3531428447
 40
0.4646294386
 40
0.5835894025
 40
0.7119529767
 40
1.0
 40
1.0
 40
1.0
 40
1.0
 10
233.3466157237
 20
92.5054213757
 30
0.0
 10
233.156943835
 20
92.856571604
 30
0.0
 10
232.7490567112
 20
93.4734069481
 30
0.0
 10
232.0178812431
 20
94.2417818578
 30
0.0
 10
231.2408625798
 20
94.8612103442
 30
0.0
 10
230.3866877854
 20
95.4068516
 30
0.0
 10
229.4365412389
 20
95.9091517786
 30
0.0
 10
227.9730367032
 20
96.5631025461
 30
0.0
 10
226.794694229
 20
96.9759571939
 30
0.0
 10
225.9717944428
 20
97.2326457992
 30
0.0
  0
SPLINE
  5
377
100
AcDbEntity
  8
DTM_AXIS
100
AcDbSpline
 62
7
  6
CONTINUOUS
 70
0
 71
3
 72
27
 73
23
 74
0
 42
0.0000001
 43
0.0000001
 44
0.0000000001
 40
0.0
 40
0.0
 40
0.0
 40
0.0
 40
0.0037864649
 40
0.007032924
 40
0.0110659288
 40
0.0158349221
 40
0.0212927555
 40
0.0341231861
 40
0.0492981563
 40
0.0666208309
 40
0.0859400247
 40
0.1071372472
 40
0.1301186302
 40
0.1811405929
 40
0.2385478776
 40
0.3020008184
 40
0.3712302065
 40
0.446006964
 40
0.5261247309
 40
0.6113888032
 40
0.7965667886
 40
1.0
 40
1.0
 40
1.0
 40
1.0
 10
216.7123391524
 20
91.4788645069
 30
0.0
 10
216.7157812709
 20
91.4854992978
 30
0.0
 10
216.6975079921
 20
91.4560656449
 30
0.0
 10
216.6884677823
 20
91.445101832
 30
0.0
 10
216.6725361683
 20
91.4242126867
 30
0.0
 10
216.6549876254
 20
91.4032921572
 30
0.0
 10
216.6247404482
 20
91.3687992978
 30
0.0
 10
216.5791595927
 20
91.3212338769
 30
0.0
 10
216.5141530467
 20
91.2595834211
 30
0.0
 10
216.4368331618
 20
91.1926103425
 30
0.0
 10
216.3475181183
 20
91.1214252478
 30
0.0
 10
216.2466044059
 20
91.0470327336
 30
0.0
 10
216.0915422877
 20
90.9408034153
 30
0.0
 10
215.8704723618
 20
90.8047639245
 30
0.0
 10
215.5722829444
 20
90.6426073948
 30
0.0
 10
215.234595276
 20
90.4787159081
 30
0.0
 10
214.8591934618
 20
90.3148133337
 30
0.0
 10
214.4476619513
 20
90.1521724803
 30
0.0
 10
214.0014741976
 20
89.9917643751
 30
0.0
 10
213.3439033064
 20
89.7759333726
 30
0.0
 10
212.4441999713
 20
89.5185472719
 30
0.0
 10
211.6983905777
 20
89.3381209495
 30
0.0
 10
211.306526805
 20
89.2503190873
 30
0.0
  0
SPLINE
  5
378
100
AcDbEntity
  8
DTM_AXIS
100
AcDbSpline
 62
7
  6
CONTINUOUS
 70
0
 71
3
 72
25
 73
21
 74
0
 42
0.0000001
 43
0.0000001
 44
0.0000000001
 40
0.0
 40
0.0
 40
0.0
 40
0.0
 40
0.007812884
 40
0.0156257476
 40
0.0312509233
 40
0.0468760126
 40
0.0625011581
 40
0.0937485951
 40
0.1249973608
 40
0.1562470267
 40
0.1874972715
 40
0.2499935719
 40
0.3124926935
 40
0.3749932427
 40
0.4374945889
 40
0.4999964133
 40
0.6249948734
 40
0.7499956335
 40
0.8749975385
 40
1.0
 40
1.0
 40
1.0
 40
1.0
 10
218.0165057094
 20
93.6620297617
 30
0.0
 10
217.9736416461
 20
93.6903668356
 30
0.0
 10
217.8891329555
 20
93.7488607048
 30
0.0
 10
217.718324129
 20
93.8631781907
 30
0.0
 10
217.5020880225
 20
94.0019861952
 30
0.0
 10
217.2370209023
 20
94.1595354644
 30
0.0
 10
216.876930257
 20
94.3578705101
 30
0.0
 10
216.4155806227
 20
94.5847110024
 30
0.0
 10
215.8488461201
 20
94.82802998
 30
0.0
 10
215.2723629253
 20
95.047159293
 30
0.0
 10
214.4939800294
 20
95.3120165055
 30
0.0
 10
213.5069131161
 20
95.5996309732
 30
0.0
 10
212.3086226156
 20
95.8918792871
 30
0.0
 10
211.1008220186
 20
96.1417443353
 30
0.0
 10
209.8863149798
 20
96.3563813569
 30
0.0
 10
208.2604429782
 20
96.602211937
 30
0.0
 10
206.2187810331
 20
96.8433548032
 30
0.0
 10
203.7603784109
 20
97.0459392284
 30
0.0
 10
201.2969316798
 20
97.1724321841
 30
0.0
 10
199.652883
 20
97.2101482761
 30
0.0
 10
198.8307987811
 20
97.2178321845
 30
0.0
  0
SPLINE
  5
379
100
AcDbEntity
  8
DTM_AXIS
100
AcDbSpline
 62
7
  6
CONTINUOUS
 70
0
 71
3
 72
15
 73
11
 74
0
 42
0.0000001
 43
0.0000001
 44
0.0000000001
 40
0.0
 40
0.0
 40
0.0
 40
0.0
 40
0.0872608115
 40
0.1813426045
 40
0.2850815248
 40
0.4005152805
 40
0.5290192113
 40
0.6714700695
 40
0.8283811586
 40
1.0
 40
1.0
 40
1.0
 40
1.0
 10
126.6961699999
 20
89.4647851868
 30
0.0
 10
126.7462873038
 20
89.7515252794
 30
0.0
 10
126.9192557065
 20
90.3368217852
 30
0.0
 10
127.3658724839
 20
91.181908377
 30
0.0
 10
128.0010937055
 20
92.0165109458
 30
0.0
 10
128.8216354608
 20
92.8399585367
 30
0.0
 10
129.8251705953
 20
93.6519427856
 30
0.0
 10
131.0093816245
 20
94.4512666379
 30
0.0
 10
132.3714911752
 20
95.2363395786
 30
0.0
 10
133.352113636
 20
95.7270250455
 30
0.0
 10
133.8700328394
 20
95.9709622816
 30
0.0
  0
SPLINE
  5
37A
100
AcDbEntity
  8
DTM_AXIS
100
AcDbSpline
 62
7
  6
CONTINUOUS
 70
0
 71
3
 72
9
 73
5
 74
0
 42
0.0000001
 43
0.0000001
 44
0.0000000001
 40
0.0
 40
0.0
 40
0.0
 40
0.0
 40
0.2330337922
 40
1.0
 40
1.0
 40
1.0
 40
1.0
 10
130.4304517763
 20
92.1589414238
 30
0.0
 10
130.4912913402
 20
92.2872721224
 30
0.0
 10
130.7773526889
 20
92.8261501101
 30
0.0
 10
131.1537132466
 20
93.3137903485
 30
0.0
 10
131.4689702946
 20
93.6588988016
 30
0.0
  0
SPLINE
  5
37B
100
AcDbEntity
  8
DTM_AXIS
100
AcDbSpline
 62
7
  6
CONTINUOUS
 70
0
 71
3
 72
28
 73
24
 74
0
 42
0.0000001
 43
0.0000001
 44
0.0000000001
 40
0.0
 40
0.0
 40
0.0
 40
0.0
 40
0.010395668
 40
0.0213197829
 40
0.0331747727
 40
0.0462691494
 40
0.0608218188
 40
0.0769795911
 40
0.0948353989
 40
0.1144427405
 40
0.1358260176
 40
0.1589876723
 40
0.1839130898
 40
0.2105740037
 40
0.2689291351
 40
0.3336379935
 40
0.4041615793
 40
0.4798694887
 40
0.560057328
 40
0.6439607287
 40
0.7307676583
 40
0.8196298779
 40
1.0
 40
1.0
 40
1.0
 40
1.0
 10
130.6562580921
 20
91.3564271334
 30
0.0
 10
130.661646752
 20
91.6177210378
 30
0.0
 10
130.7344196659
 20
92.1539889084
 30
0.0
 10
131.0218668312
 20
92.9425547143
 30
0.0
 10
131.4837044935
 20
93.7222443781
 30
0.0
 10
132.1160105378
 20
94.4920108666
 30
0.0
 10
132.9162373813
 20
95.2518578584
 30
0.0
 10
133.8823558203
 20
96.0010958555
 30
0.0
 10
135.0122198543
 20
96.7385855177
 30
0.0
 10
136.3032840141
 20
97.4628273285
 30
0.0
 10
137.7525186664
 20
98.1721504898
 30
0.0
 10
139.3564070664
 20
98.8647924213
 30
0.0
 10
141.110957602
 20
99.5390252942
 30
0.0
 10
143.7250304424
 20
100.4382989502
 30
0.0
 10
147.3409986017
 20
101.4918694832
 30
0.0
 10
152.0762155879
 20
102.6224266494
 30
0.0
 10
157.2816981752
 20
103.6419604853
 30
0.0
 10
162.9037355083
 20
104.5395557038
 30
0.0
 10
168.884361353
 20
105.3055109284
 30
0.0
 10
175.1615927936
 20
105.9316072938
 30
0.0
 10
181.670397713
 20
106.4112135521
 30
0.0
 10
190.6111089313
 20
106.8503996848
 30
0.0
 10
197.382292761
 20
106.9436054235
 30
0.0
 10
201.9166406766
 20
106.9012235818
 30
0.0
  0
SPLINE
  5
37C
100
AcDbEntity
  8
DTM_AXIS
100
AcDbSpline
 62
7
  6
CONTINUOUS
 70
0
 71
3
 72
27
 73
23
 74
0
 42
0.0000001
 43
0.0000001
 44
0.0000000001
 40
0.0
 40
0.0
 40
0.0
 40
0.0
 40
0.0103957535
 40
0.0213199575
 40
0.0331750437
 40
0.0462695269
 40
0.0608223145
 40
0.0769802182
 40
0.0948361715
 40
0.1144436731
 40
0.1358271249
 40
0.158988969
 40
0.210567494
 40
0.2689231046
 40
0.3336324951
 40
0.4041566615
 40
0.4798651948
 40
0.5600536954
 40
0.6439577885
 40
0.7307654347
 40
0.8196283881
 40
1.0
 40
1.0
 40
1.0
 40
1.0
 10
137.114054218
 20
91.3878799323
 30
0.0
 10
137.1189218113
 20
91.6239102097
 30
0.0
 10
137.1846583739
 20
92.1083281541
 30
0.0
 10
137.4443130428
 20
92.8206502227
 30
0.0
 10
137.861496966
 20
93.5249543719
 30
0.0
 10
138.4326673115
 20
94.2202947367
 30
0.0
 10
139.1555227216
 20
94.9066748234
 30
0.0
 10
140.028230388
 20
95.5834711378
 30
0.0
 10
141.0488510613
 20
96.2496572651
 30
0.0
 10
142.2150885212
 20
96.9038668055
 30
0.0
 10
143.5241926871
 20
97.5446411178
 30
0.0
 10
145.5289028805
 20
98.4101636114
 30
0.0
 10
148.3761867528
 20
99.4330512595
 30
0.0
 10
152.1854367865
 20
100.5434312456
 30
0.0
 10
156.4630369727
 20
101.5645869541
 30
0.0
 10
161.1651532909
 20
102.4855735728
 30
0.0
 10
166.2436344668
 20
103.29637504
 30
0.0
 10
171.6460081361
 20
103.9882751358
 30
0.0
 10
177.3163170227
 20
104.5538356983
 30
0.0
 10
183.1958072481
 20
104.9870706748
 30
0.0
 10
191.2720716641
 20
105.3837933508
 30
0.0
 10
197.3885727008
 20
105.467987375
 30
0.0
 10
201.484509943
 20
105.4297032894
 30
0.0
  0
SPLINE
  5
37D
100
AcDbEntity
  8
DTM_AXIS
100
AcDbSpline
 62
7
  6
CONTINUOUS
 70
0
 71
3
 72
17
 73
13
 74
0
 42
0.0000001
 43
0.0000001
 44
0.0000000001
 40
0.0
 40
0.0
 40
0.0
 40
0.0
 40
0.3761640491
 40
0.5374812436
 40
0.6790606426
 40
0.7993553097
 40
0.8509271565
 40
0.8963130817
 40
0.9349928634
 40
0.966173804
 40
0.9885690583
 40
1.0
 40
1.0
 40
1.0
 40
1.0
 10
183.6193947314
 20
89.0767943818
 30
0.0
 10
182.8931225366
 20
89.2299917833
 30
0.0
 10
181.8608463031
 20
89.4801796392
 30
0.0
 10
180.5846723973
 20
89.8904459275
 30
0.0
 10
179.805433398
 20
90.1920491644
 30
0.0
 10
179.2456044854
 20
90.4570144787
 30
0.0
 10
178.8730450069
 20
90.6694597535
 30
0.0
 10
178.6483368511
 20
90.8151800022
 30
0.0
 10
178.4660754996
 20
90.9514682497
 30
0.0
 10
178.328921651
 20
91.0715724645
 30
0.0
 10
178.2406389497
 20
91.1648058025
 30
0.0
 10
178.1992156475
 20
91.2174007342
 30
0.0
 10
178.1870395208
 20
91.2363876653
 30
0.0
  0
SPLINE
  5
37E
100
AcDbEntity
  8
DTM_AXIS
100
AcDbSpline
 62
7
  6
CONTINUOUS
 70
0
 71
3
 72
23
 73
19
 74
0
 42
0.0000001
 43
0.0000001
 44
0.0000000001
 40
0.0
 40
0.0
 40
0.0
 40
0.0
 40
0.1546047276
 40
0.3068298376
 40
0.4527657481
 40
0.588779721
 40
0.6520613887
 40
0.7117336732
 40
0.7675620498
 40
0.8194129012
 40
0.8673252646
 40
0.9116946332
 40
0.9329083299
 40
0.9539682031
 40
0.964739073
 40
0.9760882848
 40
0.989272607
 40
1.0
 40
1.0
 40
1.0
 40
1.0
 10
198.8307987805
 20
97.2178321845
 30
0.0
 10
197.6678987956
 20
97.228701628
 30
0.0
 10
195.359348331
 20
97.2060305372
 30
0.0
 10
191.9566983688
 20
97.0421634774
 30
0.0
 10
188.7027083687
 20
96.7527522218
 30
0.0
 10
186.1279193267
 20
96.4056825492
 30
0.0
 10
184.2096917667
 20
96.0650933015
 30
0.0
 10
182.8932085532
 20
95.7892965858
 30
0.0
 10
181.6706609799
 20
95.4880006575
 30
0.0
 10
180.5463577758
 20
95.1614208629
 30
0.0
 10
179.5208729217
 20
94.8080417011
 30
0.0
 10
178.7313389215
 20
94.4812732091
 30
0.0
 10
178.1446551129
 20
94.1970569111
 30
0.0
 10
177.7934899265
 20
94.0072697329
 30
0.0
 10
177.5137175078
 20
93.8422022078
 30
0.0
 10
177.2888031288
 20
93.7009474787
 30
0.0
 10
177.0680354106
 20
93.5538505515
 30
0.0
 10
176.9215886898
 20
93.4493871978
 30
0.0
 10
176.8548369177
 20
93.4040499277
 30
0.0
  0
SPLINE
  5
37F
100
AcDbEntity
  8
DTM_AXIS
100
AcDbSpline
 62
7
  6
CONTINUOUS
 70
0
 71
3
 72
25
 73
21
 74
0
 42
0.0000001
 43
0.0000001
 44
0.0000000001
 40
0.0
 40
0.0
 40
0.0
 40
0.0
 40
0.1795203448
 40
0.3520438268
 40
0.5128110022
 40
0.5874016168
 40
0.6574422589
 40
0.7224638622
 40
0.7820370684
 40
0.835775101
 40
0.8833342037
 40
0.924406809
 40
0.9424248707
 40
0.9587059267
 40
0.9731945339
 40
0.9856408599
 40
0.9908841812
 40
0.9952796709
 40
0.9985277389
 40
1.0
 40
1.0
 40
1.0
 40
1.0
 10
195.1297680778
 20
84.5741174813
 30
0.0
 10
193.1912758955
 20
84.5922362736
 30
0.0
 10
189.3900348062
 20
84.7006408276
 30
0.0
 10
183.8640872956
 20
85.0826702443
 30
0.0
 10
179.4860341104
 20
85.5833685869
 30
0.0
 10
176.2272845825
 20
86.092597408
 30
0.0
 10
174.001673906
 20
86.5097263751
 30
0.0
 10
171.9499372508
 20
86.9679479659
 30
0.0
 10
170.0883083347
 20
87.4630953405
 30
0.0
 10
168.4320891486
 20
87.9900763513
 30
0.0
 10
166.996329718
 20
88.5425453168
 30
0.0
 10
165.9539134179
 20
89.0361843109
 30
0.0
 10
165.2475073723
 20
89.4412374635
 30
0.0
 10
164.8064987204
 20
89.7301531525
 30
0.0
 10
164.434614314
 20
90.0127530506
 30
0.0
 10
164.1755994018
 20
90.2452271898
 30
0.0
 10
164.0109677199
 20
90.4179023599
 30
0.0
 10
163.9203424736
 20
90.5236306791
 30
0.0
 10
163.8608558218
 20
90.6021003679
 30
0.0
 10
163.8319486912
 20
90.644140739
 30
0.0
 10
163.8236962432
 20
90.6577295993
 30
0.0
  0
SPLINE
  5
380
100
AcDbEntity
  8
DTM_AXIS
100
AcDbSpline
 62
7
  6
CONTINUOUS
 70
0
 71
3
 72
24
 73
20
 74
0
 42
0.0000001
 43
0.0000001
 44
0.0000000001
 40
0.0
 40
0.0
 40
0.0
 40
0.0
 40
0.1805290274
 40
0.3541287417
 40
0.5160772048
 40
0.5912928794
 40
0.6619680749
 40
0.7276139441
 40
0.7877713373
 40
0.8419988498
 40
0.8897942093
 40
0.9306208549
 40
0.9482171016
 40
0.9637765235
 40
0.9771273141
 40
0.9880185333
 40
0.9960722301
 40
0.9987845895
 40
1.0
 40
1.0
 40
1.0
 40
1.0
 10
195.4999742761
 20
88.3576620054
 30
0.0
 10
193.9133194327
 20
88.3724922264
 30
0.0
 10
190.8010721083
 20
88.4602075154
 30
0.0
 10
186.2744183781
 20
88.7681970324
 30
0.0
 10
182.685068681
 20
89.1712389674
 30
0.0
 10
180.0101990985
 20
89.5805658022
 30
0.0
 10
178.1810748618
 20
89.9156565455
 30
0.0
 10
176.4933644021
 20
90.2832389398
 30
0.0
 10
174.9609894227
 20
90.6795623404
 30
0.0
 10
173.5981672643
 20
91.0996024704
 30
0.0
 10
172.4202705138
 20
91.5363624884
 30
0.0
 10
171.568732247
 20
91.9220059051
 30
0.0
 10
170.9972901399
 20
92.2328668386
 30
0.0
 10
170.6492588427
 20
92.4476848653
 30
0.0
 10
170.3636042357
 20
92.6501463663
 30
0.0
 10
170.1448238438
 20
92.8314119761
 30
0.0
 10
170.008921462
 20
92.9652445093
 30
0.0
 10
169.9406193522
 20
93.0454386548
 30
0.0
 10
169.919394046
 20
93.0726983276
 30
0.0
 10
169.9132707663
 20
93.0814518186
 30
0.0
  0
SPLINE
  5
381
100
AcDbEntity
  8
DTM_AXIS
100
AcDbSpline
 62
7
  6
CONTINUOUS
 70
0
 71
3
 72
21
 73
17
 74
0
 42
0.0000001
 43
0.0000001
 44
0.0000000001
 40
0.0
 40
0.0
 40
0.0
 40
0.0
 40
0.1362540943
 40
0.2714329229
 40
0.4035104213
 40
0.5307344585
 40
0.6519256026
 40
0.7101921481
 40
0.7671282853
 40
0.8232350274
 40
0.8795954655
 40
0.908544385
 40
0.938689665
 40
0.9708717954
 40
0.9878142211
 40
1.0
 40
1.0
 40
1.0
 40
1.0
 10
200.5695754146
 20
103.9948219953
 30
0.0
 10
198.394536194
 20
104.0151517445
 30
0.0
 10
194.0606657081
 20
103.9866583714
 30
0.0
 10
187.6227791743
 20
103.7399312222
 30
0.0
 10
181.3400773174
 20
103.2919912385
 30
0.0
 10
175.2990658253
 20
102.6462656901
 30
0.0
 10
170.453589434
 20
101.9345910317
 30
0.0
 10
166.7409206242
 20
101.2565829272
 30
0.0
 10
164.0635523938
 20
100.697705039
 30
0.0
 10
161.4322748683
 20
100.071822426
 30
0.0
 10
159.2527840461
 20
99.4816721301
 30
0.0
 10
157.4864760469
 20
98.9549422755
 30
0.0
 10
156.0975688478
 20
98.5140708085
 30
0.0
 10
154.8984683065
 20
98.1095094426
 30
0.0
 10
153.9744894339
 20
97.7866748647
 30
0.0
 10
153.5366143215
 20
97.6301838009
 30
0.0
 10
153.3532008074
 20
97.5653612529
 30
0.0
  0
SPLINE
  5
382
100
AcDbEntity
  8
DTM_AXIS
100
AcDbSpline
 62
7
  6
CONTINUOUS
 70
0
 71
3
 72
14
 73
10
 74
0
 42
0.0000001
 43
0.0000001
 44
0.0000000001
 40
0.0
 40
0.0
 40
0.0
 40
0.0
 40
0.2880500203
 40
0.4164144151
 40
0.535374682
 40
0.6468611749
 40
0.7546517315
 40
0.8666386976
 40
1.0
 40
1.0
 40
1.0
 40
1.0
 10
168.8556937348
 20
96.8747257446
 30
0.0
 10
168.0360322097
 20
96.6077354679
 30
0.0
 10
166.8628951024
 20
96.1801326083
 30
0.0
 10
165.4076265589
 20
95.5078687641
 30
0.0
 10
164.4638054838
 20
94.9936841585
 30
0.0
 10
163.6164932145
 20
94.4373620521
 30
0.0
 10
162.84727178
 20
93.8082227157
 30
0.0
 10
162.1257585279
 20
93.0307257549
 30
0.0
 10
161.7256282714
 20
92.4088137074
 30
0.0
 10
161.5403698735
 20
92.0553039947
 30
0.0
  0
SPLINE
  5
383
100
AcDbEntity
  8
DTM_AXIS
100
AcDbSpline
 62
7
  6
CONTINUOUS
 70
0
 71
3
 72
31
 73
27
 74
0
 42
0.0000001
 43
0.0000001
 44
0.0000000001
 40
0.0
 40
0.0
 40
0.0
 40
0.0
 40
0.158068457
 40
0.3122129877
 40
0.456785476
 40
0.5239104903
 40
0.5868899385
 40
0.6453358939
 40
0.6990267548
 40
0.7479945902
 40
0.7926883884
 40
0.8137670524
 40
0.8343601769
 40
0.8553449771
 40
0.8781828951
 40
0.8911599248
 40
0.9060785533
 40
0.9230016788
 40
0.9389535961
 40
0.9544619923
 40
0.9702861563
 40
0.9785243243
 40
0.9870637278
 40
0.9914575225
 40
0.995935442
 40
1.0
 40
1.0
 40
1.0
 40
1.0
 10
199.417863734
 20
101.6783770814
 30
0.0
 10
197.4051384479
 20
101.6971897023
 30
0.0
 10
193.428148931
 20
101.6426388926
 30
0.0
 10
187.6200815957
 20
101.2928463973
 30
0.0
 10
182.9873109053
 20
100.7778898797
 30
0.0
 10
179.5322790113
 20
100.2297506504
 30
0.0
 10
177.1749203338
 20
99.7712599243
 30
0.0
 10
175.0042822941
 20
99.2575816012
 30
0.0
 10
173.0320833067
 20
98.6891405544
 30
0.0
 10
171.2622179966
 20
98.0622407174
 30
0.0
 10
169.9245365162
 20
97.4689453408
 30
0.0
 10
168.9574549047
 20
96.944095658
 30
0.0
 10
168.2807533645
 20
96.5202664828
 30
0.0
 10
167.6191978911
 20
96.0338498165
 30
0.0
 10
167.0763668866
 20
95.5540553652
 30
0.0
 10
166.6252933561
 20
95.0912067741
 30
0.0
 10
166.2495874019
 20
94.6612660194
 30
0.0
 10
165.8704418085
 20
94.1849223787
 30
0.0
 10
165.5110039084
 20
93.6841525257
 30
0.0
 10
165.1894184431
 20
93.1746754102
 30
0.0
 10
164.9473583926
 20
92.7323318155
 30
0.0
 10
164.7651621065
 20
92.359249847
 30
0.0
 10
164.6541177556
 20
92.1135366658
 30
0.0
 10
164.5674535088
 20
91.9094622544
 30
0.0
 10
164.5044281704
 20
91.7572656216
 30
0.0
 10
164.4659141264
 20
91.6554865406
 30
0.0
 10
164.4454773757
 20
91.6079349157
 30
0.0
  0
SPLINE
  5
384
100
AcDbEntity
  8
DTM_AXIS
100
AcDbSpline
 62
7
  6
CONTINUOUS
 70
0
 71
3
 72
19
 73
15
 74
0
 42
0.0000001
 43
0.0000001
 44
0.0000000001
 40
0.0
 40
0.0
 40
0.0
 40
0.0
 40
0.1675171469
 40
0.3304207514
 40
0.485647702
 40
0.6300071066
 40
0.7599690768
 40
0.8182360306
 40
0.8711053462
 40
0.917609998
 40
0.9563407709
 40
0.9850585645
 40
0.99457088
 40
1.0
 40
1.0
 40
1.0
 40
1.0
 10
194.6584037105
 20
83.9326208348
 30
0.0
 10
192.8968732556
 20
83.9490856961
 30
0.0
 10
189.4225616357
 20
84.0321129191
 30
0.0
 10
184.3221948942
 20
84.3083395738
 30
0.0
 10
179.4758225273
 20
84.7278393218
 30
0.0
 10
174.99128631
 20
85.2777236306
 30
0.0
 10
171.5386782373
 20
85.844701414
 30
0.0
 10
169.0541413858
 20
86.3513107223
 30
0.0
 10
167.4394845947
 20
86.7278899786
 30
0.0
 10
166.0359380979
 20
87.1021996253
 30
0.0
 10
164.8897973308
 20
87.4528732224
 30
0.0
 10
164.125799205
 20
87.7209666892
 30
0.0
 10
163.6991272418
 20
87.8906107224
 30
0.0
 10
163.5545879038
 20
87.9522916549
 30
0.0
 10
163.5025532564
 20
87.9757853261
 30
0.0
  0
SPLINE
  5
385
100
AcDbEntity
  8
DTM_AXIS
100
AcDbSpline
 62
7
  6
CONTINUOUS
 70
0
 71
3
 72
28
 73
24
 74
0
 42
0.0000001
 43
0.0000001
 44
0.0000000001
 40
0.0
 40
0.0
 40
0.0
 40
0.0
 40
0.1812678583
 40
0.2705455736
 40
0.3577225139
 40
0.4419341695
 40
0.5223535916
 40
0.5982032792
 40
0.6687679805
 40
0.7334093324
 40
0.7915841833
 40
0.8181129535
 40
0.8428790916
 40
0.865855824
 40
0.8870309074
 40
0.9064103759
 40
0.924023965
 40
0.9399330343
 40
0.9542420318
 40
0.9671143326
 40
0.978791542
 40
0.9896100752
 40
1.0
 40
1.0
 40
1.0
 40
1.0
 10
192.9778516556
 20
76.4622651546
 30
0.0
 10
197.5460141433
 20
76.4195672535
 30
0.0
 10
204.3670525952
 20
76.5146079347
 30
0.0
 10
213.3720142929
 20
76.9609714715
 30
0.0
 10
219.9240726685
 20
77.4480709436
 30
0.0
 10
226.2390623221
 20
78.0836635101
 30
0.0
 10
232.2505811582
 20
78.8609123603
 30
0.0
 10
237.8953971791
 20
79.7713471517
 30
0.0
 10
243.1144560773
 20
80.8049708984
 30
0.0
 10
247.853118321
 20
81.9505456456
 30
0.0
 10
251.4648132669
 20
83.0180493761
 30
0.0
 10
254.0694714325
 20
83.9290844154
 30
0.0
 10
255.8129891421
 20
84.6114626882
 30
0.0
 10
257.4028855387
 20
85.3122272579
 30
0.0
 10
258.8351598287
 20
86.0296130442
 30
0.0
 10
260.1063066983
 20
86.7618275515
 30
0.0
 10
261.2133256611
 20
87.5071904433
 30
0.0
 10
262.1537084952
 20
88.2642280006
 30
0.0
 10
262.9253213778
 20
89.0318803556
 30
0.0
 10
263.5260458967
 20
89.8095861459
 30
0.0
 10
263.9530208669
 20
90.5974104345
 30
0.0
 10
264.2018364743
 20
91.39397179
 30
0.0
 10
264.2457443477
 20
91.9320651634
 30
0.0
 10
264.2370638857
 20
92.1937709633
 30
0.0
  0
SPLINE
  5
386
100
AcDbEntity
  8
DTM_AXIS
100
AcDbSpline
 62
7
  6
CONTINUOUS
 70
0
 71
3
 72
30
 73
26
 74
0
 42
0.0000001
 43
0.0000001
 44
0.0000000001
 40
0.0
 40
0.0
 40
0.0
 40
0.0
 40
0.094456597
 40
0.1885133327
 40
0.2811074712
 40
0.3711966152
 40
0.4577736514
 40
0.5398820381
 40
0.6166318565
 40
0.6872174911
 40
0.7509387194
 40
0.7800457772
 40
0.8072376562
 40
0.8324718569
 40
0.855721485
 40
0.8769791263
 40
0.8962625141
 40
0.9136229686
 40
0.929157996
 40
0.9430295715
 40
0.9554882884
 40
0.9668978462
 40
0.9777419475
 40
0.9885871931
 40
1.0
 40
1.0
 40
1.0
 40
1.0
 10
192.9410911541
 20
75.5398243666
 30
0.0
 10
195.3954095914
 20
75.5168842355
 30
0.0
 10
200.2944442135
 20
75.5323211386
 30
0.0
 10
207.5967987156
 20
75.7367447782
 30
0.0
 10
214.7783927286
 20
76.119986838
 30
0.0
 10
221.753666197
 20
76.6773626241
 30
0.0
 10
228.4396617482
 20
77.4020327555
 30
0.0
 10
234.7569187888
 20
78.2850900257
 30
0.0
 10
240.6306622326
 20
79.3155679586
 30
0.0
 10
245.9913328212
 20
80.4807983476
 30
0.0
 10
250.0946814642
 20
81.5824656954
 30
0.0
 10
253.0659498483
 20
82.531676804
 30
0.0
 10
255.0608084521
 20
83.2466378994
 30
0.0
 10
256.8843697374
 20
83.9840592903
 30
0.0
 10
258.5314129017
 20
84.7418079856
 30
0.0
 10
259.9973381995
 20
85.5176974287
 30
0.0
 10
261.2781959595
 20
86.3096342271
 30
0.0
 10
262.3707014309
 20
87.1157356462
 30
0.0
 10
263.2721520027
 20
87.9345608635
 30
0.0
 10
263.980075575
 20
88.7653964688
 30
0.0
 10
264.4913136125
 20
89.6083287378
 30
0.0
 10
264.8006482267
 20
90.4630365825
 30
0.0
 10
264.9010623389
 20
91.3256961897
 30
0.0
 10
264.7890766375
 20
92.1866750193
 30
0.0
 10
264.5831802412
 20
92.7327006002
 30
0.0
 10
264.4527905873
 20
92.9990562861
 30
0.0
  0
SPLINE
  5
387
100
AcDbEntity
  8
DTM_AXIS
100
AcDbSpline
 62
7
  6
CONTINUOUS
 70
0
 71
3
 72
28
 73
24
 74
0
 42
0.0000001
 43
0.0000001
 44
0.0000000001
 40
0.0
 40
0.0
 40
0.0
 40
0.0
 40
0.1838089694
 40
0.274258928
 40
0.3624745447
 40
0.4475437918
 40
0.528596306
 40
0.6048165802
 40
0.675458272
 40
0.7398607865
 40
0.7974704911
 40
0.8235960177
 40
0.8478816477
 40
0.8703057246
 40
0.8908640236
 40
0.9095746887
 40
0.9264854797
 40
0.9416844227
 40
0.9553150444
 40
0.9675963758
 40
0.9788438183
 40
0.9894778926
 40
1.0
 40
1.0
 40
1.0
 40
1.0
 10
192.7234157915
 20
73.1038203466
 30
0.0
 10
197.6700521934
 20
73.0575849088
 30
0.0
 10
205.0541892354
 20
73.1640324356
 30
0.0
 10
214.7975589463
 20
73.6594875541
 30
0.0
 10
221.8757780149
 20
74.1990790716
 30
0.0
 10
228.6854199927
 20
74.9022663813
 30
0.0
 10
235.1518131472
 20
75.761146812
 30
0.0
 10
241.2040371902
 20
76.7659405833
 30
0.0
 10
246.7761243606
 20
77.905108848
 30
0.0
 10
251.8072990712
 20
79.1657148427
 30
0.0
 10
255.6201561558
 20
80.3402306208
 30
0.0
 10
258.3498622137
 20
81.3422016703
 30
0.0
 10
260.1622711315
 20
82.0905160539
 30
0.0
 10
261.8026502401
 20
82.8582150045
 30
0.0
 10
263.2667499155
 20
83.6433199917
 30
0.0
 10
264.5509118436
 20
84.4438563361
 30
0.0
 10
265.6520622814
 20
85.2580506756
 30
0.0
 10
266.5676468207
 20
86.0844871105
 30
0.0
 10
267.2953463448
 20
86.9223733826
 30
0.0
 10
267.8323769777
 20
87.771518306
 30
0.0
 10
268.1743526733
 20
88.6318055653
 30
0.0
 10
268.3152858982
 20
89.499795391
 30
0.0
 10
268.2728045913
 20
90.0736042113
 30
0.0
 10
268.2205551461
 20
90.3519238087
 30
0.0
  0
SPLINE
  5
388
100
AcDbEntity
  8
DTM_AXIS
100
AcDbSpline
 62
7
  6
CONTINUOUS
 70
0
 71
3
 72
18
 73
14
 74
0
 42
0.0000001
 43
0.0000001
 44
0.0000000001
 40
0.0
 40
0.0
 40
0.0
 40
0.0
 40
0.1381605437
 40
0.2555105457
 40
0.3084713088
 40
0.3590156466
 40
0.4084878785
 40
0.4583261019
 40
0.5099355601
 40
0.5645744351
 40
0.6866976127
 40
0.8308018788
 40
1.0
 40
1.0
 40
1.0
 40
1.0
 10
162.3155236571
 20
93.2141901622
 30
0.0
 10
162.0765159471
 20
93.0154708056
 30
0.0
 10
161.6581076776
 20
92.6169433111
 30
0.0
 10
161.2619319343
 20
92.0372524974
 30
0.0
 10
161.0787520812
 20
91.573299683
 30
0.0
 10
161.0056137478
 20
91.2352971612
 30
0.0
 10
160.9927854094
 20
90.8966245761
 30
0.0
 10
161.0404465387
 20
90.558701497
 30
0.0
 10
161.1480651301
 20
90.2228084907
 30
0.0
 10
161.3789114937
 20
89.7618556126
 30
0.0
 10
161.8330687191
 20
89.1913059954
 30
0.0
 10
162.5808698241
 20
88.5530319898
 30
0.0
 10
163.1759789308
 20
88.1716736257
 30
0.0
 10
163.5057196988
 20
87.9814912029
 30
0.0
  0
SPLINE
  5
389
100
AcDbEntity
  8
DTM_AXIS
100
AcDbSpline
 62
7
  6
CONTINUOUS
 70
0
 71
3
 72
16
 73
12
 74
0
 42
0.0000001
 43
0.0000001
 44
0.0000000001
 40
0.0
 40
0.0
 40
0.0
 40
0.0
 40
0.0352002245
 40
0.0712279889
 40
0.1497918562
 40
0.2426793704
 40
0.3536906572
 40
0.4846410085
 40
0.6361575145
 40
0.8081386666
 40
1.0
 40
1.0
 40
1.0
 40
1.0
 10
173.7201359619
 20
91.0719390945
 30
0.0
 10
173.7151642278
 20
91.1498988492
 30
0.0
 10
173.7202344499
 20
91.3090269777
 30
0.0
 10
173.7934790797
 20
91.6350725612
 30
0.0
 10
174.0143928431
 20
92.0483380897
 30
0.0
 10
174.444291056
 20
92.5103270272
 30
0.0
 10
175.0398282127
 20
92.9593019099
 30
0.0
 10
175.7986331678
 20
93.3946403833
 30
0.0
 10
176.716686219
 20
93.8147211375
 30
0.0
 10
177.7882226729
 20
94.2166022829
 30
0.0
 10
178.5592684877
 20
94.4576709018
 30
0.0
 10
178.9683230817
 20
94.5758661251
 30
0.0
  0
SPLINE
  5
38A
100
AcDbEntity
  8
DTM_AXIS
100
AcDbSpline
 62
7
  6
CONTINUOUS
 70
0
 71
3
 72
27
 73
23
 74
0
 42
0.0000001
 43
0.0000001
 44
0.0000000001
 40
0.0
 40
0.0
 40
0.0
 40
0.0
 40
0.1868119841
 40
0.2773926889
 40
0.3650725643
 40
0.4491280311
 40
0.5288752173
 40
0.6036793352
 40
0.67296521
 40
0.7362299847
 40
0.7930599791
 40
0.8431556762
 40
0.8656317516
 40
0.8863875743
 40
0.9054424291
 40
0.922838561
 40
0.9386485266
 40
0.9529853378
 40
0.9660155846
 40
0.9779739355
 40
0.9891733356
 40
1.0
 40
1.0
 40
1.0
 40
1.0
 10
193.4099823892
 20
77.933785447
 30
0.0
 10
189.6707554415
 20
77.9687354172
 30
0.0
 10
184.1183920207
 20
78.1378822097
 30
0.0
 10
176.825644883
 20
78.6111897263
 30
0.0
 10
171.5950721114
 20
79.0775760883
 30
0.0
 10
166.5937485813
 20
79.6545885763
 30
0.0
 10
161.8658650485
 20
80.3369982909
 30
0.0
 10
157.4531485659
 20
81.1185311072
 30
0.0
 10
153.3944198209
 20
81.9920028671
 30
0.0
 10
149.7249540069
 20
82.9493068616
 30
0.0
 10
146.4766758744
 20
83.9817090276
 30
0.0
 10
144.0623127275
 20
84.9278237266
 30
0.0
 10
142.3723433441
 20
85.7255572398
 30
0.0
 10
141.273082355
 20
86.3152204082
 30
0.0
 10
140.2977597182
 20
86.9167815914
 30
0.0
 10
139.4483177056
 20
87.529178367
 30
0.0
 10
138.7263958902
 20
88.1514460443
 30
0.0
 10
138.1334603548
 20
88.7829065062
 30
0.0
 10
137.6710579301
 20
89.4231450027
 30
0.0
 10
137.3412556247
 20
90.0719993286
 30
0.0
 10
137.1469436174
 20
90.7281559874
 30
0.0
 10
137.1095858908
 20
91.1712101212
 30
0.0
 10
137.114054218
 20
91.3878799323
 30
0.0
  0
SPLINE
  5
38B
100
AcDbEntity
  8
DTM_AXIS
100
AcDbSpline
 62
7
  6
CONTINUOUS
 70
0
 71
3
 72
27
 73
23
 74
0
 42
0.0000001
 43
0.0000001
 44
0.0000000001
 40
0.0
 40
0.0
 40
0.0
 40
0.0
 40
0.18681199
 40
0.2773926975
 40
0.3650725752
 40
0.4491280438
 40
0.5288752313
 40
0.6036793499
 40
0.6729652248
 40
0.736229999
 40
0.7930599921
 40
0.8431556871
 40
0.8656317615
 40
0.8863875829
 40
0.9054424362
 40
0.9228385667
 40
0.9386485307
 40
0.9529853405
 40
0.9660155859
 40
0.9779739359
 40
0.9891733355
 40
1.0
 40
1.0
 40
1.0
 40
1.0
 10
192.9778516556
 20
76.4622651546
 30
0.0
 10
188.8383943074
 20
76.5009560159
 30
0.0
 10
182.6917303409
 20
76.6882075423
 30
0.0
 10
174.6183996532
 20
77.2121758379
 30
0.0
 10
168.8279694209
 20
77.7284821611
 30
0.0
 10
163.291326284
 20
78.3672555563
 30
0.0
 10
158.0573909863
 20
79.1227074364
 30
0.0
 10
153.1723568636
 20
79.9878921187
 30
0.0
 10
148.679199801
 20
80.9548564927
 30
0.0
 10
144.6169706961
 20
82.0146261276
 30
0.0
 10
141.0210113877
 20
83.1575321132
 30
0.0
 10
138.3482256518
 20
84.2049148124
 30
0.0
 10
136.4773695713
 20
85.0880342283
 30
0.0
 10
135.2604486808
 20
85.7408123684
 30
0.0
 10
134.1807319697
 20
86.4067620316
 30
0.0
 10
133.2403695951
 20
87.0847070748
 30
0.0
 10
132.4411766316
 20
87.7735795634
 30
0.0
 10
131.7847760774
 20
88.4726287858
 30
0.0
 10
131.2728803432
 20
89.1813956144
 30
0.0
 10
130.9077776606
 20
89.8997004616
 30
0.0
 10
130.6926675668
 20
90.6260892576
 30
0.0
 10
130.6513114388
 20
91.1165659457
 30
0.0
 10
130.6562580921
 20
91.3564271334
 30
0.0
  0
SPLINE
  5
38C
100
AcDbEntity
  8
DTM_AXIS
100
AcDbSpline
 62
7
  6
CONTINUOUS
 70
0
 71
3
 72
27
 73
23
 74
0
 42
0.0000001
 43
0.0000001
 44
0.0000000001
 40
0.0
 40
0.0
 40
0.0
 40
0.0
 40
0.18681199
 40
0.2773926975
 40
0.3650725752
 40
0.4491280438
 40
0.5288752313
 40
0.6036793499
 40
0.6729652248
 40
0.736229999
 40
0.7930599921
 40
0.8431556871
 40
0.8656317615
 40
0.8863875829
 40
0.9054424362
 40
0.9228385667
 40
0.9386485307
 40
0.9529853405
 40
0.9660155859
 40
0.9779739359
 40
0.9891733355
 40
1.0
 40
1.0
 40
1.0
 40
1.0
 10
192.9813400123
 20
75.6768824534
 30
0.0
 10
188.840581578
 20
75.7155854756
 30
0.0
 10
182.6919856339
 20
75.9028958577
 30
0.0
 10
174.6161173917
 20
76.4270288435
 30
0.0
 10
168.8238671508
 20
76.9434974486
 30
0.0
 10
163.2854837738
 20
77.5824716186
 30
0.0
 10
158.0499033811
 20
78.3381609472
 30
0.0
 10
153.1633338277
 20
79.2036175685
 30
0.0
 10
148.6687645066
 20
80.1708858722
 30
0.0
 10
144.6052585893
 20
81.2309886067
 30
0.0
 10
141.0081690235
 20
82.3742538228
 30
0.0
 10
138.3345431957
 20
83.4219657281
 30
0.0
 10
136.4630990805
 20
84.3053627201
 30
0.0
 10
135.2457956956
 20
84.958346037
 30
0.0
 10
134.1657396154
 20
85.624505017
 30
0.0
 10
133.2250816724
 20
86.3026631473
 30
0.0
 10
132.425637512
 20
86.9917521576
 30
0.0
 10
131.7690306425
 20
87.6910211004
 30
0.0
 10
131.2569740127
 20
88.4000107038
 30
0.0
 10
130.8917565734
 20
89.1185413236
 30
0.0
 10
130.6765788678
 20
89.8451584333
 30
0.0
 10
130.635209741
 20
90.3357892846
 30
0.0
 10
130.6401579491
 20
90.5757258639
 30
0.0
  0
SPLINE
  5
38D
100
AcDbEntity
  8
DTM_AXIS
100
AcDbSpline
 62
7
  6
CONTINUOUS
 70
0
 71
3
 72
28
 73
24
 74
0
 42
0.0000001
 43
0.0000001
 44
0.0000000001
 40
0.0
 40
0.0
 40
0.0
 40
0.0
 40
0.1812678583
 40
0.2705455736
 40
0.3577225139
 40
0.4419341695
 40
0.5223535916
 40
0.5982032792
 40
0.6687679805
 40
0.7334093324
 40
0.7915841833
 40
0.8181129535
 40
0.8428790916
 40
0.865855824
 40
0.8870309074
 40
0.9064103759
 40
0.924023965
 40
0.9399330343
 40
0.9542420318
 40
0.9671143326
 40
0.978791542
 40
0.9896100752
 40
1.0
 40
1.0
 40
1.0
 40
1.0
 10
192.9813400123
 20
75.6768824534
 30
0.0
 10
197.5509383338
 20
75.6341711317
 30
0.0
 10
204.3741207282
 20
75.7292416854
 30
0.0
 10
213.3819128042
 20
76.1757455202
 30
0.0
 10
219.9360305783
 20
76.6629980941
 30
0.0
 10
226.2530051165
 20
77.2987904357
 30
0.0
 10
232.2664134523
 20
78.0762835856
 30
0.0
 10
237.9130037134
 20
78.9870045386
 30
0.0
 10
243.1337030308
 20
80.0209531669
 30
0.0
 10
247.8738546986
 20
81.1668879834
 30
0.0
 10
251.4866848479
 20
82.2347272443
 30
0.0
 10
254.0921616919
 20
83.146048634
 30
0.0
 10
255.8362274122
 20
83.8286413873
 30
0.0
 10
257.4266235342
 20
84.5296262166
 30
0.0
 10
258.8593480069
 20
85.2472374867
 30
0.0
 10
260.1308944148
 20
85.9796821387
 30
0.0
 10
261.2382613282
 20
86.7252793079
 30
0.0
 10
262.1789397371
 20
87.4825548121
 30
0.0
 10
262.9507951478
 20
88.2504484504
 30
0.0
 10
263.5517084823
 20
89.0283986838
 30
0.0
 10
263.9788176564
 20
89.816470596
 30
0.0
 10
264.2277114699
 20
90.6132823213
 30
0.0
 10
264.2716331441
 20
91.1515448245
 30
0.0
 10
264.2629499537
 20
91.413332882
 30
0.0
  0
SPLINE
  5
38E
100
AcDbEntity
  8
DTM_AXIS
100
AcDbSpline
 62
7
  6
CONTINUOUS
 70
0
 71
3
 72
29
 73
25
 74
0
 42
0.0000001
 43
0.0000001
 44
0.0000000001
 40
0.0
 40
0.0
 40
0.0
 40
0.0
 40
0.1945898029
 40
0.2885905586
 40
0.3791905806
 40
0.4655389091
 40
0.5468382762
 40
0.6223582507
 40
0.6914504881
 40
0.7535681443
 40
0.7818792193
 40
0.8083032741
 40
0.8328160398
 40
0.8554089398
 40
0.8760931845
 40
0.8949056742
 40
0.9119175546
 40
0.9272464472
 40
0.9410730259
 40
0.9536605661
 40
0.9653704963
 40
0.9766585156
 40
0.9880354788
 40
1.0
 40
1.0
 40
1.0
 40
1.0
 10
192.9410911541
 20
75.5398243666
 30
0.0
 10
188.4825592845
 20
75.5814975675
 30
0.0
 10
181.870010872
 20
75.792078721
 30
0.0
 10
173.2013110847
 20
76.3892087451
 30
0.0
 10
167.0200512396
 20
76.9774808406
 30
0.0
 10
161.1467131891
 20
77.7049356021
 30
0.0
 10
155.6404819009
 20
78.5640205606
 30
0.0
 10
150.5566273034
 20
79.545631472
 30
0.0
 10
145.9461936506
 20
80.6395114883
 30
0.0
 10
142.4351014916
 20
81.6639997128
 30
0.0
 10
139.9049371711
 20
82.5414913333
 30
0.0
 10
138.2122207264
 20
83.2000961566
 30
0.0
 10
136.6691261585
 20
83.8779506408
 30
0.0
 10
135.2793693993
 20
84.5734273848
 30
0.0
 10
134.0462025592
 20
85.2848739818
 30
0.0
 10
132.9724090643
 20
86.0107485198
 30
0.0
 10
132.060323878
 20
86.7497180553
 30
0.0
 10
131.3119612302
 20
87.5008272058
 30
0.0
 10
130.7293749415
 20
88.2636311919
 30
0.0
 10
130.3153706481
 20
89.0380095846
 30
0.0
 10
130.074159367
 20
89.8229562527
 30
0.0
 10
130.0103973074
 20
90.6146759826
 30
0.0
 10
130.1255914942
 20
91.4060142157
 30
0.0
 10
130.3130115561
 20
91.9112212803
 30
0.0
 10
130.4304517763
 20
92.1589414238
 30
0.0
  0
SPLINE
  5
38F
100
AcDbEntity
  8
DTM_AXIS
100
AcDbSpline
 62
7
  6
CONTINUOUS
 70
0
 71
3
 72
27
 73
23
 74
0
 42
0.0000001
 43
0.0000001
 44
0.0000000001
 40
0.0
 40
0.0
 40
0.0
 40
0.0
 40
0.0108531664
 40
0.0222774701
 40
0.0346066938
 40
0.0481008393
 40
0.0629501919
 40
0.0792877004
 40
0.0972021242
 40
0.1167489175
 40
0.1379583789
 40
0.1608415094
 40
0.2115918637
 40
0.2688438636
 40
0.3322913922
 40
0.4015256789
 40
0.4760568486
 40
0.5553287959
 40
0.6387305945
 40
0.725606067
 40
0.8152623695
 40
1.0
 40
1.0
 40
1.0
 40
1.0
 10
263.0048835829
 20
91.6105445217
 30
0.0
 10
262.9829366129
 20
91.844199686
 30
0.0
 10
262.8880107566
 20
92.3202745576
 30
0.0
 10
262.6040241321
 20
93.0166544298
 30
0.0
 10
262.1795249713
 20
93.7048378359
 30
0.0
 10
261.6170262201
 20
94.3839216305
 30
0.0
 10
260.9183043823
 20
95.053705817
 30
0.0
 10
260.0848696683
 20
95.713580688
 30
0.0
 10
259.1183022773
 20
96.3626929888
 30
0.0
 10
258.020424916
 20
96.9999517925
 30
0.0
 10
256.7933826739
 20
97.6242074341
 30
0.0
 10
254.9229167602
 20
98.4667359961
 30
0.0
 10
252.2719631676
 20
99.4658431123
 30
0.0
 10
248.7268536939
 20
100.5563427331
 30
0.0
 10
244.7444726996
 20
101.5664739586
 30
0.0
 10
240.3583600372
 20
102.4873384792
 30
0.0
 10
235.6054166896
 20
103.310697449
 30
0.0
 10
230.5260557078
 20
104.0292530556
 30
0.0
 10
225.1635922847
 20
104.6366344126
 30
0.0
 10
219.5637956711
 20
105.1275323123
 30
0.0
 10
211.7672872327
 20
105.6257248832
 30
0.0
 10
205.8341341158
 20
105.8043887132
 30
0.0
 10
201.8396313169
 20
105.8417247069
 30
0.0
  0
SPLINE
  5
390
100
AcDbEntity
  8
DTM_AXIS
100
AcDbSpline
 62
7
  6
CONTINUOUS
 70
0
 71
3
 72
27
 73
23
 74
0
 42
0.0000001
 43
0.0000001
 44
0.0000000001
 40
0.0
 40
0.0
 40
0.0
 40
0.0
 40
0.0108266644
 40
0.0220260645
 40
0.0339844155
 40
0.0470146624
 40
0.0613514736
 40
0.0771614392
 40
0.0945575713
 40
0.113612426
 40
0.1343682488
 40
0.1568443244
 40
0.2069400216
 40
0.2637700159
 40
0.3270347906
 40
0.3963206655
 40
0.4711247834
 40
0.5508719695
 40
0.6349274362
 40
0.7226073115
 40
0.8131880162
 40
1.0
 40
1.0
 40
1.0
 40
1.0
 10
263.0352699755
 20
92.001203526
 30
0.0
 10
263.0401274651
 20
92.2367445985
 30
0.0
 10
262.9995160006
 20
92.7183873561
 30
0.0
 10
262.78828002
 20
93.4316932028
 30
0.0
 10
262.4297529584
 20
94.1370607048
 30
0.0
 10
261.9270767159
 20
94.8330619574
 30
0.0
 10
261.2824983589
 20
95.5195206545
 30
0.0
 10
260.4976994038
 20
96.195985888
 30
0.0
 10
259.5742736468
 20
96.8617204952
 30
0.0
 10
258.514003468
 20
97.5156757812
 30
0.0
 10
257.3190002841
 20
98.156696752
 30
0.0
 10
255.4818398601
 20
99.0239103512
 30
0.0
 10
252.8571932499
 20
100.0524286713
 30
0.0
 10
249.3260002755
 20
101.1747498262
 30
0.0
 10
245.3369354945
 20
102.2154319913
 30
0.0
 10
240.9247042034
 20
103.1649804018
 30
0.0
 10
236.1276539546
 20
104.0145822693
 30
0.0
 10
230.9879865973
 20
104.7564277283
 30
0.0
 10
225.5510634784
 20
105.3836961963
 30
0.0
 10
219.8649242281
 20
105.8907033411
 30
0.0
 10
211.9370016954
 20
106.4052344583
 30
0.0
 10
205.9010448423
 20
106.5891134053
 30
0.0
 10
201.8361429602
 20
106.6271074082
 30
0.0
  0
SPLINE
  5
391
100
AcDbEntity
  8
DTM_AXIS
100
AcDbSpline
 62
7
  6
CONTINUOUS
 70
0
 71
3
 72
26
 73
22
 74
0
 42
0.0000001
 43
0.0000001
 44
0.0000000001
 40
0.0
 40
0.0
 40
0.0
 40
0.0
 40
0.0108934455
 40
0.0224246571
 40
0.0349075426
 40
0.0485835962
 40
0.063628218
 40
0.0801632798
 40
0.0982696001
 40
0.1179970312
 40
0.1393719495
 40
0.1624026322
 40
0.2133879309
 40
0.2707881843
 40
0.3342954392
 40
0.4035030686
 40
0.4779261702
 40
0.5570157637
 40
0.6401697507
 40
0.8160392022
 40
1.0
 40
1.0
 40
1.0
 40
1.0
 10
256.5394077914
 20
91.96461102
 30
0.0
 10
256.5106998991
 20
92.1745595558
 30
0.0
 10
256.4072037624
 20
92.6016362853
 30
0.0
 10
256.1275124401
 20
93.2238456394
 30
0.0
 10
255.7232833444
 20
93.8386661195
 30
0.0
 10
255.1965888985
 20
94.4453744768
 30
0.0
 10
254.5489155398
 20
95.0437553138
 30
0.0
 10
253.7815932183
 20
95.6332100845
 30
0.0
 10
252.8960512438
 20
96.212940308
 30
0.0
 10
251.8939473527
 20
96.7819556685
 30
0.0
 10
250.7772249083
 20
97.3392257152
 30
0.0
 10
249.0800470294
 20
98.0906928042
 30
0.0
 10
246.6814898148
 20
98.9817666076
 30
0.0
 10
243.4808472661
 20
99.9544358846
 30
0.0
 10
239.8927174367
 20
100.8550790804
 30
0.0
 10
235.9469484486
 20
101.6758706981
 30
0.0
 10
231.6763306379
 20
102.4095534367
 30
0.0
 10
227.1167031075
 20
103.0497739088
 30
0.0
 10
220.5801473377
 20
103.7848142334
 30
0.0
 10
211.9832118798
 20
104.4210601973
 30
0.0
 10
204.9844900515
 20
104.6312771388
 30
0.0
 10
201.4061924496
 20
104.6647229275
 30
0.0
  0
SPLINE
  5
392
100
AcDbEntity
  8
DTM_AXIS
100
AcDbSpline
 62
7
  6
CONTINUOUS
 70
0
 71
3
 72
27
 73
23
 74
0
 42
0.0000001
 43
0.0000001
 44
0.0000000001
 40
0.0
 40
0.0
 40
0.0
 40
0.0
 40
0.0108266646
 40
0.0220260637
 40
0.033984413
 40
0.0470146576
 40
0.0613514662
 40
0.0771614292
 40
0.0945575586
 40
0.1136124108
 40
0.1343682312
 40
0.1568443047
 40
0.2069399983
 40
0.2637699905
 40
0.3270347642
 40
0.3963206392
 40
0.4711247584
 40
0.5508719469
 40
0.6349274169
 40
0.7226072962
 40
0.8131880056
 40
1.0
 40
1.0
 40
1.0
 40
1.0
 10
256.5774737783
 20
91.96974778
 30
0.0
 10
256.5818531018
 20
92.1820974886
 30
0.0
 10
256.5452405335
 20
92.6163177254
 30
0.0
 10
256.3548031829
 20
93.2593915658
 30
0.0
 10
256.0315769968
 20
93.8953086633
 30
0.0
 10
255.5783945408
 20
94.5227817215
 30
0.0
 10
254.9972816184
 20
95.1416517772
 30
0.0
 10
254.2897541923
 20
95.751512327
 30
0.0
 10
253.4572491305
 20
96.351698787
 30
0.0
 10
252.5013733223
 20
96.9412657148
 30
0.0
 10
251.4240302982
 20
97.5191718512
 30
0.0
 10
249.7677568317
 20
98.3009997114
 30
0.0
 10
247.4015330356
 20
99.2282502741
 30
0.0
 10
244.2180213593
 20
100.2400678357
 30
0.0
 10
240.6217198378
 20
101.1782845888
 30
0.0
 10
236.6439166872
 20
102.0343406044
 30
0.0
 10
232.3191837659
 20
102.8002908
 30
0.0
 10
227.6855677365
 20
103.4690942725
 30
0.0
 10
222.7839636788
 20
104.0346019799
 30
0.0
 10
217.6576812528
 20
104.4916892844
 30
0.0
 10
210.5103412985
 20
104.9555597481
 30
0.0
 10
205.0686842301
 20
105.1213339991
 30
0.0
 10
201.4040122266
 20
105.1555871158
 30
0.0
  0
SPLINE
  5
393
100
AcDbEntity
  8
DTM_AXIS
100
AcDbSpline
 62
7
  6
CONTINUOUS
 70
0
 71
3
 72
31
 73
27
 74
0
 42
0.0000001
 43
0.0000001
 44
0.0000000001
 40
0.0
 40
0.0
 40
0.0
 40
0.0
 40
0.0168035009
 40
0.0317913944
 40
0.0452615516
 40
0.0576433725
 40
0.0694997425
 40
0.0814744107
 40
0.0941918233
 40
0.1081692808
 40
0.1237863302
 40
0.141299438
 40
0.1608711668
 40
0.1825965222
 40
0.2065222123
 40
0.2326597143
 40
0.2609939747
 40
0.2914892479
 40
0.3587316715
 40
0.4338226841
 40
0.5160209154
 40
0.6044561284
 40
0.6981554424
 40
0.7960645605
 40
0.8970666314
 40
1.0
 40
1.0
 40
1.0
 40
1.0
 10
253.7314391808
 20
88.0471750756
 30
0.0
 10
253.9971559996
 20
88.2720314615
 30
0.0
 10
254.479371768
 20
88.7231692095
 30
0.0
 10
255.0749914744
 20
89.4516354802
 30
0.0
 10
255.4961121471
 20
90.1910306434
 30
0.0
 10
255.7375049404
 20
90.9407782037
 30
0.0
 10
255.7929045468
 20
91.6965022927
 30
0.0
 10
255.660106094
 20
92.449319679
 30
0.0
 10
255.3435680204
 20
93.1916332589
 30
0.0
 10
254.8496061176
 20
93.9209152942
 30
0.0
 10
254.1824839711
 20
94.6372701326
 30
0.0
 10
253.3447991283
 20
95.3407189635
 30
0.0
 10
252.3387665238
 20
96.0305091611
 30
0.0
 10
251.1669248864
 20
96.7052763448
 30
0.0
 10
249.832379836
 20
97.3633199943
 30
0.0
 10
248.3388423721
 20
98.0027739743
 30
0.0
 10
246.690616726
 20
98.6217873738
 30
0.0
 10
244.2113268565
 20
99.4442507615
 30
0.0
 10
240.7570265837
 20
100.3945136297
 30
0.0
 10
236.2125730453
 20
101.3927063826
 30
0.0
 10
231.197057686
 20
102.2697329373
 30
0.0
 10
225.771158993
 20
103.0145142442
 30
0.0
 10
220.0004953534
 20
103.6175142056
 30
0.0
 10
213.9551835305
 20
104.0711030196
 30
0.0
 10
207.7088274941
 20
104.3695455567
 30
0.0
 10
203.4847251959
 20
104.4620494912
 30
0.0
 10
201.3525273053
 20
104.4819788118
 30
0.0
  0
SPLINE
  5
394
100
AcDbEntity
  8
DTM_AXIS
100
AcDbSpline
 62
7
  6
CONTINUOUS
 70
0
 71
3
 72
28
 73
24
 74
0
 42
0.0000001
 43
0.0000001
 44
0.0000000001
 40
0.0
 40
0.0
 40
0.0
 40
0.0
 40
0.1895543576
 40
0.2813503573
 40
0.3700794909
 40
0.4549757489
 40
0.5353172332
 40
0.6104366991
 40
0.6797335154
 40
0.7426883463
 40
0.7988831257
 40
0.8243545489
 40
0.8480425042
 40
0.8699407551
 40
0.8900602673
 40
0.9084341217
 40
0.9251245283
 40
0.9402327138
 40
0.9539122346
 40
0.9663849358
 40
0.9779550608
 40
0.9890108143
 40
1.0
 40
1.0
 40
1.0
 40
1.0
 10
192.7234157915
 20
73.1038203466
 30
0.0
 10
188.2336810791
 20
73.1457851956
 30
0.0
 10
181.569556183
 20
73.3519453179
 30
0.0
 10
172.822135035
 20
73.9314949967
 30
0.0
 10
166.5604101724
 20
74.5025571074
 30
0.0
 10
160.5855992972
 20
75.2089841466
 30
0.0
 10
154.9529477584
 20
76.0440570692
 30
0.0
 10
149.7145189349
 20
76.9997363716
 30
0.0
 10
144.9183482224
 20
78.0667495745
 30
0.0
 10
140.6084572946
 20
79.23487742
 30
0.0
 10
137.3549261378
 20
80.3154901674
 30
0.0
 10
135.033640508
 20
81.2331599415
 30
0.0
 10
133.4951395576
 20
81.9171562634
 30
0.0
 10
132.1047090529
 20
82.6179841155
 30
0.0
 10
130.865360435
 20
83.3341679422
 30
0.0
 10
129.7796826674
 20
84.0642509673
 30
0.0
 10
128.8498735239
 20
84.8069596869
 30
0.0
 10
128.0778286325
 20
85.5613075328
 30
0.0
 10
127.4654052633
 20
86.326734901
 30
0.0
 10
127.0149366619
 20
87.1029474656
 30
0.0
 10
126.7298408616
 20
87.8893745929
 30
0.0
 10
126.6141806813
 20
88.6828949836
 30
0.0
 10
126.6513536666
 20
89.2083739558
 30
0.0
 10
126.6961699999
 20
89.4647851868
 30
0.0
  0
SPLINE
  5
395
100
AcDbEntity
  8
DTM_AXIS
100
AcDbSpline
 62
7
  6
CONTINUOUS
 70
0
 71
3
 72
27
 73
23
 74
0
 42
0.0000001
 43
0.0000001
 44
0.0000000001
 40
0.0
 40
0.0
 40
0.0
 40
0.0
 40
0.1868119841
 40
0.2773926889
 40
0.3650725643
 40
0.4491280311
 40
0.5288752173
 40
0.6036793352
 40
0.67296521
 40
0.7362299847
 40
0.7930599791
 40
0.8431556762
 40
0.8656317516
 40
0.8863875743
 40
0.9054424291
 40
0.922838561
 40
0.9386485266
 40
0.9529853378
 40
0.9660155846
 40
0.9779739355
 40
0.9891733356
 40
1.0
 40
1.0
 40
1.0
 40
1.0
 10
193.4134707459
 20
77.1484027457
 30
0.0
 10
189.6729427122
 20
77.183364877
 30
0.0
 10
184.1186473138
 20
77.3525705251
 30
0.0
 10
176.8233626218
 20
77.8260427319
 30
0.0
 10
171.5909698416
 20
78.2925913757
 30
0.0
 10
166.5879060716
 20
78.8698046386
 30
0.0
 10
161.8583774438
 20
79.5524518016
 30
0.0
 10
157.4441255305
 20
80.334256557
 30
0.0
 10
153.383984527
 20
81.2080322465
 30
0.0
 10
149.7132419007
 20
82.1656693405
 30
0.0
 10
146.4638335107
 20
83.1984307369
 30
0.0
 10
144.0486302719
 20
84.1448746421
 30
0.0
 10
142.3580728538
 20
84.9428857314
 30
0.0
 10
141.2584293703
 20
85.5327540766
 30
0.0
 10
140.2827673643
 20
86.1345245765
 30
0.0
 10
139.4330297833
 20
86.7471344392
 30
0.0
 10
138.7108567709
 20
87.3696186382
 30
0.0
 10
138.1177149201
 20
88.0012988205
 30
0.0
 10
137.6551515998
 20
88.6417600918
 30
0.0
 10
137.3252345378
 20
89.2908401903
 30
0.0
 10
137.1308549184
 20
89.9472251627
 30
0.0
 10
137.093484193
 20
90.3904334598
 30
0.0
 10
137.097954075
 20
90.6071786624
 30
0.0
  0
SPLINE
  5
396
100
AcDbEntity
  8
DTM_AXIS
100
AcDbSpline
 62
7
  6
CONTINUOUS
 70
0
 71
3
 72
28
 73
24
 74
0
 42
0.0000001
 43
0.0000001
 44
0.0000000001
 40
0.0
 40
0.0
 40
0.0
 40
0.0
 40
0.1812678624
 40
0.2705455796
 40
0.3577225216
 40
0.4419341786
 40
0.5223536018
 40
0.59820329
 40
0.6687679916
 40
0.7334093432
 40
0.7915841931
 40
0.8181129628
 40
0.8428791
 40
0.8658558316
 40
0.8870309141
 40
0.9064103815
 40
0.9240239694
 40
0.9399330376
 40
0.9542420341
 40
0.9671143338
 40
0.9787915423
 40
0.9896100751
 40
1.0
 40
1.0
 40
1.0
 40
1.0
 10
193.4134707459
 20
77.1484027457
 30
0.0
 10
197.5413889308
 20
77.1098197393
 30
0.0
 10
203.7050682505
 20
77.1957011376
 30
0.0
 10
211.8422011142
 20
77.5990476126
 30
0.0
 10
217.7628225662
 20
78.0392042033
 30
0.0
 10
223.4692221365
 20
78.6135432797
 30
0.0
 10
228.901397048
 20
79.3158868959
 30
0.0
 10
234.0022091144
 20
80.138581024
 30
0.0
 10
238.7182952246
 20
81.0725921051
 30
0.0
 10
243.0002815809
 20
82.1077652067
 30
0.0
 10
246.2639090634
 20
83.0723911889
 30
0.0
 10
248.6175502253
 20
83.8956277021
 30
0.0
 10
250.1930410301
 20
84.5122436324
 30
0.0
 10
251.6297153525
 20
85.1454739245
 30
0.0
 10
252.9239579674
 20
85.7937236054
 30
0.0
 10
254.0726013719
 20
86.4553729334
 30
0.0
 10
255.072934248
 20
87.1289034981
 30
0.0
 10
255.922690088
 20
87.8129836247
 30
0.0
 10
256.6199407251
 20
88.5066555645
 30
0.0
 10
257.1627718994
 20
89.2094120704
 30
0.0
 10
257.548598127
 20
89.9213119414
 30
0.0
 10
257.7734346762
 20
90.6411068535
 30
0.0
 10
257.8131108615
 20
91.1273429243
 30
0.0
 10
257.8052669349
 20
91.3638275304
 30
0.0
  0
SPLINE
  5
397
100
AcDbEntity
  8
DTM_AXIS
100
AcDbSpline
 62
7
  6
CONTINUOUS
 70
0
 71
3
 72
24
 73
20
 74
0
 42
0.0000001
 43
0.0000001
 44
0.0000000001
 40
0.0
 40
0.0
 40
0.0
 40
0.0
 40
0.0109318852
 40
0.0220039049
 40
0.0336512361
 40
0.0462448023
 40
0.060071995
 40
0.0753409294
 40
0.1106995907
 40
0.1529878225
 40
0.2023639561
 40
0.2587154714
 40
0.3217525764
 40
0.3910579365
 40
0.4661158498
 40
0.5463314575
 40
0.6310449477
 40
0.8110561263
 40
1.0
 40
1.0
 40
1.0
 40
1.0
 10
224.7646342887
 20
93.2080167065
 30
0.0
 10
224.7784072599
 20
93.306833235
 30
0.0
 10
224.785519684
 20
93.5093037838
 30
0.0
 10
224.7306496952
 20
93.8136368009
 30
0.0
 10
224.6113027092
 20
94.1150473449
 30
0.0
 10
224.4290048568
 20
94.4124949321
 30
0.0
 10
224.1850099376
 20
94.7058557431
 30
0.0
 10
223.7572019132
 20
95.1112108477
 30
0.0
 10
223.058197387
 20
95.5987478813
 30
0.0
 10
222.0286855398
 20
96.1356752103
 30
0.0
 10
220.7766899211
 20
96.6471711333
 30
0.0
 10
219.3126370432
 20
97.1286358966
 30
0.0
 10
217.6487661863
 20
97.5756252168
 30
0.0
 10
215.7998887506
 20
97.9838381496
 30
0.0
 10
213.782655831
 20
98.3493578773
 30
0.0
 10
211.6154223309
 20
98.6687233889
 30
0.0
 10
208.4884174515
 20
99.0362592799
 30
0.0
 10
204.3583014964
 20
99.3536628754
 30
0.0
 10
200.9913418836
 20
99.4576764557
 30
0.0
 10
199.2669881958
 20
99.4737937202
 30
0.0
  0
SPLINE
  5
398
100
AcDbEntity
  8
DTM_AXIS
100
AcDbSpline
 62
7
  6
CONTINUOUS
 70
0
 71
3
 72
25
 73
21
 74
0
 42
0.0000001
 43
0.0000001
 44
0.0000000001
 40
0.0
 40
0.0
 40
0.0
 40
0.0
 40
0.011062962
 40
0.0221146818
 40
0.0336148807
 40
0.0459694842
 40
0.0595007011
 40
0.0744452993
 40
0.0909679912
 40
0.1091779315
 40
0.1508813312
 40
0.1997952932
 40
0.2558295852
 40
0.3187019473
 40
0.3879936737
 40
0.4631816842
 40
0.5436593233
 40
0.6287515573
 40
0.8097960236
 40
1.0
 40
1.0
 40
1.0
 40
1.0
 10
223.7453343062
 20
93.1105643876
 30
0.0
 10
223.7655353946
 20
93.2060889237
 30
0.0
 10
223.7866080566
 20
93.401854245
 30
0.0
 10
223.753942298
 20
93.6989122274
 30
0.0
 10
223.6573370315
 20
93.9935548468
 30
0.0
 10
223.4983141076
 20
94.2844297507
 30
0.0
 10
223.2782455739
 20
94.5712507514
 30
0.0
 10
222.998061986
 20
94.8539074483
 30
0.0
 10
222.6584962489
 20
95.1322499885
 30
0.0
 10
222.1018685182
 20
95.5144918165
 30
0.0
 10
221.2538265439
 20
95.9708719435
 30
0.0
 10
220.0590110682
 20
96.4717089916
 30
0.0
 10
218.6539231783
 20
96.9435406106
 30
0.0
 10
217.0511243795
 20
97.3818716968
 30
0.0
 10
215.2649280585
 20
97.7824151861
 30
0.0
 10
213.3118096478
 20
98.1412346263
 30
0.0
 10
211.2098898238
 20
98.454857917
 30
0.0
 10
208.1718315239
 20
98.8160203723
 30
0.0
 10
204.1546230485
 20
99.1277353496
 30
0.0
 10
200.8784961641
 20
99.2296740627
 30
0.0
 10
199.1999067654
 20
99.2453635756
 30
0.0
  0
SPLINE
  5
399
100
AcDbEntity
  8
DTM_AXIS
100
AcDbSpline
 62
7
  6
CONTINUOUS
 70
0
 71
3
 72
16
 73
12
 74
0
 42
0.0000001
 43
0.0000001
 44
0.0000000001
 40
0.0
 40
0.0
 40
0.0
 40
0.0
 40
0.0352003282
 40
0.0712281393
 40
0.1497919699
 40
0.2426793663
 40
0.3536905318
 40
0.4846408032
 40
0.6361572951
 40
0.8081385128
 40
1.0
 40
1.0
 40
1.0
 40
1.0
 10
221.1801359428
 20
91.3694276191
 30
0.0
 10
221.1841307165
 20
91.4474435227
 30
0.0
 10
221.17706761
 20
91.6064954979
 30
0.0
 10
221.0997445313
 20
91.9315972129
 30
0.0
 10
220.8736712838
 20
92.3420612036
 30
0.0
 10
220.4380193228
 20
92.7986249871
 30
0.0
 10
219.836904482
 20
93.2400991482
 30
0.0
 10
219.0727054787
 20
93.6658912005
 30
0.0
 10
218.1494619992
 20
94.0744303939
 30
0.0
 10
217.0729751167
 20
94.4628473361
 30
0.0
 10
216.2989699893
 20
94.694231257
 30
0.0
 10
215.8884668712
 20
94.807289308
 30
0.0
  0
LINE
  5
39A
100
AcDbEntity
  8
DTM_AXIS
100
AcDbLine
 62
7
  6
CONTINUOUS
 10
216.682704542
 20
91.437357109
 11
216.6840344952
 21
91.4456969803
  0
SPLINE
  5
39B
100
AcDbEntity
  8
DTM_AXIS
100
AcDbSpline
 62
7
  6
CONTINUOUS
 70
0
 71
3
 72
22
 73
18
 74
0
 42
0.0000001
 43
0.0000001
 44
0.0000000001
 40
0.0
 40
0.0
 40
0.0
 40
0.0
 40
0.0108829581
 40
0.0219858386
 40
0.0463782632
 40
0.0603732426
 40
0.0758225373
 40
0.1115415859
 40
0.1541472583
 40
0.2037729815
 40
0.2602951097
 40
0.3234202391
 40
0.392732019
 40
0.4677188644
 40
0.6322833338
 40
0.8117363134
 40
1.0
 40
1.0
 40
1.0
 40
1.0
 10
216.6911044908
 20
91.5010835157
 30
0.0
 10
216.6980466687
 20
91.5705101269
 30
0.0
 10
216.6973963251
 20
91.7127056027
 30
0.0
 10
216.6335178603
 20
92.0050557237
 30
0.0
 10
216.4737617937
 20
92.2874329164
 30
0.0
 10
216.2473541132
 20
92.5482032364
 30
0.0
 10
215.9388501106
 20
92.8312982633
 30
0.0
 10
215.4397704571
 20
93.1712887482
 30
0.0
 10
214.7086506592
 20
93.546072125
 30
0.0
 10
213.8231117141
 20
93.902889133
 30
0.0
 10
212.7904467251
 20
94.2386477822
 30
0.0
 10
211.6192448786
 20
94.5502333623
 30
0.0
 10
210.3198205567
 20
94.8347327418
 30
0.0
 10
208.3705078423
 20
95.1851402962
 30
0.0
 10
205.7044563309
 20
95.5283750731
 30
0.0
 10
202.3007009136
 20
95.7889141802
 30
0.0
 10
199.9433752864
 20
95.8613729652
 30
0.0
 10
198.7364316571
 20
95.8726540788
 30
0.0
  0
SPLINE
  5
39C
100
AcDbEntity
  8
DTM_AXIS
100
AcDbSpline
 62
7
  6
CONTINUOUS
 70
0
 71
3
 72
17
 73
13
 74
0
 42
0.0000001
 43
0.0000001
 44
0.0000000001
 40
0.0
 40
0.0
 40
0.0
 40
0.0
 40
0.1860820957
 40
0.3496424501
 40
0.4914389779
 40
0.6132334516
 40
0.7183504571
 40
0.7664176519
 40
0.8126151657
 40
0.8579991503
 40
0.9036866565
 40
1.0
 40
1.0
 40
1.0
 40
1.0
 10
229.7215674303
 20
87.7575661874
 30
0.0
 10
230.1000810023
 20
87.9303956948
 30
0.0
 10
230.801448385
 20
88.2778416776
 30
0.0
 10
231.7423306713
 20
88.8487768415
 30
0.0
 10
232.5005448104
 20
89.4341382545
 30
0.0
 10
233.0730549087
 20
90.0327340971
 30
0.0
 10
233.4011762966
 20
90.5607689374
 30
0.0
 10
233.5522114777
 20
90.9818556669
 30
0.0
 10
233.6122697928
 20
91.2896074839
 30
0.0
 10
233.6218858737
 20
91.597823146
 30
0.0
 10
233.5667405763
 20
92.0147249058
 30
0.0
 10
233.4489612744
 20
92.3159279891
 30
0.0
 10
233.3466151374
 20
92.5054252255
 30
0.0
  0
SPLINE
  5
39D
100
AcDbEntity
  8
DTM_AXIS
100
AcDbSpline
 62
7
  6
CONTINUOUS
 70
0
 71
3
 72
27
 73
23
 74
0
 42
0.0000001
 43
0.0000001
 44
0.0000000001
 40
0.0
 40
0.0
 40
0.0
 40
0.0
 40
0.0104330327
 40
0.0214996188
 40
0.0335704072
 40
0.0469238422
 40
0.0617551101
 40
0.078193923
 40
0.0963213616
 40
0.1161828215
 40
0.1377971964
 40
0.1611632165
 40
0.2130614623
 40
0.2716109376
 40
0.3363875547
 40
0.4068572763
 40
0.4823987916
 40
0.5623199599
 40
0.6458711533
 40
0.7322570325
 40
0.8206475349
 40
1.0
 40
1.0
 40
1.0
 40
1.0
 10
131.8956712761
 20
90.7889161505
 30
0.0
 10
131.9164929168
 20
91.0448317235
 30
0.0
 10
132.0195630008
 20
91.5687657667
 30
0.0
 10
132.3435176468
 20
92.3339339976
 30
0.0
 10
132.8346639731
 20
93.0903787384
 30
0.0
 10
133.4896541788
 20
93.83729339
 30
0.0
 10
134.3062609453
 20
94.5745779089
 30
0.0
 10
135.2825529743
 20
95.3014252425
 30
0.0
 10
136.4163988488
 20
96.0166484968
 30
0.0
 10
137.7052624707
 20
96.7187460618
 30
0.0
 10
139.1461289626
 20
97.4061458058
 30
0.0
 10
141.3433722629
 20
98.3334324236
 30
0.0
 10
144.4521168421
 20
99.4291653724
 30
0.0
 10
148.599065574
 20
100.6186126967
 30
0.0
 10
153.2431166021
 20
101.7117532176
 30
0.0
 10
158.3374419458
 20
102.6970724754
 30
0.0
 10
163.8307088811
 20
103.5640470303
 30
0.0
 10
169.6671006722
 20
104.3035210763
 30
0.0
 10
175.7871731863
 20
104.9076845682
 30
0.0
 10
182.1285765733
 20
105.3702543346
 30
0.0
 10
190.8341074773
 20
105.7934981524
 30
0.0
 10
197.4258863596
 20
105.8829792916
 30
0.0
 10
201.8396313169
 20
105.8417247069
 30
0.0
  0
SPLINE
  5
39E
100
AcDbEntity
  8
DTM_AXIS
100
AcDbSpline
 62
7
  6
CONTINUOUS
 70
0
 71
3
 72
28
 73
24
 74
0
 42
0.0000001
 43
0.0000001
 44
0.0000000001
 40
0.0
 40
0.0
 40
0.0
 40
0.0
 40
0.0103899249
 40
0.0212084576
 40
0.0328856662
 40
0.0457579658
 40
0.0600669623
 40
0.0759760305
 40
0.0935896183
 40
0.1129690857
 40
0.1341441682
 40
0.1571208996
 40
0.181887037
 40
0.2084158066
 40
0.2665906565
 40
0.3312320081
 40
0.4017967096
 40
0.4776463979
 40
0.5580658211
 40
0.6422774781
 40
0.7294544202
 40
0.8187321375
 40
1.0
 40
1.0
 40
1.0
 40
1.0
 10
131.8603716878
 20
91.1789389486
 30
0.0
 10
131.8518475423
 20
91.4359312006
 30
0.0
 10
131.8949643987
 20
91.9643330478
 30
0.0
 10
132.1392984783
 20
92.7465476666
 30
0.0
 10
132.5585830688
 20
93.5201825911
 30
0.0
 10
133.1484878633
 20
94.2838812587
 30
0.0
 10
133.9062031947
 20
95.0377075487
 30
0.0
 10
134.8296487833
 20
95.7811102355
 30
0.0
 10
135.9167292511
 20
96.5130485303
 30
0.0
 10
137.1649815611
 20
97.2320752418
 30
0.0
 10
138.571459254
 20
97.9365403179
 30
0.0
 10
140.1327201513
 20
98.624683548
 30
0.0
 10
141.844835527
 20
99.2947716225
 30
0.0
 10
144.40258147
 20
100.1893981745
 30
0.0
 10
147.9492265978
 20
101.2376752961
 30
0.0
 10
152.6025413913
 20
102.362617306
 30
0.0
 10
157.7276005222
 20
103.3776246453
 30
0.0
 10
163.2707485596
 20
104.2716617719
 30
0.0
 10
169.1739948107
 20
105.0349117377
 30
0.0
 10
175.3752461363
 20
105.6590567705
 30
0.0
 10
181.8092963938
 20
106.1373831896
 30
0.0
 10
190.6520711309
 20
106.5757073594
 30
0.0
 10
197.3502569289
 20
106.6690362842
 30
0.0
 10
201.8361429602
 20
106.6271074082
 30
0.0
  0
LINE
  5
39F
100
AcDbEntity
  8
DTM_AXIS
100
AcDbLine
 62
7
  6
CONTINUOUS
 10
138.3562092711
 20
91.2240043668
 11
138.3572046369
 21
91.2319450533
  0
SPLINE
  5
3A0
100
AcDbEntity
  8
DTM_AXIS
100
AcDbSpline
 62
7
  6
CONTINUOUS
 70
0
 71
3
 72
27
 73
23
 74
0
 42
0.0000001
 43
0.0000001
 44
0.0000000001
 40
0.0
 40
0.0
 40
0.0
 40
0.0
 40
0.010481254
 40
0.021668837
 40
0.0339097341
 40
0.0474611184
 40
0.0625017932
 40
0.0791497668
 40
0.0974780186
 40
0.1175263989
 40
0.1393100234
 40
0.1628250768
 40
0.2149550257
 40
0.2736425834
 40
0.3384634456
 40
0.4088874557
 40
0.4843001503
 40
0.5640185171
 40
0.6473038555
 40
0.7333731677
 40
0.8214098072
 40
1.0
 40
1.0
 40
1.0
 40
1.0
 10
138.3572046369
 20
91.2319450533
 30
0.0
 10
138.3863632845
 20
91.4621916324
 30
0.0
 10
138.500277419
 20
91.9326070823
 30
0.0
 10
138.8198019635
 20
92.6164723257
 30
0.0
 10
139.2874921262
 20
93.2925259636
 30
0.0
 10
139.9006289315
 20
93.9601167173
 30
0.0
 10
140.6573470719
 20
94.6190722261
 30
0.0
 10
141.5559268644
 20
95.2685873577
 30
0.0
 10
142.5944261222
 20
95.907553702
 30
0.0
 10
143.7705322289
 20
96.5346121551
 30
0.0
 10
145.0815119261
 20
97.1483572184
 30
0.0
 10
147.0746308774
 20
97.9754880962
 30
0.0
 10
149.8867408794
 20
98.9527685034
 30
0.0
 10
153.6300483807
 20
100.0136227872
 30
0.0
 10
157.8136596181
 20
100.9881017116
 30
0.0
 10
162.3958988997
 20
101.8660740298
 30
0.0
 10
167.3311515647
 20
102.6382893497
 30
0.0
 10
172.5698973676
 20
103.2967007032
 30
0.0
 10
178.059449772
 20
103.8344460311
 30
0.0
 10
183.7445892724
 20
104.2460062475
 30
0.0
 10
191.5457316833
 20
104.6223489842
 30
0.0
 10
197.4518567328
 20
104.7016834858
 30
0.0
 10
201.4061924496
 20
104.6647229275
 30
0.0
  0
SPLINE
  5
3A1
100
AcDbEntity
  8
DTM_AXIS
100
AcDbSpline
 62
7
  6
CONTINUOUS
 70
0
 71
3
 72
22
 73
18
 74
0
 42
0.0000001
 43
0.0000001
 44
0.0000000001
 40
0.0
 40
0.0
 40
0.0
 40
0.0
 40
0.0104393981
 40
0.0211313562
 40
0.0325487528
 40
0.0450756978
 40
0.074449878
 40
0.1106415588
 40
0.1541232592
 40
0.2049191552
 40
0.2627875902
 40
0.3273094448
 40
0.397935231
 40
0.4740136746
 40
0.6395124547
 40
0.8172486572
 40
1.0
 40
1.0
 40
1.0
 40
1.0
 10
178.2081887775
 20
91.2511022846
 30
0.0
 10
178.1990126628
 20
91.326661471
 30
0.0
 10
178.1978791921
 20
91.4823387644
 30
0.0
 10
178.2507650331
 20
91.7155738266
 30
0.0
 10
178.3568166489
 20
91.9464908586
 30
0.0
 10
178.5791805942
 20
92.2673044479
 30
0.0
 10
179.002176847
 20
92.6571621187
 30
0.0
 10
179.6746373979
 20
93.0852352989
 30
0.0
 10
180.5342806049
 20
93.4967382501
 30
0.0
 10
181.5735071222
 20
93.887483771
 30
0.0
 10
182.7827467496
 20
94.2535619495
 30
0.0
 10
184.1495632464
 20
94.5907694676
 30
0.0
 10
185.6596187642
 20
94.8953594302
 30
0.0
 10
187.9063329364
 20
95.2636168825
 30
0.0
 10
190.9457410322
 20
95.610846738
 30
0.0
 10
194.7747847193
 20
95.8476729853
 30
0.0
 10
197.4040378785
 20
95.8851077553
 30
0.0
 10
198.7364316571
 20
95.8726540788
 30
0.0
  0
SPLINE
  5
3A2
100
AcDbEntity
  8
DTM_AXIS
100
AcDbSpline
 62
7
  6
CONTINUOUS
 70
0
 71
3
 72
27
 73
23
 74
0
 42
0.0000001
 43
0.0000001
 44
0.0000000001
 40
0.0
 40
0.0
 40
0.0
 40
0.0
 40
0.0103900149
 40
0.0212086423
 40
0.0328859537
 40
0.045758367
 40
0.0600674898
 40
0.0759766983
 40
0.093590441
 40
0.1129700787
 40
0.1341453467
 40
0.1571222791
 40
0.2084089644
 40
0.2665843204
 40
0.3312262331
 40
0.401791546
 40
0.4776418905
 40
0.5580620087
 40
0.6422743929
 40
0.7294520872
 40
0.8187305745
 40
1.0
 40
1.0
 40
1.0
 40
1.0
 10
138.3180546289
 20
91.2284467279
 30
0.0
 10
138.3103698438
 20
91.4601355208
 30
0.0
 10
138.3492417323
 20
91.936510914
 30
0.0
 10
138.5695189597
 20
92.6417086278
 30
0.0
 10
138.9475211141
 20
93.3391713943
 30
0.0
 10
139.4793441524
 20
94.0276762131
 30
0.0
 10
140.1624550534
 20
94.7072808106
 30
0.0
 10
140.9949785405
 20
95.3774875747
 30
0.0
 10
141.9750247458
 20
96.0373610434
 30
0.0
 10
143.1003765643
 20
96.6855842599
 30
0.0
 10
144.3683630393
 20
97.3207220063
 30
0.0
 10
146.31758904
 20
98.1796397159
 30
0.0
 10
149.0958572134
 20
99.1948376968
 30
0.0
 10
152.8226303755
 20
100.2968721261
 30
0.0
 10
157.0180063204
 20
101.3109567365
 30
0.0
 10
161.6383827836
 20
102.2260555595
 30
0.0
 10
166.6357730443
 20
103.0320569581
 30
0.0
 10
171.9577794059
 20
103.7201598039
 30
0.0
 10
177.5484570181
 20
104.2828507094
 30
0.0
 10
183.3490099018
 20
104.7140812542
 30
0.0
 10
191.3211247615
 20
105.1092479011
 30
0.0
 10
197.3598067714
 20
105.1933876725
 30
0.0
 10
201.4040122266
 20
105.1555871158
 30
0.0
  0
SPLINE
  5
3A3
100
AcDbEntity
  8
DTM_AXIS
100
AcDbSpline
 62
7
  6
CONTINUOUS
 70
0
 71
3
 72
25
 73
21
 74
0
 42
0.0000001
 43
0.0000001
 44
0.0000000001
 40
0.0
 40
0.0
 40
0.0
 40
0.0
 40
0.0105871645
 40
0.0212057387
 40
0.0323712714
 40
0.0445244779
 40
0.0580000734
 40
0.0730322263
 40
0.0897752346
 40
0.1083244846
 40
0.151004338
 40
0.2011861448
 40
0.2586527968
 40
0.3229906391
 40
0.3936438672
 40
0.4699467226
 40
0.5511454658
 40
0.6364154566
 40
0.8155884695
 40
1.0
 40
1.0
 40
1.0
 40
1.0
 10
171.1333048396
 20
92.7808020197
 30
0.0
 10
171.1100468423
 20
92.8843625699
 30
0.0
 10
171.0863162417
 20
93.0978787552
 30
0.0
 10
171.1274261167
 20
93.4226196989
 30
0.0
 10
171.2443993393
 20
93.7447540516
 30
0.0
 10
171.4349453423
 20
94.0627446389
 30
0.0
 10
171.6972833447
 20
94.3764852662
 30
0.0
 10
172.0303077234
 20
94.6859264857
 30
0.0
 10
172.4331184401
 20
94.990850585
 30
0.0
 10
173.0934909798
 20
95.4104169633
 30
0.0
 10
174.0954992639
 20
95.9100439353
 30
0.0
 10
175.5013465923
 20
96.4567012386
 30
0.0
 10
177.1487748728
 20
96.969379817
 30
0.0
 10
179.0201476825
 20
97.4422339183
 30
0.0
 10
181.0954585447
 20
97.8697379606
 30
0.0
 10
183.3519438042
 20
98.2469209996
 30
0.0
 10
185.764748712
 20
98.5694595255
 30
0.0
 10
189.2118053249
 20
98.9274419221
 30
0.0
 10
193.7049554166
 20
99.2094390386
 30
0.0
 10
197.3511960533
 20
99.2626431858
 30
0.0
 10
199.1999067654
 20
99.2453635756
 30
0.0
  0
SPLINE
  5
3A4
100
AcDbEntity
  8
DTM_AXIS
100
AcDbSpline
 62
7
  6
CONTINUOUS
 70
0
 71
3
 72
18
 73
14
 74
0
 42
0.0000001
 43
0.0000001
 44
0.0000000001
 40
0.0
 40
0.0
 40
0.0
 40
0.0
 40
0.1692603333
 40
0.3134152841
 40
0.4355722133
 40
0.4902195405
 40
0.541830975
 40
0.5916644203
 40
0.6411254125
 40
0.6916529411
 40
0.7445926124
 40
0.8618926114
 40
1.0
 40
1.0
 40
1.0
 40
1.0
 10
231.4284124499
 20
88.4048655889
 30
0.0
 10
231.7561244153
 20
88.5992165695
 30
0.0
 10
232.3471159581
 20
88.9881055482
 30
0.0
 10
233.087865066
 20
89.6358815444
 30
0.0
 10
233.5356020378
 20
90.2122576331
 30
0.0
 10
233.7611811128
 20
90.6762417687
 30
0.0
 10
233.8649165507
 20
91.013573957
 30
0.0
 10
233.908633011
 20
91.3521912563
 30
0.0
 10
233.8918108246
 20
91.690806282
 30
0.0
 10
233.8146446322
 20
92.0279990326
 30
0.0
 10
233.6258809903
 20
92.4897989023
 30
0.0
 10
233.2226028637
 20
93.0647226743
 30
0.0
 10
232.7992343338
 20
93.4581160185
 30
0.0
 10
232.5577401005
 20
93.6538926412
 30
0.0
  0
SPLINE
  5
3A5
100
AcDbEntity
  8
DTM_AXIS
100
AcDbSpline
 62
7
  6
CONTINUOUS
 70
0
 71
3
 72
25
 73
21
 74
0
 42
0.0000001
 43
0.0000001
 44
0.0000000001
 40
0.0
 40
0.0
 40
0.0
 40
0.0
 40
0.0104722087
 40
0.0211326843
 40
0.0324679484
 40
0.0448789338
 40
0.0586629808
 40
0.0740252002
 40
0.0910992735
 40
0.1099665052
 40
0.1532096017
 40
0.2038228361
 40
0.2615714285
 40
0.3260376942
 40
0.3966701893
 40
0.472813321
 40
0.5537278577
 40
0.6386070442
 40
0.8167631412
 40
1.0
 40
1.0
 40
1.0
 40
1.0
 10
170.1128564905
 20
92.8655287056
 30
0.0
 10
170.0965213038
 20
92.9729148827
 30
0.0
 10
170.0880740934
 20
93.1942545243
 30
0.0
 10
170.1536715363
 20
93.527335382
 30
0.0
 10
170.2957814051
 20
93.8572334079
 30
0.0
 10
170.5121844471
 20
94.1828480211
 30
0.0
 10
170.8013260622
 20
94.5041794638
 30
0.0
 10
171.1621998065
 20
94.8211106702
 30
0.0
 10
171.593902519
 20
95.1333411158
 30
0.0
 10
172.2951225261
 20
95.5622125675
 30
0.0
 10
173.349805249
 20
96.0728518725
 30
0.0
 10
174.8210138703
 20
96.6316736382
 30
0.0
 10
176.5366266892
 20
97.1552816057
 30
0.0
 10
178.4785778835
 20
97.6378171854
 30
0.0
 10
180.6264437431
 20
98.0737528583
 30
0.0
 10
182.9571018308
 20
98.4581240983
 30
0.0
 10
185.445363763
 20
98.7866144829
 30
0.0
 10
188.9947067056
 20
99.1508647274
 30
0.0
 10
193.6167841966
 20
99.4376977216
 30
0.0
 10
197.3664729455
 20
99.4915575394
 30
0.0
 10
199.2669881958
 20
99.4737937202
 30
0.0
  0
SPLINE
  5
3A6
100
AcDbEntity
  8
DTM_AXIS
100
AcDbSpline
 62
7
  6
CONTINUOUS
 70
0
 71
3
 72
17
 73
13
 74
0
 42
0.0000001
 43
0.0000001
 44
0.0000000001
 40
0.0
 40
0.0
 40
0.0
 40
0.0
 40
0.0963125894
 40
0.1419997563
 40
0.1873834492
 40
0.2335807344
 40
0.2816477731
 40
0.3867646899
 40
0.5085593504
 40
0.6503562836
 40
0.8139172122
 40
1.0
 40
1.0
 40
1.0
 40
1.0
 10
161.540370426
 20
92.0553077524
 30
0.0
 10
161.4404072449
 20
91.8645404113
 30
0.0
 10
161.3264130238
 20
91.5618810384
 30
0.0
 10
161.2765005865
 20
91.1443162241
 30
0.0
 10
161.2899824401
 20
90.8362420012
 30
0.0
 10
161.3538978475
 20
90.5292640368
 30
0.0
 10
161.5102067443
 20
90.1100991686
 30
0.0
 10
161.8449333265
 20
89.5862139012
 30
0.0
 10
162.4249192396
 20
88.9948369609
 30
0.0
 10
163.1904323262
 20
88.4190217915
 30
0.0
 10
164.1384219368
 20
87.8599222572
 30
0.0
 10
164.8441068971
 20
87.5212936959
 30
0.0
 10
165.2247664542
 20
87.353221822
 30
0.0
  0
LINE
  5
3A7
100
AcDbEntity
  8
DTM_AXIS
100
AcDbLine
 62
7
  6
CONTINUOUS
 10
193.4099823892
 20
77.933785447
 11
193.5483065447
 21
77.9325289414
  0
SPLINE
  5
3A8
100
AcDbEntity
  8
DTM_AXIS
100
AcDbSpline
 62
7
  6
CONTINUOUS
 70
0
 71
3
 72
28
 73
24
 74
0
 42
0.0000001
 43
0.0000001
 44
0.0000000001
 40
0.0
 40
0.0
 40
0.0
 40
0.0
 40
0.1813697764
 40
0.2706723813
 40
0.3578598686
 40
0.4420701501
 40
0.522478759
 40
0.5983106873
 40
0.6688531426
 40
0.733470148
 40
0.7916208335
 40
0.818138272
 40
0.8428939225
 40
0.8658612605
 40
0.8870282827
 40
0.9064012537
 40
0.9240101274
 40
0.9399164608
 40
0.9542248579
 40
0.9670987643
 40
0.9787796877
 40
0.9896036603
 40
1.0
 40
1.0
 40
1.0
 40
1.0
 10
193.5483065447
 20
77.9325289414
 30
0.0
 10
197.668767714
 20
77.8961833822
 30
0.0
 10
203.8206584853
 20
77.9848680054
 30
0.0
 10
211.941421351
 20
78.391111683
 30
0.0
 10
217.8485743672
 20
78.8328952272
 30
0.0
 10
223.5411496724
 20
79.4083521467
 30
0.0
 10
228.9594573444
 20
80.111309608
 30
0.0
 10
234.0466649992
 20
80.9341284514
 30
0.0
 10
238.7497023331
 20
81.8677992369
 30
0.0
 10
243.0194712008
 20
82.9021994156
 30
0.0
 10
246.2735583214
 20
83.8658314442
 30
0.0
 10
248.6201775769
 20
84.6880645001
 30
0.0
 10
250.1909156232
 20
85.3038670825
 30
0.0
 10
251.6232176916
 20
85.936209609
 30
0.0
 10
252.9134900554
 20
86.5835043229
 30
0.0
 10
254.0585842153
 20
87.2441390884
 30
0.0
 10
255.0558050445
 20
87.9166031021
 30
0.0
 10
255.9028990386
 20
88.599571857
 30
0.0
 10
256.5979476586
 20
89.2920930151
 30
0.0
 10
257.1390439403
 20
89.9936612168
 30
0.0
 10
257.523611983
 20
90.7043304767
 30
0.0
 10
257.7476884733
 20
91.4228493902
 30
0.0
 10
257.787211018
 20
91.9081963201
 30
0.0
 10
257.7793808669
 20
92.1442656114
 30
0.0
  0
SPLINE
  5
3A9
100
AcDbEntity
  8
DTM_AXIS
100
AcDbSpline
 62
7
  6
CONTINUOUS
 70
0
 71
3
 72
31
 73
27
 74
0
 42
0.0000001
 43
0.0000001
 44
0.0000000001
 40
0.0
 40
0.0
 40
0.0
 40
0.0
 40
0.0159739224
 40
0.0301003288
 40
0.0427253734
 40
0.0543548351
 40
0.0656444477
 40
0.0773121387
 40
0.0900070354
 40
0.1042259301
 40
0.1203070877
 40
0.138463105
 40
0.1588170377
 40
0.18142963
 40
0.2063175053
 40
0.2334649258
 40
0.2628314358
 40
0.2943569499
 40
0.3635598467
 40
0.4403199065
 40
0.5237078657
 40
0.6126653715
 40
0.7060332566
 40
0.8025760793
 40
0.9010050078
 40
1.0
 40
1.0
 40
1.0
 40
1.0
 10
141.2129314115
 20
87.3419491425
 30
0.0
 10
140.9249455508
 20
87.5795257587
 30
0.0
 10
140.4052527697
 20
88.0569816715
 30
0.0
 10
139.7732408525
 20
88.8357171351
 30
0.0
 10
139.3440729551
 20
89.6308418769
 30
0.0
 10
139.1257557794
 20
90.4413700537
 30
0.0
 10
139.126610851
 20
91.2593920217
 30
0.0
 10
139.3464265869
 20
92.0720316116
 30
0.0
 10
139.7767374226
 20
92.8716993649
 30
0.0
 10
140.4098798775
 20
93.6576477349
 30
0.0
 10
141.2416711903
 20
94.4305984572
 30
0.0
 10
142.2693418829
 20
95.1902382446
 30
0.0
 10
143.4899890441
 20
95.935172524
 30
0.0
 10
144.8999922815
 20
96.6633692995
 30
0.0
 10
146.4948949144
 20
97.3725061996
 30
0.0
 10
148.2694317208
 20
98.0601457475
 30
0.0
 10
150.2175778279
 20
98.7239114848
 30
0.0
 10
153.1293019204
 20
99.601276895
 30
0.0
 10
157.1560292667
 20
100.6076797755
 30
0.0
 10
162.4151274692
 20
101.6524616656
 30
0.0
 10
168.1684711981
 20
102.553000182
 30
0.0
 10
174.3351060289
 20
103.2961163998
 30
0.0
 10
180.8282855111
 20
103.870813222
 30
0.0
 10
187.5563714001
 20
104.2686848848
 30
0.0
 10
194.4242517146
 20
104.4839204102
 30
0.0
 10
199.0389682748
 20
104.5036032867
 30
0.0
 10
201.3525273053
 20
104.4819788118
 30
0.0
  0
SPLINE
  5
3AA
100
AcDbEntity
  8
DTM_AXIS
100
AcDbSpline
 62
7
  6
CONTINUOUS
 70
0
 71
3
 72
14
 73
10
 74
0
 42
0.0000001
 43
0.0000001
 44
0.0000000001
 40
0.0
 40
0.0
 40
0.0
 40
0.0
 40
0.2635791645
 40
0.5140665615
 40
0.6348016596
 40
0.7535795802
 40
0.87303065
 40
0.9348940885
 40
1.0
 40
1.0
 40
1.0
 40
1.0
 10
189.0563841534
 20
155.8282858833
 30
0.0
 10
188.7121260399
 20
155.8766682059
 30
0.0
 10
188.0440212218
 20
155.997138209
 30
0.0
 10
187.2394609953
 20
156.2421227986
 30
0.0
 10
186.6541124153
 20
156.519178513
 30
0.0
 10
186.2545765405
 20
156.7762530315
 30
0.0
 10
185.9623907487
 20
157.0478499984
 30
0.0
 10
185.7659923607
 20
157.3077831976
 30
0.0
 10
185.6841743244
 20
157.4547113604
 30
0.0
 10
185.6478841534
 20
157.5325358833
 30
0.0
  0
SPLINE
  5
3AB
100
AcDbEntity
  8
DTM_AXIS
100
AcDbSpline
 62
7
  6
CONTINUOUS
 70
0
 71
3
 72
12
 73
8
 74
0
 42
0.0000001
 43
0.0000001
 44
0.0000000001
 40
0.0
 40
0.0
 40
0.0
 40
0.0
 40
0.2639823601
 40
0.5181015362
 40
0.7617474732
 40
0.8807990098
 40
1.0
 40
1.0
 40
1.0
 40
1.0
 10
169.8881036245
 20
158.334263401
 30
0.0
 10
169.2384113002
 20
158.6077711142
 30
0.0
 10
167.9574558016
 20
159.1314746638
 30
0.0
 10
166.0334564366
 20
159.7962056164
 30
0.0
 10
164.4281192551
 20
160.1844819622
 30
0.0
 10
163.1508741181
 20
160.3505710934
 30
0.0
 10
162.5143339467
 20
160.3795345273
 30
0.0
 10
162.1960297739
 20
160.3795345273
 30
0.0
  0
SPLINE
  5
3AC
100
AcDbEntity
  8
DTM_AXIS
100
AcDbSpline
 62
7
  6
CONTINUOUS
 70
0
 71
3
 72
12
 73
8
 74
0
 42
0.0000001
 43
0.0000001
 44
0.0000000001
 40
0.0
 40
0.0
 40
0.0
 40
0.0
 40
0.2535296592
 40
0.5051882706
 40
0.7523885312
 40
0.8759010548
 40
1.0
 40
1.0
 40
1.0
 40
1.0
 10
149.8202661945
 20
160.3795370186
 30
0.0
 10
149.6659802003
 20
160.5605417214
 30
0.0
 10
149.3420363776
 20
160.9081838729
 30
0.0
 10
148.7802719759
 20
161.3432692493
 30
0.0
 10
148.2402931559
 20
161.5835652169
 30
0.0
 10
147.7862623114
 20
161.6851161656
 30
0.0
 10
147.5536862931
 20
161.7042968057
 30
0.0
 10
147.4372682236
 20
161.7042968057
 30
0.0
  0
SPLINE
  5
3AD
100
AcDbEntity
  8
DTM_AXIS
100
AcDbSpline
 62
7
  6
CONTINUOUS
 70
0
 71
3
 72
14
 73
10
 74
0
 42
0.0000001
 43
0.0000001
 44
0.0000000001
 40
0.0
 40
0.0
 40
0.0
 40
0.0
 40
0.2635791645
 40
0.5140665615
 40
0.6348016596
 40
0.7535795802
 40
0.87303065
 40
0.9348940885
 40
1.0
 40
1.0
 40
1.0
 40
1.0
 10
47.408455346
 20
155.8282858833
 30
0.0
 10
47.7527134596
 20
155.8766682059
 30
0.0
 10
48.4208182776
 20
155.997138209
 30
0.0
 10
49.2253785042
 20
156.2421227986
 30
0.0
 10
49.8107270842
 20
156.519178513
 30
0.0
 10
50.210262959
 20
156.7762530315
 30
0.0
 10
50.5024487507
 20
157.0478499984
 30
0.0
 10
50.6988471388
 20
157.3077831976
 30
0.0
 10
50.780665175
 20
157.4547113604
 30
0.0
 10
50.816955346
 20
157.5325358833
 30
0.0
  0
SPLINE
  5
3AE
100
AcDbEntity
  8
DTM_AXIS
100
AcDbSpline
 62
7
  6
CONTINUOUS
 70
0
 71
3
 72
12
 73
8
 74
0
 42
0.0000001
 43
0.0000001
 44
0.0000000001
 40
0.0
 40
0.0
 40
0.0
 40
0.0
 40
0.2639823601
 40
0.5181015362
 40
0.7617474732
 40
0.8807990098
 40
1.0
 40
1.0
 40
1.0
 40
1.0
 10
66.5767358749
 20
158.334263401
 30
0.0
 10
67.2264281993
 20
158.6077711142
 30
0.0
 10
68.5073836979
 20
159.1314746638
 30
0.0
 10
70.4313830629
 20
159.7962056164
 30
0.0
 10
72.0367202443
 20
160.1844819622
 30
0.0
 10
73.3139653814
 20
160.3505710934
 30
0.0
 10
73.9505055528
 20
160.3795345273
 30
0.0
 10
74.2688097255
 20
160.3795345273
 30
0.0
  0
SPLINE
  5
3AF
100
AcDbEntity
  8
DTM_AXIS
100
AcDbSpline
 62
7
  6
CONTINUOUS
 70
0
 71
3
 72
12
 73
8
 74
0
 42
0.0000001
 43
0.0000001
 44
0.0000000001
 40
0.0
 40
0.0
 40
0.0
 40
0.0
 40
0.2535296592
 40
0.5051882706
 40
0.7523885312
 40
0.8759010548
 40
1.0
 40
1.0
 40
1.0
 40
1.0
 10
86.6445733049
 20
160.3795370186
 30
0.0
 10
86.7988592991
 20
160.5605417214
 30
0.0
 10
87.1228031218
 20
160.9081838729
 30
0.0
 10
87.6845675235
 20
161.3432692493
 30
0.0
 10
88.2245463436
 20
161.5835652169
 30
0.0
 10
88.678577188
 20
161.6851161656
 30
0.0
 10
88.9111532063
 20
161.7042968057
 30
0.0
 10
89.0275712759
 20
161.7042968057
 30
0.0
  0
ENDSEC
  0
SECTION
  2
OBJECTS
  0
DICTIONARY
  5
C
100
AcDbDictionary
280
0
281
1
  3
ACAD_GROUP
350
D
  3
ACAD_MLINESTYLE
350
17
  3
ACAD_LAYOUT
350
1A
  3
ACAD_PLOTSETTINGS
350
19
  3
ACAD_PLOTSTYLENAME
350
E
  3
ACAD_TABLESTYLE
350
       3B0
  0
DICTIONARY
  5
D
102
{ACAD_REACTORS
330
C
102
}
100
AcDbDictionary
280
0
281
1
  0
ACDBDICTIONARYWDFLT
  5
E
102
{ACAD_REACTORS
330
C
102
}
100
AcDbDictionary
281
1
  3
Normal
350
F
100
AcDbDictionaryWithDefault
340
F
  0
DICTIONARY
  5
17
102
{ACAD_REACTORS
330
C
102
}
100
AcDbDictionary
280
0
281
1
  3
Standard
350
18
  0
DICTIONARY
  5
3B0
330
C
100
AcDbDictionary
281
1
  3
Standard
350
       3B3
  3
Standard1
350
       3B4
  0
DICTIONARY
  5
19
102
{ACAD_REACTORS
330
C
102
}
100
AcDbDictionary
281
1
  0
DICTIONARY
  5
1A
102
{ACAD_REACTORS
330
C
102
}
100
AcDbDictionary
281
1
  3
Model
350
3B1
  3
Layout1
350
3B2
  0
ACDBPLACEHOLDER
  5
F
102
{ACAD_REACTORS
330
E
102
}
  0
MLINESTYLE
  5
18
102
{ACAD_REACTORS
330
17
102
}
100
AcDbMlineStyle
  2
STANDARD
 70
0
  3

 62
256
 51
90.0
 52
90.0
 71
2
 49
0.5
 62
256
  6
BYLAYER
 49
-0.5
 62
256
  6
BYLAYER
  0
LAYOUT
  5
3B1
102
{ACAD_REACTORS
330
1A
102
}
100
AcDbPlotSettings
  1

  2
none_device
  4
ISO_A4_(297.00_x_210.00_MM)
  6

 40
0.0
 41
0.0
 42
0.0
 43
0.0
 44
297.0
 45
210.0
 46
0.0
 47
0.0
 48
0.0
 49
0.0
140
0.0
141
0.0
142
1.0
143
1.0
 70
1024
 72
1
 73
0
 74
0
  7

 75
0
147
1.0
148
0.0
149
0.0
100
AcDbLayout
  1
Model
 70
0
 71
0
 10
0.0
 20
0.0
 11
297.0
 21
210.0
 12
0.0
 22
0.0
 32
0.0
 14
0.0
 24
0.0
 34
0.0
 15
0.0
 25
0.0
 35
0.0
146
0.0
 13
0.0
 23
0.0
 33
0.0
 16
1.0
 26
0.0
 36
0.0
 17
0.0
 27
1.0
 37
0.0
 76
0
330
20B
345
0
346
0
  0
LAYOUT
  5
3B2
102
{ACAD_REACTORS
330
1A
102
}
100
AcDbPlotSettings
  1

  2
none_device
  4
ISO_A4_(297.00_x_210.00_MM)
  6

 40
0.0
 41
0.0
 42
0.0
 43
0.0
 44
297.0
 45
210.0
 46
0.0
 47
0.0
 48
0.0
 49
0.0
140
0.0
141
0.0
142
1.0
143
1.0
 70
0
 72
1
 73
0
 74
0
  7

 75
0
147
1.0
148
0.0
149
0.0
100
AcDbLayout
  1
Layout1
 70
0
 71
1
 10
0.0
 20
0.0
 11
297.0
 21
210.0
 12
0.0
 22
0.0
 32
0.0
 14
0.0
 24
0.0
 34
0.0
 15
0.0
 25
0.0
 35
0.0
146
0.0
 13
0.0
 23
0.0
 33
0.0
 16
1.0
 26
0.0
 36
0.0
 17
0.0
 27
1.0
 37
0.0
 76
0
330
20C
345
0
346
0
  0
TABLESTYLE
  5
3B3
102
{ACAD_REACTORS
330
3B0
330
253
102
}
330
3B0
100
AcDbTableStyle
  3
Standard
 70
0
 71
0
 40
0.06
 41
0.06
280
1
281
1
  7
Standard
140
0.18
170
1
 62
0
 63
7
283
0
  7
Standard
140
0.18
170
1
 62
0
 63
7
283
0
  7
Standard
140
0.18
170
1
 62
0
 63
7
283
0
  0
TABLESTYLE
  5
3B4
102
{ACAD_REACTORS
330
3B0
102
}
330
3B0
100
AcDbTableStyle
  3
Standard1
 70
1
 71
0
 40
0.06
 41
0.06
280
1
281
1
  7
Standard
140
0.18
170
1
 62
0
 63
7
283
0
  7
Standard
140
0.18
170
1
 62
0
 63
7
283
0
  7
Standard
140
0.18
170
1
 62
0
 63
7
283
0
  0
ENDSEC
  0
EOF
