999
DXF file: O:\ORAC_PRODUCTEN\ORAC_LIJN6\G-TYPE\G78\g78-prod-inches.dxf
999
Pro/ENGINEER 2016130 by Parametric Technology Corporation
  0
SECTION
  2
HEADER
  9
$ACADVER
  1
AC1024
  9
$DWGCODEPAGE
  3
ANSI_1250
  9
$EXTMAX
 10
297.0
 20
210.0
 30
0.0
  9
$EXTMIN
 10
0.0
 20
0.0
 30
0.0
  9
$LIMMIN
 10
0.0
 20
0.0
  9
$LIMMAX
 10
297.0
 20
210.0
  9
$VIEWCTR
 10
148.5
 20
105.0
  9
$VIEWSIZE
 40
210.0
  9
$CLAYER
  8
0
  9
$LTSCALE
 40
16.335
  9
$CELTYPE
  6
BYLAYER
  9
$DIMSCALE
 40
1.0
  9
$DIMASZ
 40
3.5
  9
$DIMEXO
 40
1.0
  9
$DIMDLI
 40
11.286
  9
$DIMEXE
 40
1.5
  9
$DIMCEN
 40
2.673
  9
$DIMLFAC
 40
1.0
  9
$DIMBLK
  1
_FILLED
  9
$DIMALT
 70
0
  9
$DIMALTF
 40
0.0393700787
  9
$DIMTXT
 40
2.5
  9
$DIMTOL
 70
1
  9
$DIMLIM
 70
0
  9
$DIMTFAC
 40
1.0
  9
$DIMTP
 40
0.001
  9
$DIMTM
 40
0.001
  9
$DIMGAP
 40
0.625
  9
$DIMDSEP
 70
44
  9
$AUNITS
 70
0
  9
$PDMODE
 70
3
  9
$PDSIZE
 40
8.0
  9
$HANDSEED
  5
327
  9
$TILEMODE
 70
1
  9
$MEASUREMENT
 70
1
  9
$INSUNITS
 70
4
  0
ENDSEC
  0
SECTION
  2
CLASSES
  0
CLASS
  1
ACDBDICTIONARYWDFLT
  2
AcDbDictionaryWithDefault
  3
AutoCAD 2000
 90
0
 91
1
280
0
281
0
  0
CLASS
  1
ACDBPLACEHOLDER
  2
AcDbPlaceHolder
  3
AutoCAD 2000
 90
0
 91
1
280
0
281
0
  0
CLASS
  1
LAYOUT
  2
AcDbLayout
  3
AutoCAD 2000
 90
0
 91
0
280
0
281
0
  0
CLASS
  1
TABLESTYLE
  2
AcDbTableStyle
  3
ObjectDBX Classes
 90
2047
 91
1
280
0
281
0
  0
CLASS
  1
ACAD_TABLE
  2
AcDbTable
  3
ObjectDBX Classes
 90
1025
 91
1
280
0
281
1
  0
ENDSEC
  0
SECTION
  2
TABLES
  0
TABLE
  2
VPORT
  5
8
100
AcDbSymbolTable
 70
2
  0
VPORT
  5
1F4
100
AcDbSymbolTableRecord
100
AcDbViewportTableRecord
  2
*ACTIVE
 70
0
 10
0.0
 20
0.0
 11
1.0
 21
1.0
 12
148.5
 22
105.0
 13
0.0
 23
0.0
 14
1.0
 24
1.0
 15
0.0
 25
0.0
 16
0.0
 26
0.0
 36
1.0
 17
0.0
 27
0.0
 37
0.0
 40
210.0
 41
1.4142857143
 42
50.0
 43
0.0
 44
0.0
 50
0.0
 51
0.0
 71
0
 72
100
 73
1
 74
1
 75
0
 76
0
 77
0
 78
0
  0
ENDTAB
  0
TABLE
  2
LTYPE
  5
5
100
AcDbSymbolTable
 70
6
  0
LTYPE
  5
14
100
AcDbSymbolTableRecord
100
AcDbLinetypeTableRecord
  2
BYBLOCK
 70
0
  3

 72
65
 73
0
 40
0.0
  0
LTYPE
  5
15
100
AcDbSymbolTableRecord
100
AcDbLinetypeTableRecord
  2
BYLAYER
 70
0
  3

 72
65
 73
0
 40
0.0
  0
LTYPE
  5
16
100
AcDbSymbolTableRecord
100
AcDbLinetypeTableRecord
  2
CONTINUOUS
 70
64
  3
Solid line
 72
65
 73
0
 40
0.0
  0
LTYPE
  5
1F5
100
AcDbSymbolTableRecord
100
AcDbLinetypeTableRecord
  2
CENTER
 70
64
  3
____ _ ____ _ ____ _ ____ _ ____ _ ____ _ ____
 72
65
 73
4
 40
0.6
 49
0.375
 74
0
 49
-0.075
 74
0
 49
0.075
 74
0
 49
-0.075
 74
0
  0
LTYPE
  5
1F6
100
AcDbSymbolTableRecord
100
AcDbLinetypeTableRecord
  2
HIDDEN
 70
64
  3
- - - - - - - - - - - - - - - - - - - -
 72
65
 73
2
 40
0.2
 49
0.1
 74
0
 49
-0.1
 74
0
  0
LTYPE
  5
1F7
100
AcDbSymbolTableRecord
100
AcDbLinetypeTableRecord
  2
PHANTOM
 70
64
  3
_____ _ _ _____ _ _ _____ _ _ _____
 72
65
 73
6
 40
0.8
 49
0.45
 74
0
 49
-0.05
 74
0
 49
0.1
 74
0
 49
-0.05
 74
0
 49
0.1
 74
0
 49
-0.05
 74
0
  0
LTYPE
  5
1F8
100
AcDbSymbolTableRecord
100
AcDbLinetypeTableRecord
  2
DOT
 70
64
  3
. . . . . . . . . . . . . . . . . . . .
 72
65
 73
2
 40
0.2
 49
0.1
 74
0
 49
-0.1
 74
0
  0
LTYPE
  5
1F9
100
AcDbSymbolTableRecord
100
AcDbLinetypeTableRecord
  2
DASHED
 70
64
  3
- - - - - - - - - - - - - - - - - - - -
 72
65
 73
2
 40
0.2
 49
0.1
 74
0
 49
-0.1
 74
0
  0
ENDTAB
  0
TABLE
  2
LAYER
  5
2
100
AcDbSymbolTable
 70
36
  0
LAYER
  5
10
100
AcDbSymbolTableRecord
100
AcDbLayerTableRecord
  2
0
 70
0
 62
7
  6
CONTINUOUS
370
-3
390
F
  0
LAYER
  5
1FA
100
AcDbSymbolTableRecord
100
AcDbLayerTableRecord
  2
DEFAULT_1
 70
0
 62
7
  6
CENTER
370
-3
390
F
  0
LAYER
  5
1FB
100
AcDbSymbolTableRecord
100
AcDbLayerTableRecord
  2
DEFAULT_2
 70
0
 62
8
  6
HIDDEN
370
-3
390
F
  0
LAYER
  5
1FC
100
AcDbSymbolTableRecord
100
AcDbLayerTableRecord
  2
DEFAULT_3
 70
0
 62
7
  6
PHANTOM
370
-3
390
F
  0
LAYER
  5
1FD
100
AcDbSymbolTableRecord
100
AcDbLayerTableRecord
  2
DTM_ALL
 70
0
 62
7
  6
CONTINUOUS
370
-3
390
F
  0
LAYER
  5
1FE
100
AcDbSymbolTableRecord
100
AcDbLayerTableRecord
  2
DTM_AXIS
 70
0
 62
7
  6
CONTINUOUS
370
-3
390
F
  0
LAYER
  5
1FF
100
AcDbSymbolTableRecord
100
AcDbLayerTableRecord
  2
DTM_CSYS
 70
0
 62
7
  6
CONTINUOUS
370
-3
390
F
  0
LAYER
  5
200
100
AcDbSymbolTableRecord
100
AcDbLayerTableRecord
  2
DTM_CURVE
 70
0
 62
7
  6
CONTINUOUS
370
-3
390
F
  0
LAYER
  5
201
100
AcDbSymbolTableRecord
100
AcDbLayerTableRecord
  2
DTM_MASTER
 70
0
 62
7
  6
CONTINUOUS
370
-3
390
F
  0
LAYER
  5
202
100
AcDbSymbolTableRecord
100
AcDbLayerTableRecord
  2
DTM_POINT
 70
0
 62
7
  6
CONTINUOUS
370
-3
390
F
  0
LAYER
  5
203
100
AcDbSymbolTableRecord
100
AcDbLayerTableRecord
  2
DTM_QUILT
 70
0
 62
7
  6
CONTINUOUS
370
-3
390
F
  0
LAYER
  5
204
100
AcDbSymbolTableRecord
100
AcDbLayerTableRecord
  2
GTOL
 70
0
 62
7
  6
CONTINUOUS
370
-3
390
F
  0
LAYER
  5
205
100
AcDbSymbolTableRecord
100
AcDbLayerTableRecord
  2
NONE
 70
0
 62
7
  6
CONTINUOUS
370
-3
390
F
  0
LAYER
  5
206
100
AcDbSymbolTableRecord
100
AcDbLayerTableRecord
  2
NOTES
 70
0
 62
7
  6
CONTINUOUS
370
-3
390
F
  0
ENDTAB
  0
TABLE
  2
STYLE
  5
3
100
AcDbSymbolTable
 70
1
  0
STYLE
  5
11
100
AcDbSymbolTableRecord
100
AcDbTextStyleTableRecord
  2
STANDARD
 70
0
 40
0.0
 41
1.0
 50
0.0
 71
0
 42
0.2
  3
cgtime.ttf
  4

  0
STYLE
  5
207
100
AcDbSymbolTableRecord
100
AcDbTextStyleTableRecord
  2
TEXTSTYLE_1
 70
0
 40
0.0
 41
0.8
 50
0.0
 71
0
 42
0.2
  3
gdt
  4

  0
STYLE
  5
208
100
AcDbSymbolTableRecord
100
AcDbTextStyleTableRecord
  2
TEXTSTYLE_2
 70
0
 40
0.0
 41
1.0
 50
0.0
 71
0
 42
0.2
  3
trium.ttf
  4

  0
STYLE
  5
209
100
AcDbSymbolTableRecord
100
AcDbTextStyleTableRecord
  2
TEXTSTYLE_3
 70
0
 40
0.0
 41
1.0
 50
0.0
 71
0
 42
0.2
  3
calibri.ttf
  4

  0
ENDTAB
  0
TABLE
  2
VIEW
  5
6
100
AcDbSymbolTable
 70
0
  0
ENDTAB
  0
TABLE
  2
UCS
  5
7
100
AcDbSymbolTable
 70
0
  0
ENDTAB
  0
TABLE
  2
APPID
  5
9
100
AcDbSymbolTable
 70
1
  0
APPID
  5
20A
100
AcDbSymbolTableRecord
100
AcDbRegAppTableRecord
  2
ACAD
 70
0
  0
ENDTAB
  0
TABLE
  2
BLOCK_RECORD
  5
1
100
AcDbSymbolTable
 70
0
  0
BLOCK_RECORD
  5
20B
100
AcDbSymbolTableRecord
100
AcDbBlockTableRecord
  2
*Model_Space
  0
BLOCK_RECORD
  5
20C
100
AcDbSymbolTableRecord
100
AcDbBlockTableRecord
  2
*Paper_Space
  0
BLOCK_RECORD
  5
20D
100
AcDbSymbolTableRecord
100
AcDbBlockTableRecord
  2
_FILLED
  0
BLOCK_RECORD
  5
20E
100
AcDbSymbolTableRecord
100
AcDbBlockTableRecord
  2
*D0
  0
BLOCK_RECORD
  5
20F
100
AcDbSymbolTableRecord
100
AcDbBlockTableRecord
  2
*D1
  0
BLOCK_RECORD
  5
210
100
AcDbSymbolTableRecord
100
AcDbBlockTableRecord
  2
*D2
  0
BLOCK_RECORD
  5
211
100
AcDbSymbolTableRecord
100
AcDbBlockTableRecord
  2
*T1
  0
ENDTAB
  0
TABLE
  2
DIMSTYLE
  5
A
100
AcDbSymbolTable
 70
1
100
AcDbDimStyleTable
 71
0
  0
DIMSTYLE
105
212
100
AcDbSymbolTableRecord
100
AcDbDimStyleTableRecord
  2
STANDARD
 70
0
  3

  4

 40
1.0
 41
3.5
 42
1.0
 43
0.38
 44
1.5
 45
0.0
 46
0.0
 47
0.001
 48
0.001
140
2.5
141
0.09
142
0.0
143
25.4
144
1.0
145
0.0
146
1.0
147
0.625
 71
1.0
 72
0.0
 73
1
 74
1
 75
0
 76
0
 77
0
 78
8
170
0
171
2
172
0
173
0
174
0
175
0
176
0
177
0
178
0
270
2
271
3
272
3
273
2
274
2
275
0
280
0
281
0
282
0
283
1
284
8
285
0
286
0
287
3
288
0
340
11
278
44
341
20D
342
20D
343
20D
344
20D
  0
DIMSTYLE
105
213
100
AcDbSymbolTableRecord
100
AcDbDimStyleTableRecord
  2
DIMSTYLE_1
 70
0
  3

  4

 40
1.0
 41
3.5
 42
1.0
 43
0.38
 44
1.5
 45
0.0
 46
0.0
 47
0.0
 48
0.0
140
2.5
141
0.09
142
0.0
143
25.4
144
1.0
145
0.0
146
1.0
147
1.25
 71
0.0
 72
0.0
 73
1
 74
1
 75
0
 76
0
 77
0
 78
8
170
0
171
2
172
0
173
0
174
0
175
0
176
0
177
0
178
0
270
2
271
3
272
3
273
2
274
2
275
0
280
0
281
0
282
0
283
1
284
8
285
0
286
0
287
3
288
0
340
11
278
44
341
20D
342
20D
343
20D
344
20D
  0
DIMSTYLE
105
214
100
AcDbSymbolTableRecord
100
AcDbDimStyleTableRecord
  2
DIMSTYLE_2
 70
0
  3

  4

 40
1.0
 41
3.5
 42
1.0
 43
0.38
 44
1.5
 45
0.0
 46
0.0
 47
0.0
 48
0.0
140
2.5
141
0.09
142
0.0
143
25.4
144
1.0
145
0.0
146
1.0
147
1.25
 71
0.0
 72
0.0
 73
1
 74
1
 75
0
 76
0
 77
0
 78
8
170
0
171
2
172
0
173
0
174
0
175
0
176
0
177
0
178
0
270
2
271
0
272
0
273
2
274
2
275
0
280
0
281
0
282
0
283
1
284
8
285
0
286
0
287
3
288
0
340
11
278
44
341
20D
342
20D
343
20D
344
20D
  0
ENDTAB
  0
ENDSEC
  0
SECTION
  2
BLOCKS
  0
BLOCK
  5
20
100
AcDbEntity
  8
0
100
AcDbBlockBegin
  2
*Model_Space
 70
0
 10
0.0
 20
0.0
 30
0.0
  3
*Model_Space
  1

  0
ENDBLK
  5
21
100
AcDbEntity
  8
0
100
AcDbBlockEnd
  0
BLOCK
  5
1C
100
AcDbEntity
  8
0
100
AcDbBlockBegin
  2
*Paper_Space
 70
0
 10
0.0
 20
0.0
 30
0.0
  3
*Paper_Space
  1

  0
ENDBLK
  5
1D
100
AcDbEntity
  8
0
100
AcDbBlockEnd
  0
BLOCK
  5
215
100
AcDbEntity
  8
0
100
AcDbBlockBegin
  2
_FILLED
 70
64
 10
0.0
 20
0.0
  3
_FILLED
  1

  0
SOLID
  5
216
100
AcDbEntity
  8
0
  6
BYBLOCK
 62
0
100
AcDbTrace
 10
0.0
 20
0.0
 11
-1.0
 21
0.2142857143
 12
-1.0
 22
-0.2142857143
 13
-1.0
 23
-0.2142857143
  0
ENDBLK
  5
217
100
AcDbEntity
  8
0
  6
BYBLOCK
 62
0
100
AcDbBlockEnd
  0
BLOCK
  5
218
100
AcDbEntity
  8
0
100
AcDbBlockBegin
 62
2
  6
CONTINUOUS
  2
*D0
 70
65
 10
0.0
 20
0.0
  3
*D0
  1

  0
TEXT
  5
219
100
AcDbEntity
  8
0
100
AcDbText
 62
2
  6
CONTINUOUS
 10
79.2439130687
 20
165.9625440735
  7
STANDARD
 40
2.5
  1
88
 72
5
 11
82.8820453644
 21
165.9625440735
100
AcDbText
  0
TEXT
  5
21A
100
AcDbEntity
  8
0
100
AcDbText
 62
2
  6
CONTINUOUS
 10
82.8820453644
 20
165.9625440735
  7
STANDARD
 40
2.5
  1
mm
 72
5
 11
88.5532515901
 21
165.9625440735
100
AcDbText
  0
TEXT
  5
21B
100
AcDbEntity
  8
0
100
AcDbText
 62
2
  6
CONTINUOUS
 10
79.1125901115
 20
162.2125440735
  7
STANDARD
 40
2.5
  1
3-1/2"
 72
5
 11
88.6845745473
 21
162.2125440735
100
AcDbText
  0
LINE
  5
21C
100
AcDbEntity
  8
0
100
AcDbLine
 62
2
  6
CONTINUOUS
 10
39.6377971009
 20
123.5492380069
 11
39.6377971009
 21
168.7125440735
  0
LINE
  5
21D
100
AcDbEntity
  8
0
100
AcDbLine
 62
2
  6
CONTINUOUS
 10
128.1593675578
 20
123.2806048689
 11
128.1593675578
 21
168.7125440735
  0
LINE
  5
21E
100
AcDbEntity
  8
0
100
AcDbLine
 62
2
  6
CONTINUOUS
 10
39.6377971009
 20
167.2125440735
 11
77.9939130687
 21
167.2125440735
  0
LINE
  5
21F
100
AcDbEntity
  8
0
100
AcDbLine
 62
2
  6
CONTINUOUS
 10
128.1593675578
 20
167.2125440735
 11
89.8032515901
 21
167.2125440735
  0
INSERT
  5
220
100
AcDbEntity
  8
0
100
AcDbBlockReference
 62
2
  6
CONTINUOUS
  2
_FILLED
 10
39.6377971009
 20
167.2125440735
 41
3.5
 42
3.5
 43
3.5
 50
180.0
  0
INSERT
  5
221
100
AcDbEntity
  8
0
100
AcDbBlockReference
 62
2
  6
CONTINUOUS
  2
_FILLED
 10
128.1593675578
 20
167.2125440735
 41
3.5
 42
3.5
 43
3.5
  0
ENDBLK
  5
222
100
AcDbEntity
  8
0
  6
BYBLOCK
 62
0
100
AcDbBlockEnd
  0
BLOCK
  5
223
100
AcDbEntity
  8
0
100
AcDbBlockBegin
 62
2
  6
CONTINUOUS
  2
*D1
 70
65
 10
0.0
 20
0.0
  3
*D1
  1

  0
TEXT
  5
224
100
AcDbEntity
  8
0
100
AcDbText
 62
2
  6
CONTINUOUS
 10
17.7976027519
 20
128.5394147167
  7
STANDARD
 40
2.5
  1
44
 72
5
 11
21.4357350477
 21
128.5394147167
100
AcDbText
  0
TEXT
  5
225
100
AcDbEntity
  8
0
100
AcDbText
 62
2
  6
CONTINUOUS
 10
21.4357350477
 20
128.5394147167
  7
STANDARD
 40
2.5
  1
mm
 72
5
 11
27.1069412734
 21
128.5394147167
100
AcDbText
  0
TEXT
  5
226
100
AcDbEntity
  8
0
100
AcDbText
 62
2
  6
CONTINUOUS
 10
17.6662797948
 20
124.7894147167
  7
STANDARD
 40
2.5
  1
1-3/4"
 72
5
 11
27.2382642305
 21
124.7894147167
100
AcDbText
  0
LINE
  5
227
100
AcDbEntity
  8
0
100
AcDbLine
 62
2
  6
CONTINUOUS
 10
84.7709777897
 20
151.6385012364
 11
20.9522720127
 21
151.6385012364
  0
LINE
  5
228
100
AcDbEntity
  8
0
100
AcDbLine
 62
2
  6
CONTINUOUS
 10
88.3648137039
 20
107.9403281969
 11
20.9522720127
 21
107.9403281969
  0
LINE
  5
229
100
AcDbEntity
  8
0
100
AcDbLine
 62
2
  6
CONTINUOUS
 10
22.4522720127
 20
151.6385012364
 11
22.4522720127
 21
132.2894147167
  0
LINE
  5
22A
100
AcDbEntity
  8
0
100
AcDbLine
 62
2
  6
CONTINUOUS
 10
22.4522720127
 20
107.9403281969
 11
22.4522720127
 21
123.5394147167
  0
INSERT
  5
22B
100
AcDbEntity
  8
0
100
AcDbBlockReference
 62
2
  6
CONTINUOUS
  2
_FILLED
 10
22.4522720127
 20
151.6385012364
 41
3.5
 42
3.5
 43
3.5
 50
90.0
  0
INSERT
  5
22C
100
AcDbEntity
  8
0
100
AcDbBlockReference
 62
2
  6
CONTINUOUS
  2
_FILLED
 10
22.4522720127
 20
107.9403281969
 41
3.5
 42
3.5
 43
3.5
 50
270.0
  0
ENDBLK
  5
22D
100
AcDbEntity
  8
0
  6
BYBLOCK
 62
0
100
AcDbBlockEnd
  0
BLOCK
  5
22E
100
AcDbEntity
  8
0
100
AcDbBlockBegin
 62
2
  6
CONTINUOUS
  2
*D2
 70
65
 10
0.0
 20
0.0
  3
*D2
  1

  0
TEXT
  5
22F
100
AcDbEntity
  8
0
100
AcDbText
 62
2
  6
CONTINUOUS
 10
156.611136784
 20
165.0946363359
  7
STANDARD
 40
2.5
  1
19
 72
5
 11
160.2492690797
 21
165.0946363359
100
AcDbText
  0
TEXT
  5
230
100
AcDbEntity
  8
0
100
AcDbText
 62
2
  6
CONTINUOUS
 10
160.2492690797
 20
165.0946363359
  7
STANDARD
 40
2.5
  1
mm
 72
5
 11
165.9204753054
 21
165.0946363359
100
AcDbText
  0
TEXT
  5
231
100
AcDbEntity
  8
0
100
AcDbText
 62
2
  6
CONTINUOUS
 10
157.9973235544
 20
161.3446363359
  7
STANDARD
 40
2.5
  1
3/4"
 72
5
 11
164.534288535
 21
161.3446363359
100
AcDbText
  0
LINE
  5
232
100
AcDbEntity
  8
0
100
AcDbLine
 62
2
  6
CONTINUOUS
 10
151.7563297034
 20
152.6383981742
 11
151.7563297034
 21
167.8446363359
  0
LINE
  5
233
100
AcDbEntity
  8
0
100
AcDbLine
 62
2
  6
CONTINUOUS
 10
170.7752823861
 20
131.4980297305
 11
170.7752823861
 21
167.8446363359
  0
LINE
  5
234
100
AcDbEntity
  8
0
100
AcDbLine
 62
2
  6
CONTINUOUS
 10
151.7563297034
 20
166.3446363359
 11
146.7563297034
 21
166.3446363359
  0
LINE
  5
235
100
AcDbEntity
  8
0
100
AcDbLine
 62
2
  6
CONTINUOUS
 10
170.7752823861
 20
166.3446363359
 11
175.7752823861
 21
166.3446363359
  0
INSERT
  5
236
100
AcDbEntity
  8
0
100
AcDbBlockReference
 62
2
  6
CONTINUOUS
  2
_FILLED
 10
151.7563297034
 20
166.3446363359
 41
3.5
 42
3.5
 43
3.5
  0
INSERT
  5
237
100
AcDbEntity
  8
0
100
AcDbBlockReference
 62
2
  6
CONTINUOUS
  2
_FILLED
 10
170.7752823861
 20
166.3446363359
 41
3.5
 42
3.5
 43
3.5
 50
180.0
  0
ENDBLK
  5
238
100
AcDbEntity
  8
0
  6
BYBLOCK
 62
0
100
AcDbBlockEnd
  0
BLOCK
  5
239
100
AcDbEntity
  8
0
100
AcDbBlockBegin
  2
*T1
 70
1
 10
0.0
 20
0.0
  3
*T1
  1

  0
LINE
  5
23A
100
AcDbEntity
  8
0
100
AcDbLine
 62
7
  6
CONTINUOUS
 10
0.0
 20
0.0
 11
148.0
 21
0.0
  0
LINE
  5
23B
100
AcDbEntity
  8
0
100
AcDbLine
 62
7
  6
CONTINUOUS
 10
0.0
 20
0.0
 11
0.0
 21
-43.0
  0
LINE
  5
23C
100
AcDbEntity
  8
0
100
AcDbLine
 62
7
  6
CONTINUOUS
 10
45.0
 20
-23.0
 11
148.0
 21
-23.0
  0
LINE
  5
23D
100
AcDbEntity
  8
0
100
AcDbLine
 62
7
  6
CONTINUOUS
 10
45.0
 20
-28.0
 11
148.0
 21
-28.0
  0
LINE
  5
23E
100
AcDbEntity
  8
0
100
AcDbLine
 62
7
  6
CONTINUOUS
 10
0.0
 20
-43.0
 11
148.0
 21
-43.0
  0
LINE
  5
23F
100
AcDbEntity
  8
0
100
AcDbLine
 62
7
  6
CONTINUOUS
 10
45.0
 20
0.0
 11
45.0
 21
-43.0
  0
LINE
  5
240
100
AcDbEntity
  8
0
100
AcDbLine
 62
7
  6
CONTINUOUS
 10
143.0
 20
0.0
 11
143.0
 21
-23.0
  0
LINE
  5
241
100
AcDbEntity
  8
0
100
AcDbLine
 62
7
  6
CONTINUOUS
 10
148.0
 20
0.0
 11
148.0
 21
-43.0
  0
TEXT
  5
242
100
AcDbEntity
  8
0
100
AcDbText
 62
7
  6
CONTINUOUS
 10
8.9659749243
 20
-10.675
  7
STANDARD
 40
8.0
  1
O
 72
5
 11
17.370644185
 21
-10.675
100
AcDbText
  0
TEXT
  5
243
100
AcDbEntity
  8
0
100
AcDbText
 62
7
  6
CONTINUOUS
 10
17.370644185
 20
-10.675
  7
STANDARD
 40
5.5
  1
RAC
 72
5
 11
33.9562472979
 21
-10.675
100
AcDbText
  0
TEXT
  5
244
100
AcDbEntity
  8
0
100
AcDbText
 62
7
  6
CONTINUOUS
 10
33.9562472979
 20
-5.925
  7
TEXTSTYLE_2
 40
3.0
  1
®
 72
5
 11
36.0340250757
 21
-5.925
100
AcDbText
  0
TEXT
  5
245
100
AcDbEntity
  8
0
100
AcDbText
 62
7
  6
CONTINUOUS
 10
9.5323389537
 20
-15.325
  7
TEXTSTYLE_2
 40
3.0
  1
D  E  C  O  R
 72
5
 11
34.3878945093
 21
-15.325
100
AcDbText
  0
TEXT
  5
246
100
AcDbEntity
  8
0
100
AcDbText
 62
7
  6
CONTINUOUS
 10
34.3878945093
 20
-15.325
  7
STANDARD
 40
2.5
  1
 
 72
5
 11
35.4676610463
 21
-15.325
100
AcDbText
  0
TEXT
  5
247
100
AcDbEntity
  8
0
100
AcDbText
 62
7
  6
CONTINUOUS
 10
52.5257352941
 20
-6.0
  7
TEXTSTYLE_3
 40
2.75
  1
Part name:
 72
5
 11
71.9375
 21
-6.0
100
AcDbText
  0
TEXT
  5
248
100
AcDbEntity
  8
0
100
AcDbText
 62
7
  6
CONTINUOUS
 10
49.2788865546
 20
-12.875
  7
TEXTSTYLE_3
 40
2.75
  1
Designed by:
 72
5
 11
71.9375
 21
-12.875
100
AcDbText
  0
TEXT
  5
249
100
AcDbEntity
  8
0
100
AcDbText
 62
7
  6
CONTINUOUS
 10
48.9553571429
 20
-19.75
  7
TEXTSTYLE_3
 40
2.75
  1
Designed on:
 72
5
 11
71.9375
 21
-19.75
100
AcDbText
  0
TEXT
  5
24A
100
AcDbEntity
  8
0
100
AcDbText
 62
2
  6
CONTINUOUS
 10
74.0625
 20
-6.0
  7
TEXTSTYLE_3
 40
2.75
  1
G78
 72
5
 11
81.1917016807
 21
-6.0
100
AcDbText
  0
TEXT
  5
24B
100
AcDbEntity
  8
0
100
AcDbText
 62
2
  6
CONTINUOUS
 10
74.0625
 20
-12.875
  7
TEXTSTYLE_3
 40
2.75
  1
Ulf Moritz
 72
5
 11
91.8103991597
 21
-12.875
100
AcDbText
  0
TEXT
  5
24C
100
AcDbEntity
  8
0
100
AcDbText
 62
2
  6
CONTINUOUS
 10
74.0625
 20
-19.75
  7
TEXTSTYLE_3
 40
2.75
  1
25-Aug-2014
 72
5
 11
96.7211134454
 21
-19.75
100
AcDbText
  0
TEXT
  5
24D
100
AcDbEntity
  8
0
100
AcDbText
 62
2
  6
CONTINUOUS
 10
96.7211134454
 20
-19.75
  7
TEXTSTYLE_3
 40
2.75
  1
 
 72
5
 11
97.7032563025
 21
-19.75
100
AcDbText
  0
TEXT
  5
24E
100
AcDbEntity
  8
0
100
AcDbText
 62
2
  6
CONTINUOUS
 10
146.5625
 20
-17.5
  7
TEXTSTYLE_3
 40
1.5
  1
Version: 
 50
90.0
 72
5
 11
146.5625
 21
-9.0294117647
100
AcDbText
  0
TEXT
  5
24F
100
AcDbEntity
  8
0
100
AcDbText
 62
2
  6
CONTINUOUS
 10
146.5625
 20
-9.0294117647
  7
TEXTSTYLE_3
 40
1.5
  1
1.0
 50
90.0
 72
5
 11
146.5625
 21
-6.0357142857
100
AcDbText
  0
TEXT
  5
250
100
AcDbEntity
  8
0
100
AcDbText
 62
2
  6
CONTINUOUS
 10
146.5625
 20
-6.0357142857
  7
TEXTSTYLE_3
 40
1.5
  1
 
 50
90.0
 72
5
 11
146.5625
 21
-5.5
100
AcDbText
  0
TEXT
  5
251
100
AcDbEntity
  8
0
100
AcDbText
 62
7
  6
CONTINUOUS
 10
9.6586134454
 20
-24.25
  7
TEXTSTYLE_3
 40
2.5
  1
Biekorfstraat 32
 72
5
 11
35.3413865546
 21
-24.25
100
AcDbText
  0
TEXT
  5
252
100
AcDbEntity
  8
0
100
AcDbText
 62
7
  6
CONTINUOUS
 10
2.2584033613
 20
-28.0
  7
TEXTSTYLE_3
 40
2.5
  1
8400 Oostende - Belgium
 72
5
 11
42.7415966387
 21
-28.0
100
AcDbText
  0
TEXT
  5
253
100
AcDbEntity
  8
0
100
AcDbText
 62
7
  6
CONTINUOUS
 10
4.2699579832
 20
-31.75
  7
TEXTSTYLE_3
 40
2.5
  1
Tel  +32 (0)59 80 32 52
 72
5
 11
40.7300420168
 21
-31.75
100
AcDbText
  0
TEXT
  5
254
100
AcDbEntity
  8
0
100
AcDbText
 62
7
  6
CONTINUOUS
 10
5.7405462185
 20
-35.5
  7
TEXTSTYLE_3
 40
2.5
  1
www.oracdecor.com
 72
5
 11
39.2594537815
 21
-35.5
100
AcDbText
  0
TEXT
  5
255
100
AcDbEntity
  8
0
100
AcDbText
 62
7
  6
CONTINUOUS
 10
5.5777310924
 20
-39.25
  7
TEXTSTYLE_3
 40
2.5
  1
info@oracdecor.com
 72
5
 11
39.4222689076
 21
-39.25
100
AcDbText
  0
TEXT
  5
256
100
AcDbEntity
  8
0
100
AcDbText
 62
7
  6
CONTINUOUS
 10
46.0625
 20
-26.75
  7
TEXTSTYLE_3
 40
2.5
  1
All dimensions are in mm unless otherwise specified   
 72
5
 11
132.3019957983
 21
-26.75
100
AcDbText
  0
TEXT
  5
257
100
AcDbEntity
  8
0
100
AcDbText
 62
7
  6
CONTINUOUS
 10
46.0625
 20
-31.7075
  7
TEXTSTYLE_3
 40
1.85
  1
All information in this document is Orac's exclusive property.  It may in no case 
 72
5
 11
140.0471638655
 21
-31.7075
100
AcDbText
  0
TEXT
  5
258
100
AcDbEntity
  8
0
100
AcDbText
 62
7
  6
CONTINUOUS
 10
46.0625
 20
-34.8525
  7
TEXTSTYLE_3
 40
1.85
  1
be reproduced, even partly, be communicated to a third party or used for any 
 72
5
 11
138.8345588235
 21
-34.8525
100
AcDbText
  0
TEXT
  5
259
100
AcDbEntity
  8
0
100
AcDbText
 62
7
  6
CONTINUOUS
 10
46.0625
 20
-37.9975
  7
TEXTSTYLE_3
 40
1.85
  1
possible purpose without ORAC's express written permission. 
 72
5
 11
119.4484243697
 21
-37.9975
100
AcDbText
  0
TEXT
  5
25A
100
AcDbEntity
  8
0
100
AcDbText
 62
7
  6
CONTINUOUS
 10
46.0625
 20
-41.1425
  7
TEXTSTYLE_3
 40
1.85
  1
Further legal information can be found at http://www.oracdecor.be/nl/disclaimer 
 72
5
 11
143.7316176471
 21
-41.1425
100
AcDbText
  0
ENDBLK
  5
25B
100
AcDbEntity
  8
0
  6
BYBLOCK
 62
0
100
AcDbBlockEnd
  0
ENDSEC
  0
SECTION
  2
ENTITIES
  0
DIMENSION
  5
25C
100
AcDbEntity
  8
0
100
AcDbDimension
 62
2
  6
CONTINUOUS
  2
*D0
 10
128.1593675578
 20
167.2125440735
 11
83.8985823294
 21
165.3375440735
 70
160
 71
2
 42
88.5215704568
  1
<>mm\P3-1/2"
  3
DIMSTYLE_1
100
AcDbAlignedDimension
 13
39.6377971009
 23
122.5492380069
 14
128.1593675578
 24
122.2806048689
100
AcDbRotatedDimension
  0
DIMENSION
  5
25D
100
AcDbEntity
  8
0
100
AcDbDimension
 62
2
  6
CONTINUOUS
  2
*D1
 10
22.4522720127
 20
107.9403281969
 11
22.4522720127
 21
127.9144147167
 70
160
 71
2
 42
43.6981730395
  1
<>mm\P1-3/4"
  3
DIMSTYLE_2
100
AcDbAlignedDimension
 13
85.7709777897
 23
151.6385012364
 14
89.3648137039
 24
107.9403281969
 50
270.0
100
AcDbRotatedDimension
  0
DIMENSION
  5
25E
100
AcDbEntity
  8
0
100
AcDbDimension
 62
2
  6
CONTINUOUS
  2
*D2
 10
170.7752823861
 20
166.3446363359
 11
161.2658060447
 21
164.4696363359
 70
160
 71
2
 42
19.0189526827
  1
<>mm\P3/4"
  3
DIMSTYLE_2
100
AcDbAlignedDimension
 13
151.7563297034
 23
151.6383981742
 14
170.7752823861
 24
130.4980297305
100
AcDbRotatedDimension
  0
ACAD_TABLE
  5
25F
100
AcDbEntity
  8
0
 62
2
  6
CONTINUOUS
100
AcDbBlockReference
  2
*T1
 10
143.9999958937
 20
47.9999925619
 30
0.0
100
AcDbTable
342
       325
343
211
 11
1.0
 21
0.0
 31
0.0
 90
22
 91
4
 92
4
 93
0
 94
0
 95
0
 96
0
141
18.0
141
5.0
141
5.0
141
15.0
142
45.0
142
28.0
142
70.0
142
5.0
171
1
172
0
173
0
174
0
175
1
176
1
 91
41
178
0
145
0.0
301
CELL_VALUE
 90
4
  1
\A1;O\H5.5;RAC\Ftrium.ttf;\H3.0;\S®^ ;\PD  E  C  O  R\Fcgtime.ttf;\H2.5; 
304
ACVALUE_END
170
5
140
8.0
 64
7
171
1
172
0
173
0
174
0
175
1
176
2
 91
57
178
0
145
0.0
  7
TEXTSTYLE_3
301
CELL_VALUE
 90
4
  1
Part name:\PDesigned by:\PDesigned on:
304
ACVALUE_END
170
6
140
2.75
 64
7
171
1
172
0
173
0
174
0
175
1
176
2
 91
49
178
0
145
0.0
  7
TEXTSTYLE_3
301
CELL_VALUE
 90
4
  1
G78\PUlf Moritz\P25-Aug-2014 
304
ACVALUE_END
170
4
140
2.75
171
1
172
0
173
0
174
0
175
1
176
2
 91
49
178
0
145
0.0
  7
TEXTSTYLE_3
301
CELL_VALUE
 90
4
  1
Version: 1.0 
304
ACVALUE_END
170
6
140
1.5
171
1
172
0
173
0
174
0
175
1
176
3
 91
57
178
0
145
0.0
  7
TEXTSTYLE_3
301
CELL_VALUE
 90
4
  1
Biekorfstraat 32\P8400 Oostende - Belgium\PTel  +32 (0)59 80 32 52\Pwww.oracdecor.com\Pinfo@oracdecor.com
304
ACVALUE_END
170
5
140
2.5
 64
7
171
1
172
0
173
1
174
0
175
1
176
1
 91
1
178
0
145
0.0
170
1
171
1
172
0
173
1
174
0
175
1
176
1
 91
1
178
0
145
0.0
170
1
171
1
172
0
173
1
174
0
175
1
176
1
 91
1
178
0
145
0.0
170
1
171
1
172
0
173
1
174
0
175
1
176
1
 91
1
178
0
145
0.0
170
1
171
1
172
0
173
0
174
0
175
3
176
1
 91
57
178
0
145
0.0
  7
TEXTSTYLE_3
301
CELL_VALUE
 90
4
  1
All dimensions are in mm unless otherwise specified   
304
ACVALUE_END
170
1
140
2.5
 64
7
171
1
172
0
173
1
174
0
175
1
176
1
 91
1
178
0
145
0.0
170
1
171
1
172
0
173
1
174
0
175
1
176
1
 91
1
178
0
145
0.0
170
1
171
1
172
0
173
1
174
0
175
1
176
1
 91
1
178
0
145
0.0
170
1
171
1
172
0
173
0
174
0
175
3
176
1
 91
57
178
0
145
0.0
  7
TEXTSTYLE_3
301
CELL_VALUE
 90
4
  2
All information in this document is Orac's exclusive property.  It may in no case \Pbe reproduced, even partly, be communicated to a third party or used for any \Ppossible purpose without ORAC's express written permission. \PFurther legal information
  1
 can be found at http://www.oracdecor.be/nl/disclaimer 
304
ACVALUE_END
170
4
140
1.85
 64
7
171
1
172
0
173
1
174
0
175
1
176
1
 91
1
178
0
145
0.0
170
1
171
1
172
0
173
1
174
0
175
1
176
1
 91
1
178
0
145
0.0
170
1
  0
LINE
  5
260
100
AcDbEntity
  8
0
100
AcDbLine
 62
5
  6
CONTINUOUS
 10
0.0
 20
0.0
 11
0.0
 21
210.0
  0
LINE
  5
261
100
AcDbEntity
  8
0
100
AcDbLine
 62
7
  6
CONTINUOUS
 10
5.0
 20
5.0
 11
5.0
 21
195.0
  0
LINE
  5
262
100
AcDbEntity
  8
0
100
AcDbLine
 62
5
  6
CONTINUOUS
 10
0.0
 20
0.0
 11
297.0
 21
0.0
  0
LINE
  5
263
100
AcDbEntity
  8
0
100
AcDbLine
 62
7
  6
CONTINUOUS
 10
5.0
 20
5.0
 11
292.0
 21
5.0
  0
LINE
  5
264
100
AcDbEntity
  8
0
100
AcDbLine
 62
4
  6
CONTINUOUS
 10
148.5
 20
195.0
 11
148.5
 21
205.0
  0
LINE
  5
265
100
AcDbEntity
  8
0
100
AcDbLine
 62
7
  6
CONTINUOUS
 10
5.0
 20
195.0
 11
292.0
 21
195.0
  0
LINE
  5
266
100
AcDbEntity
  8
0
100
AcDbLine
 62
5
  6
CONTINUOUS
 10
0.0
 20
210.0
 11
297.0
 21
210.0
  0
LINE
  5
267
100
AcDbEntity
  8
0
100
AcDbLine
 62
7
  6
CONTINUOUS
 10
292.0
 20
5.0
 11
292.0
 21
195.0
  0
LINE
  5
268
100
AcDbEntity
  8
0
100
AcDbLine
 62
5
  6
CONTINUOUS
 10
297.0
 20
0.0
 11
297.0
 21
210.0
  0
LWPOLYLINE
  5
269
100
AcDbEntity
  8
DTM_AXIS
100
AcDbPolyline
 62
7
  6
CONTINUOUS
 90
117
 70
0
 10
264.8368147644
 20
109.4341451298
 10
264.6624298257
 20
109.5565527823
 10
264.4840114697
 20
109.6794098475
 10
264.3020387868
 20
109.8023363063
 10
264.1168221853
 20
109.9250915086
 10
263.9285958578
 20
110.0474918643
 10
263.737182454
 20
110.16962245
 10
263.5422547361
 20
110.2916545908
 10
263.3439912481
 20
110.4134385067
 10
263.1422536727
 20
110.5350240179
 10
262.9362092969
 20
110.6568633951
 10
262.725886937
 20
110.7788790009
 10
262.5112710005
 20
110.9010205385
 10
262.2914179117
 20
111.0237460777
 10
262.0662429026
 20
111.1470088063
 10
261.8358041407
 20
111.2706856687
 10
261.5993400431
 20
111.3950864033
 10
261.3566933409
 20
111.5201836781
 10
261.1079944822
 20
111.6458034485
 10
260.8528929336
 20
111.7720118532
 10
260.5910670386
 20
111.8988388935
 10
260.3227845991
 20
112.0260261025
 10
260.0485734047
 20
112.1532097298
 10
259.7683992366
 20
112.2803025608
 10
259.4822864754
 20
112.4071930715
 10
259.1908732849
 20
112.5335105058
 10
258.894185234
 20
112.6591686534
 10
258.5922271025
 20
112.7840932476
 10
258.285625677
 20
112.907964267
 10
257.9744686098
 20
113.0306979781
 10
257.65873758
 20
113.1522550162
 10
257.3389001114
 20
113.2724024041
 10
257.015256054
 20
113.3909758865
 10
256.6875473812
 20
113.5080194584
 10
256.3553930904
 20
113.6236105426
 10
256.0189017148
 20
113.7376497142
 10
255.6780079015
 20
113.8500993161
 10
255.3320597348
 20
113.9611062805
 10
254.9810806118
 20
114.0705873477
 10
254.625092926
 20
114.1784611965
 10
254.2634330284
 20
114.2848466702
 10
253.8960904329
 20
114.3896530785
 10
253.523109907
 20
114.4927718034
 10
253.1438999274
 20
114.594263721
 10
252.7584266667
 20
114.6940274415
 10
252.3667618037
 20
114.7919342779
 10
251.968465094
 20
114.8879760392
 10
251.5635569911
 20
114.9820228978
 10
251.1520620554
 20
115.0739448694
 10
250.7335408105
 20
115.1637095377
 10
250.3080356978
 20
115.251159497
 10
249.8755357033
 20
115.3361379305
 10
249.4355108802
 20
115.4185804752
 10
248.9880616205
 20
115.4982922386
 10
248.533125715
 20
115.575112265
 10
248.0699278066
 20
115.6489913247
 10
247.5985253615
 20
115.7197283517
 10
247.1189271492
 20
115.7871281031
 10
246.6302755836
 20
115.851093379
 10
246.1326305519
 20
115.9113780799
 10
245.6259925317
 20
115.9677405582
 10
245.1094076569
 20
116.0200266442
 10
244.5829798335
 20
116.067947661
 10
244.0466907616
 20
116.1112228914
 10
243.4994013056
 20
116.149636776
 10
242.9411915526
 20
116.1828429139
 10
242.3720814677
 20
116.2104872959
 10
241.7908369871
 20
116.2322473921
 10
241.1976776451
 20
116.2477047893
 10
240.5925165987
 20
116.2564421567
 10
239.9736617737
 20
116.2580201468
 10
239.3412475307
 20
116.2519281989
 10
238.6953118413
 20
116.2376397951
 10
238.0340220635
 20
116.2145350382
 10
237.357504085
 20
116.1819850233
 10
236.6658643858
 20
116.13934304
 10
235.9572517728
 20
116.0857799266
 10
235.2319905402
 20
116.0205384095
 10
234.4900771842
 20
115.9428101981
 10
233.7291957733
 20
115.8514569558
 10
232.9505917432
 20
115.7456663338
 10
232.153469148
 20
115.6243299825
 10
231.332504801
 20
115.4854268201
 10
230.4945192627
 20
115.3288785687
 10
229.6332953922
 20
115.1522419388
 10
228.7242359906
 20
114.9482359126
 10
227.7650993328
 20
114.7131570176
 10
226.759733563
 20
114.4445344573
 10
225.6931995807
 20
114.134268949
 10
224.5574007185
 20
113.7745357702
 10
223.3631885792
 20
113.3627137645
 10
222.124099168
 20
112.8978802053
 10
220.8494599526
 20
112.3787016338
 10
219.53327769
 20
111.797855865
 10
218.1665353274
 20
111.14523117
 10
216.7422280181
 20
110.4100242664
 10
215.2739814195
 20
109.5913701506
 10
213.7849492279
 20
108.6956663169
 10
212.2559740639
 20
107.7039691411
 10
210.720101376
 20
106.6293300842
 10
209.273935031
 20
105.5398777027
 10
207.9610093436
 20
104.4792989426
 10
206.7365767484
 20
103.4219277956
 10
205.5618815859
 20
102.3377004616
 10
204.4349765917
 20
101.2243233459
 10
203.3647608599
 20
100.0910638072
 10
202.3357205427
 20
98.9206646562
 10
201.3529089288
 20
97.7162205863
 10
200.4196245241
 20
96.4797082115
 10
199.5235282635
 20
95.1903401977
 10
198.6709555518
 20
93.8507322085
 10
197.8695530668
 20
92.4667751262
 10
197.1142845095
 20
91.022140802
 10
196.4099658879
 20
89.5158000477
 10
195.7660202587
 20
87.9585459844
 10
195.1865519609
 20
86.3523641071
 10
194.6445311685
 20
84.5902033725
  0
LINE
  5
26A
100
AcDbEntity
  8
DTM_AXIS
100
AcDbLine
 62
7
  6
CONTINUOUS
 10
265.0075839397
 20
109.3119492489
 11
264.8368147644
 21
109.4341451298
  0
LWPOLYLINE
  5
26B
100
AcDbEntity
  8
DTM_AXIS
100
AcDbPolyline
 62
7
  6
CONTINUOUS
 90
3
 70
0
 10
266.3164264546
 20
108.2863620069
 10
266.1896218528
 20
108.3838260155
 10
266.1263420721
 20
108.4303751193
  0
LWPOLYLINE
  5
26C
100
AcDbEntity
  8
DTM_AXIS
100
AcDbPolyline
 62
7
  6
CONTINUOUS
 90
7
 70
0
 10
265.9721746976
 20
108.5735731596
 10
265.8204035116
 20
108.6956239071
 10
265.6647410336
 20
108.8184001217
 10
265.5052074558
 20
108.9418052012
 10
265.3418573592
 20
109.0657137669
 10
265.1757323199
 20
109.1892838829
 10
265.0075839397
 20
109.3119492489
  0
LWPOLYLINE
  5
26D
100
AcDbEntity
  8
DTM_AXIS
100
AcDbPolyline
 62
7
  6
CONTINUOUS
 90
3
 70
0
 10
266.2613020097
 20
108.3342850071
 10
266.1191256006
 20
108.4530953731
 10
265.9721746976
 20
108.5735731596
  0
LINE
  5
26E
100
AcDbEntity
  8
DTM_AXIS
100
AcDbLine
 62
7
  6
CONTINUOUS
 10
266.3481501481
 20
108.2603113243
 11
266.2613020097
 21
108.3342850071
  0
LWPOLYLINE
  5
26F
100
AcDbEntity
  8
DTM_AXIS
100
AcDbPolyline
 62
7
  6
CONTINUOUS
 90
14
 70
0
 10
268.0735708392
 20
105.77994876
 10
268.0238781655
 20
105.901395347
 10
267.892900876
 20
106.1947220574
 10
267.7548896394
 20
106.4731717063
 10
267.6117042393
 20
106.7350539325
 10
267.4648780338
 20
106.9794425484
 10
267.3159845577
 20
107.2057509923
 10
267.1645626148
 20
107.4153062941
 10
267.0123842277
 20
107.6067506858
 10
266.8638705738
 20
107.776810416
 10
266.7200534567
 20
107.9271506941
 10
266.5802309374
 20
108.0612033973
 10
266.4452521974
 20
108.1805736144
 10
266.3164264546
 20
108.2863620069
  0
LINE
  5
270
100
AcDbEntity
  8
DTM_AXIS
100
AcDbLine
 62
7
  6
CONTINUOUS
 10
124.5726643793
 20
121.2784193672
 11
125.2571157403
 21
122.6142301324
  0
LINE
  5
271
100
AcDbEntity
  8
DTM_AXIS
100
AcDbLine
 62
7
  6
CONTINUOUS
 10
151.7563297034
 20
151.6385149443
 11
151.7563297034
 21
107.9401980074
  0
LINE
  5
272
100
AcDbEntity
  8
DTM_AXIS
100
AcDbLine
 62
7
  6
CONTINUOUS
 10
169.296164329
 20
127.1410049284
 11
169.3529441293
 21
127.2261907888
  0
LINE
  5
273
100
AcDbEntity
  8
DTM_AXIS
100
AcDbLine
 62
7
  6
CONTINUOUS
 10
169.235232386
 20
127.0504701947
 11
169.296164329
 21
127.1410049284
  0
LINE
  5
274
100
AcDbEntity
  8
DTM_AXIS
100
AcDbLine
 62
7
  6
CONTINUOUS
 10
169.1755149556
 20
126.9625925116
 11
169.235232386
 21
127.0504701947
  0
LINE
  5
275
100
AcDbEntity
  8
DTM_AXIS
100
AcDbLine
 62
7
  6
CONTINUOUS
 10
169.1123375068
 20
126.8705092728
 11
169.1755149556
 21
126.9625925116
  0
LINE
  5
276
100
AcDbEntity
  8
DTM_AXIS
100
AcDbLine
 62
7
  6
CONTINUOUS
 10
169.0462149744
 20
126.7750755209
 11
169.1123375068
 21
126.8705092728
  0
LINE
  5
277
100
AcDbEntity
  8
DTM_AXIS
100
AcDbLine
 62
7
  6
CONTINUOUS
 10
168.9822342253
 20
126.6836195535
 11
169.0462149744
 21
126.7750755209
  0
LINE
  5
278
100
AcDbEntity
  8
DTM_AXIS
100
AcDbLine
 62
7
  6
CONTINUOUS
 10
168.9161583364
 20
126.5900546756
 11
168.9822342253
 21
126.6836195535
  0
LINE
  5
279
100
AcDbEntity
  8
DTM_AXIS
100
AcDbLine
 62
7
  6
CONTINUOUS
 10
168.8483708153
 20
126.4949729748
 11
168.9161583364
 21
126.5900546756
  0
LINE
  5
27A
100
AcDbEntity
  8
DTM_AXIS
100
AcDbLine
 62
7
  6
CONTINUOUS
 10
168.7791324425
 20
126.3987768635
 11
168.8483708153
 21
126.4949729748
  0
LINE
  5
27B
100
AcDbEntity
  8
DTM_AXIS
100
AcDbLine
 62
7
  6
CONTINUOUS
 10
168.7085251199
 20
126.3016146994
 11
168.7791324425
 21
126.3987768635
  0
LINE
  5
27C
100
AcDbEntity
  8
DTM_AXIS
100
AcDbLine
 62
7
  6
CONTINUOUS
 10
168.6402109847
 20
126.2084897647
 11
168.7085251199
 21
126.3016146994
  0
LINE
  5
27D
100
AcDbEntity
  8
DTM_AXIS
100
AcDbLine
 62
7
  6
CONTINUOUS
 10
168.5702080818
 20
126.1139450427
 11
168.6402109847
 21
126.2084897647
  0
LINE
  5
27E
100
AcDbEntity
  8
DTM_AXIS
100
AcDbLine
 62
7
  6
CONTINUOUS
 10
168.5000970923
 20
126.0201332485
 11
168.5702080818
 21
126.1139450427
  0
LINE
  5
27F
100
AcDbEntity
  8
DTM_AXIS
100
AcDbLine
 62
7
  6
CONTINUOUS
 10
168.4291719656
 20
125.9261113142
 11
168.5000970923
 21
126.0201332485
  0
LINE
  5
280
100
AcDbEntity
  8
DTM_AXIS
100
AcDbLine
 62
7
  6
CONTINUOUS
 10
168.3590526451
 20
125.8340121835
 11
168.4291719656
 21
125.9261113142
  0
LINE
  5
281
100
AcDbEntity
  8
DTM_AXIS
100
AcDbLine
 62
7
  6
CONTINUOUS
 10
168.2876685581
 20
125.7411103841
 11
168.3590526451
 21
125.8340121835
  0
LINE
  5
282
100
AcDbEntity
  8
DTM_AXIS
100
AcDbLine
 62
7
  6
CONTINUOUS
 10
168.2150481141
 20
125.647474269
 11
168.2876685581
 21
125.7411103841
  0
LINE
  5
283
100
AcDbEntity
  8
DTM_AXIS
100
AcDbLine
 62
7
  6
CONTINUOUS
 10
168.1440205367
 20
125.5567321918
 11
168.2150481141
 21
125.647474269
  0
LINE
  5
284
100
AcDbEntity
  8
DTM_AXIS
100
AcDbLine
 62
7
  6
CONTINUOUS
 10
168.046865335
 20
125.4339335372
 11
168.1440205367
 21
125.5567321918
  0
LINE
  5
285
100
AcDbEntity
  8
DTM_AXIS
100
AcDbLine
 62
7
  6
CONTINUOUS
 10
160.3630368367
 20
116.4849131926
 11
163.2274796304
 21
119.8434830097
  0
LINE
  5
286
100
AcDbEntity
  8
DTM_AXIS
100
AcDbLine
 62
7
  6
CONTINUOUS
 10
163.2274796304
 20
119.8434830097
 11
164.2952458123
 21
121.0853030987
  0
LINE
  5
287
100
AcDbEntity
  8
DTM_AXIS
100
AcDbLine
 62
7
  6
CONTINUOUS
 10
159.4259890631
 20
115.3975661408
 11
160.3630368367
 21
116.4849131926
  0
LINE
  5
288
100
AcDbEntity
  8
DTM_AXIS
100
AcDbLine
 62
7
  6
CONTINUOUS
 10
164.2952458123
 20
121.0853030987
 11
165.5029918961
 21
122.4764549721
  0
LINE
  5
289
100
AcDbEntity
  8
DTM_AXIS
100
AcDbLine
 62
7
  6
CONTINUOUS
 10
165.5029918961
 20
122.4764549721
 11
168.046865335
 21
125.4339335372
  0
LINE
  5
28A
100
AcDbEntity
  8
DTM_AXIS
100
AcDbLine
 62
7
  6
CONTINUOUS
 10
158.8460924434
 20
114.7312219875
 11
159.4259890631
 21
115.3975661408
  0
LINE
  5
28B
100
AcDbEntity
  8
DTM_AXIS
100
AcDbLine
 62
7
  6
CONTINUOUS
 10
158.2986364053
 20
114.1080118409
 11
158.8460924434
 21
114.7312219875
  0
LWPOLYLINE
  5
28C
100
AcDbEntity
  8
DTM_AXIS
100
AcDbPolyline
 62
7
  6
CONTINUOUS
 90
97
 70
0
 10
170.7742046442
 20
130.4286646414
 10
170.7744955788
 20
130.438866362
 10
170.7747404096
 20
130.4490138078
 10
170.7749393171
 20
130.4591019873
 10
170.7750926239
 20
130.469130417
 10
170.7752006589
 20
130.4790988733
 10
170.7752637332
 20
130.489002846
 10
170.7752822335
 20
130.4988419207
 10
170.7752565491
 20
130.5086159647
 10
170.7751871053
 20
130.5183209837
 10
170.7750743461
 20
130.5279566421
 10
170.7749187143
 20
130.5375228959
 10
170.7747207308
 20
130.5470162818
 10
170.7744808897
 20
130.5564365488
 10
170.7741996794
 20
130.5657837378
 10
170.7738776974
 20
130.5750549139
 10
170.7735154882
 20
130.5842497141
 10
170.773113572
 20
130.5933684597
 10
170.7726725732
 20
130.6024093204
 10
170.7721930315
 20
130.6113726257
 10
170.7716755154
 20
130.6202581462
 10
170.7711207538
 20
130.6290632928
 10
170.7705293123
 20
130.6377885336
 10
170.7699018008
 20
130.6464336655
 10
170.7692390984
 20
130.6549951944
 10
170.768541851
 20
130.6634732134
 10
170.7678106827
 20
130.6718680866
 10
170.7670465295
 20
130.6801768364
 10
170.7662503311
 20
130.6883970786
 10
170.7654225138
 20
130.6965318535
 10
170.7645632184
 20
130.7045863121
 10
170.7636743404
 20
130.7125493818
 10
170.7627552895
 20
130.7204328323
 10
170.7618020079
 20
130.7282757261
 10
170.7608133401
 20
130.7360895495
 10
170.759790934
 20
130.7438632226
 10
170.7587344561
 20
130.7516015445
 10
170.7576438837
 20
130.7593065259
 10
170.7565197027
 20
130.7669765289
 10
170.7553622971
 20
130.7746108237
 10
170.7541720532
 20
130.7822087927
 10
170.7529491018
 20
130.7897714816
 10
170.7516934374
 20
130.7973006479
 10
170.7504053567
 20
130.8047961446
 10
170.7490850415
 20
130.8122585097
 10
170.7477322635
 20
130.8196904744
 10
170.7463472444
 20
130.8270921339
 10
170.7449301816
 20
130.834463726
 10
170.7434807451
 20
130.841808129
 10
170.7419991306
 20
130.849125399
 10
170.7404855036
 20
130.856415756
 10
170.7389394207
 20
130.8636822542
 10
170.7373610517
 20
130.8709249069
 10
170.7357505291
 20
130.8781439186
 10
170.7341072805
 20
130.8853425532
 10
170.7324314504
 20
130.8925207783
 10
170.7307231361
 20
130.8996787837
 10
170.7289816178
 20
130.9068200857
 10
170.7272070145
 20
130.9139446009
 10
170.7253993864
 20
130.9210525068
 10
170.7235578423
 20
130.9281476226
 10
170.7216824761
 20
130.9352298084
 10
170.7197733082
 20
130.9422992318
 10
170.7178292458
 20
130.9493600773
 10
170.7158503588
 20
130.9564121408
 10
170.7138366232
 20
130.9634555838
 10
170.7117867079
 20
130.9704950331
 10
170.7097006586
 20
130.9775302111
 10
170.707578403
 20
130.9845612773
 10
170.7054183229
 20
130.9915933975
 10
170.703220442
 20
130.9986262084
 10
170.7009846326
 20
131.0056598737
 10
170.6987089286
 20
131.0127002193
 10
170.6963933007
 20
131.0197468797
 10
170.6940375902
 20
131.0267999313
 10
170.6916395044
 20
131.0338657189
 10
170.6891987414
 20
131.0409445022
 10
170.6867153262
 20
131.0480356366
 10
170.6841873406
 20
131.05514398
 10
170.6816146245
 20
131.0622693114
 10
170.678997032
 20
131.06941143
 10
170.6763325737
 20
131.0765751153
 10
170.6736209919
 20
131.083760369
 10
170.6708622231
 20
131.0909667436
 10
170.6680544932
 20
131.0981982521
 10
170.6651980987
 20
131.1054535415
 10
170.6622924724
 20
131.1127335557
 10
170.6593344487
 20
131.120045638
 10
170.6563243664
 20
131.1273883292
 10
170.6532615941
 20
131.1347626472
 10
170.6501413449
 20
131.1421794599
 10
170.6469639165
 20
131.1496373248
 10
170.6437286552
 20
131.1571371663
 10
170.6404291211
 20
131.1646931439
 10
170.6370657847
 20
131.1723033231
 10
170.6336377489
 20
131.1799690338
 10
170.6265623935
 20
131.1955197447
  0
LINE
  5
28D
100
AcDbEntity
  8
DTM_AXIS
100
AcDbLine
 62
7
  6
CONTINUOUS
 10
170.7734834245
 20
130.4080998575
 11
170.7742046442
 21
130.4286646414
  0
LINE
  5
28E
100
AcDbEntity
  8
DTM_AXIS
100
AcDbLine
 62
7
  6
CONTINUOUS
 10
170.7725754298
 20
130.3873380424
 11
170.7734834245
 21
130.4080998575
  0
LINE
  5
28F
100
AcDbEntity
  8
DTM_AXIS
100
AcDbLine
 62
7
  6
CONTINUOUS
 10
170.7714796306
 20
130.3663933284
 11
170.7725754298
 21
130.3873380424
  0
LINE
  5
290
100
AcDbEntity
  8
DTM_AXIS
100
AcDbLine
 62
7
  6
CONTINUOUS
 10
170.7701957504
 20
130.3452856447
 11
170.7714796306
 21
130.3663933284
  0
LINE
  5
291
100
AcDbEntity
  8
DTM_AXIS
100
AcDbLine
 62
7
  6
CONTINUOUS
 10
170.7687241433
 20
130.3240359028
 11
170.7701957504
 21
130.3452856447
  0
LINE
  5
292
100
AcDbEntity
  8
DTM_AXIS
100
AcDbLine
 62
7
  6
CONTINUOUS
 10
170.7670653121
 20
130.3026597795
 11
170.7687241433
 21
130.3240359028
  0
LINE
  5
293
100
AcDbEntity
  8
DTM_AXIS
100
AcDbLine
 62
7
  6
CONTINUOUS
 10
170.7652206763
 20
130.2811788027
 11
170.7670653121
 21
130.3026597795
  0
LINE
  5
294
100
AcDbEntity
  8
DTM_AXIS
100
AcDbLine
 62
7
  6
CONTINUOUS
 10
170.7631922355
 20
130.2596145817
 11
170.7652206763
 21
130.2811788027
  0
LINE
  5
295
100
AcDbEntity
  8
DTM_AXIS
100
AcDbLine
 62
7
  6
CONTINUOUS
 10
170.7609819495
 20
130.2379830441
 11
170.7631922355
 21
130.2596145817
  0
LINE
  5
296
100
AcDbEntity
  8
DTM_AXIS
100
AcDbLine
 62
7
  6
CONTINUOUS
 10
170.7585927689
 20
130.216305544
 11
170.7609819495
 21
130.2379830441
  0
LINE
  5
297
100
AcDbEntity
  8
DTM_AXIS
100
AcDbLine
 62
7
  6
CONTINUOUS
 10
170.7560280738
 20
130.1946025394
 11
170.7585927689
 21
130.216305544
  0
LINE
  5
298
100
AcDbEntity
  8
DTM_AXIS
100
AcDbLine
 62
7
  6
CONTINUOUS
 10
170.7532910096
 20
130.1728888167
 11
170.7560280738
 21
130.1946025394
  0
LINE
  5
299
100
AcDbEntity
  8
DTM_AXIS
100
AcDbLine
 62
7
  6
CONTINUOUS
 10
170.7503856721
 20
130.1511837319
 11
170.7532910096
 21
130.1728888167
  0
LINE
  5
29A
100
AcDbEntity
  8
DTM_AXIS
100
AcDbLine
 62
7
  6
CONTINUOUS
 10
170.7473163633
 20
130.12950489
 11
170.7503856721
 21
130.1511837319
  0
LINE
  5
29B
100
AcDbEntity
  8
DTM_AXIS
100
AcDbLine
 62
7
  6
CONTINUOUS
 10
170.7440869969
 20
130.107864721
 11
170.7473163633
 21
130.12950489
  0
LINE
  5
29C
100
AcDbEntity
  8
DTM_AXIS
100
AcDbLine
 62
7
  6
CONTINUOUS
 10
170.7407022824
 20
130.0862790744
 11
170.7440869969
 21
130.107864721
  0
LINE
  5
29D
100
AcDbEntity
  8
DTM_AXIS
100
AcDbLine
 62
7
  6
CONTINUOUS
 10
170.7371668701
 20
130.0647613586
 11
170.7407022824
 21
130.0862790744
  0
LINE
  5
29E
100
AcDbEntity
  8
DTM_AXIS
100
AcDbLine
 62
7
  6
CONTINUOUS
 10
170.733485026
 20
130.0433211975
 11
170.7371668701
 21
130.0647613586
  0
LINE
  5
29F
100
AcDbEntity
  8
DTM_AXIS
100
AcDbLine
 62
7
  6
CONTINUOUS
 10
170.7296610953
 20
130.0219677132
 11
170.733485026
 21
130.0433211975
  0
LINE
  5
2A0
100
AcDbEntity
  8
DTM_AXIS
100
AcDbLine
 62
7
  6
CONTINUOUS
 10
170.7257036658
 20
130.000731363
 11
170.7296610953
 21
130.0219677132
  0
LINE
  5
2A1
100
AcDbEntity
  8
DTM_AXIS
100
AcDbLine
 62
7
  6
CONTINUOUS
 10
170.7216187579
 20
129.9796249881
 11
170.7257036658
 21
130.000731363
  0
LINE
  5
2A2
100
AcDbEntity
  8
DTM_AXIS
100
AcDbLine
 62
7
  6
CONTINUOUS
 10
170.7174124261
 20
129.9586600986
 11
170.7216187579
 21
129.9796249881
  0
LINE
  5
2A3
100
AcDbEntity
  8
DTM_AXIS
100
AcDbLine
 62
7
  6
CONTINUOUS
 10
170.7130888552
 20
129.9378382388
 11
170.7174124261
 21
129.9586600986
  0
LINE
  5
2A4
100
AcDbEntity
  8
DTM_AXIS
100
AcDbLine
 62
7
  6
CONTINUOUS
 10
170.7086521351
 20
129.9171606957
 11
170.7130888552
 21
129.9378382388
  0
LINE
  5
2A5
100
AcDbEntity
  8
DTM_AXIS
100
AcDbLine
 62
7
  6
CONTINUOUS
 10
170.7041061991
 20
129.8966282271
 11
170.7086521351
 21
129.9171606957
  0
LINE
  5
2A6
100
AcDbEntity
  8
DTM_AXIS
100
AcDbLine
 62
7
  6
CONTINUOUS
 10
170.6994544282
 20
129.8762393967
 11
170.7041061991
 21
129.8966282271
  0
LINE
  5
2A7
100
AcDbEntity
  8
DTM_AXIS
100
AcDbLine
 62
7
  6
CONTINUOUS
 10
170.6947000345
 20
129.8559924595
 11
170.6994544282
 21
129.8762393967
  0
LINE
  5
2A8
100
AcDbEntity
  8
DTM_AXIS
100
AcDbLine
 62
7
  6
CONTINUOUS
 10
170.6898457573
 20
129.8358841285
 11
170.6947000345
 21
129.8559924595
  0
LINE
  5
2A9
100
AcDbEntity
  8
DTM_AXIS
100
AcDbLine
 62
7
  6
CONTINUOUS
 10
170.6848939535
 20
129.8159101065
 11
170.6898457573
 21
129.8358841285
  0
LINE
  5
2AA
100
AcDbEntity
  8
DTM_AXIS
100
AcDbLine
 62
7
  6
CONTINUOUS
 10
170.6798478448
 20
129.796070024
 11
170.6848939535
 21
129.8159101065
  0
LINE
  5
2AB
100
AcDbEntity
  8
DTM_AXIS
100
AcDbLine
 62
7
  6
CONTINUOUS
 10
170.6747128787
 20
129.7763721003
 11
170.6798478448
 21
129.796070024
  0
LINE
  5
2AC
100
AcDbEntity
  8
DTM_AXIS
100
AcDbLine
 62
7
  6
CONTINUOUS
 10
170.6694885554
 20
129.7568018773
 11
170.6747128787
 21
129.7763721003
  0
LINE
  5
2AD
100
AcDbEntity
  8
DTM_AXIS
100
AcDbLine
 62
7
  6
CONTINUOUS
 10
170.6641752542
 20
129.7373494725
 11
170.6694885554
 21
129.7568018773
  0
LINE
  5
2AE
100
AcDbEntity
  8
DTM_AXIS
100
AcDbLine
 62
7
  6
CONTINUOUS
 10
170.658771206
 20
129.7179983151
 11
170.6641752542
 21
129.7373494725
  0
LINE
  5
2AF
100
AcDbEntity
  8
DTM_AXIS
100
AcDbLine
 62
7
  6
CONTINUOUS
 10
170.6532744005
 20
129.6987324299
 11
170.658771206
 21
129.7179983151
  0
LINE
  5
2B0
100
AcDbEntity
  8
DTM_AXIS
100
AcDbLine
 62
7
  6
CONTINUOUS
 10
170.6476837609
 20
129.6795403273
 11
170.6532744005
 21
129.6987324299
  0
LINE
  5
2B1
100
AcDbEntity
  8
DTM_AXIS
100
AcDbLine
 62
7
  6
CONTINUOUS
 10
170.6419965833
 20
129.6604059954
 11
170.6476837609
 21
129.6795403273
  0
LINE
  5
2B2
100
AcDbEntity
  8
DTM_AXIS
100
AcDbLine
 62
7
  6
CONTINUOUS
 10
170.6362098771
 20
129.6413136872
 11
170.6419965833
 21
129.6604059954
  0
LINE
  5
2B3
100
AcDbEntity
  8
DTM_AXIS
100
AcDbLine
 62
7
  6
CONTINUOUS
 10
170.6303216492
 20
129.6222519856
 11
170.6362098771
 21
129.6413136872
  0
LINE
  5
2B4
100
AcDbEntity
  8
DTM_AXIS
100
AcDbLine
 62
7
  6
CONTINUOUS
 10
170.6243283068
 20
129.6032052053
 11
170.6303216492
 21
129.6222519856
  0
LINE
  5
2B5
100
AcDbEntity
  8
DTM_AXIS
100
AcDbLine
 62
7
  6
CONTINUOUS
 10
170.6182260302
 20
129.5841579974
 11
170.6243283068
 21
129.6032052053
  0
LINE
  5
2B6
100
AcDbEntity
  8
DTM_AXIS
100
AcDbLine
 62
7
  6
CONTINUOUS
 10
170.6120120328
 20
129.5650991309
 11
170.6182260302
 21
129.5841579974
  0
LINE
  5
2B7
100
AcDbEntity
  8
DTM_AXIS
100
AcDbLine
 62
7
  6
CONTINUOUS
 10
170.6056819636
 20
129.5460133596
 11
170.6120120328
 21
129.5650991309
  0
LINE
  5
2B8
100
AcDbEntity
  8
DTM_AXIS
100
AcDbLine
 62
7
  6
CONTINUOUS
 10
170.5992312874
 20
129.5268857977
 11
170.6056819636
 21
129.5460133596
  0
LINE
  5
2B9
100
AcDbEntity
  8
DTM_AXIS
100
AcDbLine
 62
7
  6
CONTINUOUS
 10
170.5926565179
 20
129.5077054415
 11
170.5992312874
 21
129.5268857977
  0
LINE
  5
2BA
100
AcDbEntity
  8
DTM_AXIS
100
AcDbLine
 62
7
  6
CONTINUOUS
 10
170.5859538943
 20
129.4884610805
 11
170.5926565179
 21
129.5077054415
  0
LINE
  5
2BB
100
AcDbEntity
  8
DTM_AXIS
100
AcDbLine
 62
7
  6
CONTINUOUS
 10
170.5791118979
 20
129.4691203081
 11
170.5859538943
 21
129.4884610805
  0
LINE
  5
2BC
100
AcDbEntity
  8
DTM_AXIS
100
AcDbLine
 62
7
  6
CONTINUOUS
 10
170.5721207765
 20
129.4496571529
 11
170.5791118979
 21
129.4691203081
  0
LINE
  5
2BD
100
AcDbEntity
  8
DTM_AXIS
100
AcDbLine
 62
7
  6
CONTINUOUS
 10
170.5649607919
 20
129.4300193228
 11
170.5721207765
 21
129.4496571529
  0
LINE
  5
2BE
100
AcDbEntity
  8
DTM_AXIS
100
AcDbLine
 62
7
  6
CONTINUOUS
 10
170.5576281504
 20
129.4102001411
 11
170.5649607919
 21
129.4300193228
  0
LINE
  5
2BF
100
AcDbEntity
  8
DTM_AXIS
100
AcDbLine
 62
7
  6
CONTINUOUS
 10
170.5501178135
 20
129.3901898783
 11
170.5576281504
 21
129.4102001411
  0
LINE
  5
2C0
100
AcDbEntity
  8
DTM_AXIS
100
AcDbLine
 62
7
  6
CONTINUOUS
 10
170.5424235857
 20
129.3699761861
 11
170.5501178135
 21
129.3901898783
  0
LINE
  5
2C1
100
AcDbEntity
  8
DTM_AXIS
100
AcDbLine
 62
7
  6
CONTINUOUS
 10
170.5345391703
 20
129.3495469879
 11
170.5424235857
 21
129.3699761861
  0
LINE
  5
2C2
100
AcDbEntity
  8
DTM_AXIS
100
AcDbLine
 62
7
  6
CONTINUOUS
 10
170.5264591911
 20
129.328893045
 11
170.5345391703
 21
129.3495469879
  0
LINE
  5
2C3
100
AcDbEntity
  8
DTM_AXIS
100
AcDbLine
 62
7
  6
CONTINUOUS
 10
170.5181764395
 20
129.3080008658
 11
170.5264591911
 21
129.328893045
  0
LINE
  5
2C4
100
AcDbEntity
  8
DTM_AXIS
100
AcDbLine
 62
7
  6
CONTINUOUS
 10
170.5096848237
 20
129.2868602667
 11
170.5181764395
 21
129.3080008658
  0
LINE
  5
2C5
100
AcDbEntity
  8
DTM_AXIS
100
AcDbLine
 62
7
  6
CONTINUOUS
 10
170.5009889648
 20
129.2654875918
 11
170.5096848237
 21
129.2868602667
  0
LINE
  5
2C6
100
AcDbEntity
  8
DTM_AXIS
100
AcDbLine
 62
7
  6
CONTINUOUS
 10
170.4921111929
 20
129.2439409322
 11
170.5009889648
 21
129.2654875918
  0
LINE
  5
2C7
100
AcDbEntity
  8
DTM_AXIS
100
AcDbLine
 62
7
  6
CONTINUOUS
 10
170.4785353076
 20
129.2114927524
 11
170.4921111929
 21
129.2439409322
  0
LINE
  5
2C8
100
AcDbEntity
  8
DTM_AXIS
100
AcDbLine
 62
7
  6
CONTINUOUS
 10
170.4647511226
 20
129.1791241652
 11
170.4785353076
 21
129.2114927524
  0
LINE
  5
2C9
100
AcDbEntity
  8
DTM_AXIS
100
AcDbLine
 62
7
  6
CONTINUOUS
 10
170.4508217527
 20
129.1469616129
 11
170.4647511226
 21
129.1791241652
  0
LINE
  5
2CA
100
AcDbEntity
  8
DTM_AXIS
100
AcDbLine
 62
7
  6
CONTINUOUS
 10
170.4367608825
 20
129.1150126938
 11
170.4508217527
 21
129.1469616129
  0
LINE
  5
2CB
100
AcDbEntity
  8
DTM_AXIS
100
AcDbLine
 62
7
  6
CONTINUOUS
 10
170.4225749049
 20
129.0832690168
 11
170.4367608825
 21
129.1150126938
  0
LINE
  5
2CC
100
AcDbEntity
  8
DTM_AXIS
100
AcDbLine
 62
7
  6
CONTINUOUS
 10
170.4082702733
 20
129.0517234459
 11
170.4225749049
 21
129.0832690168
  0
LINE
  5
2CD
100
AcDbEntity
  8
DTM_AXIS
100
AcDbLine
 62
7
  6
CONTINUOUS
 10
170.3938526133
 20
129.0203682325
 11
170.4082702733
 21
129.0517234459
  0
LINE
  5
2CE
100
AcDbEntity
  8
DTM_AXIS
100
AcDbLine
 62
7
  6
CONTINUOUS
 10
170.3793274649
 20
128.989196594
 11
170.3938526133
 21
129.0203682325
  0
LINE
  5
2CF
100
AcDbEntity
  8
DTM_AXIS
100
AcDbLine
 62
7
  6
CONTINUOUS
 10
170.3647002406
 20
128.9582025118
 11
170.3793274649
 21
128.989196594
  0
LINE
  5
2D0
100
AcDbEntity
  8
DTM_AXIS
100
AcDbLine
 62
7
  6
CONTINUOUS
 10
170.3499762276
 20
128.9273806402
 11
170.3647002406
 21
128.9582025118
  0
LINE
  5
2D1
100
AcDbEntity
  8
DTM_AXIS
100
AcDbLine
 62
7
  6
CONTINUOUS
 10
170.3351605898
 20
128.8967262306
 11
170.3499762276
 21
128.9273806402
  0
LINE
  5
2D2
100
AcDbEntity
  8
DTM_AXIS
100
AcDbLine
 62
7
  6
CONTINUOUS
 10
170.3152725453
 20
128.8561068916
 11
170.3351605898
 21
128.8967262306
  0
LINE
  5
2D3
100
AcDbEntity
  8
DTM_AXIS
100
AcDbLine
 62
7
  6
CONTINUOUS
 10
170.2952421908
 20
128.8157690953
 11
170.3152725453
 21
128.8561068916
  0
LINE
  5
2D4
100
AcDbEntity
  8
DTM_AXIS
100
AcDbLine
 62
7
  6
CONTINUOUS
 10
170.2750808894
 20
128.775705598
 11
170.2952421908
 21
128.8157690953
  0
LINE
  5
2D5
100
AcDbEntity
  8
DTM_AXIS
100
AcDbLine
 62
7
  6
CONTINUOUS
 10
170.2547993397
 20
128.7359096438
 11
170.2750808894
 21
128.775705598
  0
LINE
  5
2D6
100
AcDbEntity
  8
DTM_AXIS
100
AcDbLine
 62
7
  6
CONTINUOUS
 10
170.2344081767
 20
128.6963759892
 11
170.2547993397
 21
128.7359096438
  0
LINE
  5
2D7
100
AcDbEntity
  8
DTM_AXIS
100
AcDbLine
 62
7
  6
CONTINUOUS
 10
170.2139176758
 20
128.6571001598
 11
170.2344081767
 21
128.6963759892
  0
LINE
  5
2D8
100
AcDbEntity
  8
DTM_AXIS
100
AcDbLine
 62
7
  6
CONTINUOUS
 10
170.1881795339
 20
128.608361417
 11
170.2139176758
 21
128.6571001598
  0
LINE
  5
2D9
100
AcDbEntity
  8
DTM_AXIS
100
AcDbLine
 62
7
  6
CONTINUOUS
 10
170.1623180815
 20
128.5600092981
 11
170.1881795339
 21
128.608361417
  0
LINE
  5
2DA
100
AcDbEntity
  8
DTM_AXIS
100
AcDbLine
 62
7
  6
CONTINUOUS
 10
170.1363463373
 20
128.5120300476
 11
170.1623180815
 21
128.5600092981
  0
LINE
  5
2DB
100
AcDbEntity
  8
DTM_AXIS
100
AcDbLine
 62
7
  6
CONTINUOUS
 10
170.1102765216
 20
128.4644112034
 11
170.1363463373
 21
128.5120300476
  0
LINE
  5
2DC
100
AcDbEntity
  8
DTM_AXIS
100
AcDbLine
 62
7
  6
CONTINUOUS
 10
170.0841202025
 20
128.4171415893
 11
170.1102765216
 21
128.4644112034
  0
LINE
  5
2DD
100
AcDbEntity
  8
DTM_AXIS
100
AcDbLine
 62
7
  6
CONTINUOUS
 10
170.0526328801
 20
128.3608632662
 11
170.0841202025
 21
128.4171415893
  0
LINE
  5
2DE
100
AcDbEntity
  8
DTM_AXIS
100
AcDbLine
 62
7
  6
CONTINUOUS
 10
170.0210521467
 20
128.3050535741
 11
170.0526328801
 21
128.3608632662
  0
LINE
  5
2DF
100
AcDbEntity
  8
DTM_AXIS
100
AcDbLine
 62
7
  6
CONTINUOUS
 10
169.9893652944
 20
128.2496492945
 11
170.0210521467
 21
128.3050535741
  0
LINE
  5
2E0
100
AcDbEntity
  8
DTM_AXIS
100
AcDbLine
 62
7
  6
CONTINUOUS
 10
169.9522432848
 20
128.1854498722
 11
169.9893652944
 21
128.2496492945
  0
LINE
  5
2E1
100
AcDbEntity
  8
DTM_AXIS
100
AcDbLine
 62
7
  6
CONTINUOUS
 10
169.914967133
 20
128.1217064554
 11
169.9522432848
 21
128.1854498722
  0
LINE
  5
2E2
100
AcDbEntity
  8
DTM_AXIS
100
AcDbLine
 62
7
  6
CONTINUOUS
 10
169.8775464085
 20
128.0583999714
 11
169.914967133
 21
128.1217064554
  0
LINE
  5
2E3
100
AcDbEntity
  8
DTM_AXIS
100
AcDbLine
 62
7
  6
CONTINUOUS
 10
169.8399884924
 20
127.99551061
 11
169.8775464085
 21
128.0583999714
  0
LINE
  5
2E4
100
AcDbEntity
  8
DTM_AXIS
100
AcDbLine
 62
7
  6
CONTINUOUS
 10
169.7969151221
 20
127.9241399147
 11
169.8399884924
 21
127.99551061
  0
LINE
  5
2E5
100
AcDbEntity
  8
DTM_AXIS
100
AcDbLine
 62
7
  6
CONTINUOUS
 10
169.7537291907
 20
127.853344496
 11
169.7969151221
 21
127.9241399147
  0
LINE
  5
2E6
100
AcDbEntity
  8
DTM_AXIS
100
AcDbLine
 62
7
  6
CONTINUOUS
 10
169.7104841421
 20
127.7831721656
 11
169.7537291907
 21
127.853344496
  0
LINE
  5
2E7
100
AcDbEntity
  8
DTM_AXIS
100
AcDbLine
 62
7
  6
CONTINUOUS
 10
169.6618288013
 20
127.705032499
 11
169.7104841421
 21
127.7831721656
  0
LINE
  5
2E8
100
AcDbEntity
  8
DTM_AXIS
100
AcDbLine
 62
7
  6
CONTINUOUS
 10
169.6132406455
 20
127.6278096492
 11
169.6618288013
 21
127.705032499
  0
LINE
  5
2E9
100
AcDbEntity
  8
DTM_AXIS
100
AcDbLine
 62
7
  6
CONTINUOUS
 10
169.5647938454
 20
127.5515710229
 11
169.6132406455
 21
127.6278096492
  0
LINE
  5
2EA
100
AcDbEntity
  8
DTM_AXIS
100
AcDbLine
 62
7
  6
CONTINUOUS
 10
169.5112190467
 20
127.4680970141
 11
169.5647938454
 21
127.5515710229
  0
LINE
  5
2EB
100
AcDbEntity
  8
DTM_AXIS
100
AcDbLine
 62
7
  6
CONTINUOUS
 10
169.4580043123
 20
127.3860046342
 11
169.5112190467
 21
127.4680970141
  0
LINE
  5
2EC
100
AcDbEntity
  8
DTM_AXIS
100
AcDbLine
 62
7
  6
CONTINUOUS
 10
169.3999630282
 20
127.2973536871
 11
169.4580043123
 21
127.3860046342
  0
LINE
  5
2ED
100
AcDbEntity
  8
DTM_AXIS
100
AcDbLine
 62
7
  6
CONTINUOUS
 10
169.3529441293
 20
127.2261907888
 11
169.3999630282
 21
127.2973536871
  0
LINE
  5
2EE
100
AcDbEntity
  8
DTM_AXIS
100
AcDbLine
 62
7
  6
CONTINUOUS
 10
157.7832147199
 20
113.5273731067
 11
158.2986364053
 21
114.1080118409
  0
LINE
  5
2EF
100
AcDbEntity
  8
DTM_AXIS
100
AcDbLine
 62
7
  6
CONTINUOUS
 10
157.3000840496
 20
112.9894221453
 11
157.7832147199
 21
113.5273731067
  0
LINE
  5
2F0
100
AcDbEntity
  8
DTM_AXIS
100
AcDbLine
 62
7
  6
CONTINUOUS
 10
156.8436053107
 20
112.4875259212
 11
157.3000840496
 21
112.9894221453
  0
LINE
  5
2F1
100
AcDbEntity
  8
DTM_AXIS
100
AcDbLine
 62
7
  6
CONTINUOUS
 10
156.4104265662
 20
112.0177702303
 11
156.8436053107
 21
112.4875259212
  0
LWPOLYLINE
  5
2F2
100
AcDbEntity
  8
DTM_AXIS
100
AcDbPolyline
 62
7
  6
CONTINUOUS
 90
32
 70
0
 10
169.320759756
 20
133.6514489436
 10
168.7030414944
 20
134.7919370253
 10
168.1011829834
 20
135.8853388574
 10
167.5126331629
 20
136.9333691388
 10
166.9325147168
 20
137.9424043096
 10
166.3591344912
 20
138.9127003773
 10
165.7918809102
 20
139.8430394058
 10
165.2272777962
 20
140.737557454
 10
164.664054175
 20
141.5966213422
 10
164.1020574291
 20
142.4188454559
 10
163.5394930752
 20
143.2057588293
 10
162.9764151945
 20
143.9566254219
 10
162.4125482479
 20
144.6712271739
 10
161.8456400297
 20
145.3518379699
 10
161.2760470731
 20
145.9978693138
 10
160.7041985282
 20
146.6091633792
 10
160.1277960543
 20
147.1879437419
 10
159.5462181199
 20
147.7338776391
 10
158.9611740928
 20
148.2448553063
 10
158.3738363158
 20
148.7199895783
 10
157.7850484976
 20
149.1590712237
 10
157.1962042955
 20
149.5613613725
 10
156.6095070974
 20
149.9257252566
 10
156.0281732381
 20
150.2512263738
 10
155.4527799013
 20
150.5394971043
 10
154.8811382219
 20
150.7933950245
 10
154.3144840379
 20
151.0138421369
 10
153.7552789939
 20
151.2016371679
 10
153.2024757391
 20
151.3586911334
 10
152.6567165546
 20
151.4861620465
 10
152.1206506545
 20
151.5853916577
 10
151.7563297034
 20
151.6385025516
  0
LINE
  5
2F3
100
AcDbEntity
  8
DTM_AXIS
100
AcDbLine
 62
7
  6
CONTINUOUS
 10
170.5454818586
 20
131.3569693475
 11
169.320759756
 21
133.6514489436
  0
LINE
  5
2F4
100
AcDbEntity
  8
DTM_AXIS
100
AcDbLine
 62
7
  6
CONTINUOUS
 10
170.5642445343
 20
131.3213556349
 11
170.5454818586
 21
131.3569693475
  0
LINE
  5
2F5
100
AcDbEntity
  8
DTM_AXIS
100
AcDbLine
 62
7
  6
CONTINUOUS
 10
170.5753314473
 20
131.3000087938
 11
170.5642445343
 21
131.3213556349
  0
LINE
  5
2F6
100
AcDbEntity
  8
DTM_AXIS
100
AcDbLine
 62
7
  6
CONTINUOUS
 10
170.5854339453
 20
131.2802676912
 11
170.5753314473
 21
131.3000087938
  0
LINE
  5
2F7
100
AcDbEntity
  8
DTM_AXIS
100
AcDbLine
 62
7
  6
CONTINUOUS
 10
170.5946765315
 20
131.261904376
 11
170.5854339453
 21
131.2802676912
  0
LINE
  5
2F8
100
AcDbEntity
  8
DTM_AXIS
100
AcDbLine
 62
7
  6
CONTINUOUS
 10
170.6033087609
 20
131.2444425299
 11
170.5946765315
 21
131.261904376
  0
LINE
  5
2F9
100
AcDbEntity
  8
DTM_AXIS
100
AcDbLine
 62
7
  6
CONTINUOUS
 10
170.6114529602
 20
131.2276485949
 11
170.6033087609
 21
131.2444425299
  0
LINE
  5
2FA
100
AcDbEntity
  8
DTM_AXIS
100
AcDbLine
 62
7
  6
CONTINUOUS
 10
170.6191794763
 20
131.2113896628
 11
170.6114529602
 21
131.2276485949
  0
LINE
  5
2FB
100
AcDbEntity
  8
DTM_AXIS
100
AcDbLine
 62
7
  6
CONTINUOUS
 10
170.6265623935
 20
131.1955197447
 11
170.6191794763
 21
131.2113896628
  0
LWPOLYLINE
  5
2FC
100
AcDbEntity
  8
DTM_AXIS
100
AcDbPolyline
 62
7
  6
CONTINUOUS
 90
27
 70
0
 10
151.7563297034
 20
107.9402972943
 10
151.7932124096
 20
107.9559322495
 10
151.978645356
 20
108.0434264459
 10
152.1574985774
 20
108.1405074301
 10
152.3298588896
 20
108.2440087828
 10
152.4971877502
 20
108.3527607308
 10
152.6624586579
 20
108.4672109188
 10
152.8260544319
 20
108.5866258737
 10
152.9881960432
 20
108.7103600395
 10
153.1513130904
 20
108.8396709588
 10
153.3156038227
 20
108.974483009
 10
153.4809783156
 20
109.1144691757
 10
153.6491831624
 20
109.2608473993
 10
153.8210651482
 20
109.4141236743
 10
153.9957869023
 20
109.5734507613
 10
154.1725567924
 20
109.7380091891
 10
154.3532578243
 20
109.9094367794
 10
154.536022004
 20
110.0858062464
 10
154.7145717048
 20
110.2607673128
 10
154.8831117468
 20
110.4281562504
 10
155.0476582633
 20
110.5935223662
 10
155.2195834506
 20
110.7678676162
 10
155.4029738732
 20
110.9557218139
 10
155.5934892187
 20
111.1528264852
 10
155.7897192276
 20
111.3577842442
 10
155.9915159762
 20
111.5704810468
 10
156.4104265662
 20
112.0177702303
  0
ARC
  5
2FD
100
AcDbEntity
  8
DTM_AXIS
100
AcDbCircle
 62
7
  6
CONTINUOUS
 10
245.5545478678
 20
77.7291035076
 40
34.7947603854
100
AcDbArc
 50
103.3430686442
 51
103.6677653266
  0
ARC
  5
2FE
100
AcDbEntity
  8
DTM_AXIS
100
AcDbCircle
 62
7
  6
CONTINUOUS
 10
245.3568368201
 20
78.5211646414
 40
33.9784115897
100
AcDbArc
 50
103.6594100315
 51
107.4155507406
  0
ARC
  5
2FF
100
AcDbEntity
  8
DTM_AXIS
100
AcDbCircle
 62
7
  6
CONTINUOUS
 10
244.5559630827
 20
79.6515334738
 40
33.8673649462
100
AcDbArc
 50
107.2862828836
 51
109.3164586455
  0
ARC
  5
300
100
AcDbEntity
  8
DTM_AXIS
100
AcDbCircle
 62
7
  6
CONTINUOUS
 10
245.0043388824
 20
79.6916017088
 40
32.7561288028
100
AcDbArc
 50
107.4399907746
 51
108.3500088697
  0
ARC
  5
301
100
AcDbEntity
  8
DTM_AXIS
100
AcDbCircle
 62
7
  6
CONTINUOUS
 10
244.9279607667
 20
79.9233490517
 40
32.5121201347
100
AcDbArc
 50
108.3508275662
 51
108.6176557768
  0
ARC
  5
302
100
AcDbEntity
  8
DTM_AXIS
100
AcDbCircle
 62
7
  6
CONTINUOUS
 10
244.0730675571
 20
81.0196947668
 40
32.4164882841
100
AcDbArc
 50
109.3109025754
 51
111.8873991231
  0
ARC
  5
303
100
AcDbEntity
  8
DTM_AXIS
100
AcDbCircle
 62
7
  6
CONTINUOUS
 10
243.5854180619
 20
82.2411177542
 40
31.101319926
100
AcDbArc
 50
111.8926084518
 51
114.2132520534
  0
ARC
  5
304
100
AcDbEntity
  8
DTM_AXIS
100
AcDbCircle
 62
7
  6
CONTINUOUS
 10
243.445509054
 20
82.5598103324
 40
30.7532829554
100
AcDbArc
 50
114.2190389731
 51
114.892327769
  0
ARC
  5
305
100
AcDbEntity
  8
DTM_AXIS
100
AcDbCircle
 62
7
  6
CONTINUOUS
 10
243.4188544119
 20
82.6170864764
 40
30.6901084219
100
AcDbArc
 50
114.8921969261
 51
116.093624626
  0
ARC
  5
306
100
AcDbEntity
  8
DTM_AXIS
100
AcDbCircle
 62
7
  6
CONTINUOUS
 10
243.4004257865
 20
82.6550213884
 40
30.6479343357
100
AcDbArc
 50
116.0938769072
 51
116.3190131762
  0
ARC
  5
307
100
AcDbEntity
  8
DTM_AXIS
100
AcDbCircle
 62
7
  6
CONTINUOUS
 10
243.3904316876
 20
82.6751607332
 40
30.6254515782
100
AcDbArc
 50
116.3189590154
 51
117.0501948034
  0
ARC
  5
308
100
AcDbEntity
  8
DTM_AXIS
100
AcDbCircle
 62
7
  6
CONTINUOUS
 10
122.3806274033
 20
117.9740650821
 40
3.9652924143
100
AcDbArc
 50
1.5173966908
 51
56.4406171964
  0
ARC
  5
309
100
AcDbEntity
  8
DTM_AXIS
100
AcDbCircle
 62
7
  6
CONTINUOUS
 10
126.4742187546
 20
124.7972644526
 40
2.4994022347
100
AcDbArc
 50
240.8591783985
 51
311.3009633604
  0
ARC
  5
30A
100
AcDbEntity
  8
DTM_AXIS
100
AcDbCircle
 62
7
  6
CONTINUOUS
 10
159.1307557017
 20
133.4876411432
 40
11.7925295163
100
AcDbArc
 50
270.7476491195
 51
272.0946325428
  0
ARC
  5
30B
100
AcDbEntity
  8
DTM_AXIS
100
AcDbCircle
 62
7
  6
CONTINUOUS
 10
159.1531771097
 20
132.8364918474
 40
11.1409958866
100
AcDbArc
 50
272.1017971656
 51
273.1180782806
  0
ARC
  5
30C
100
AcDbEntity
  8
DTM_AXIS
100
AcDbCircle
 62
7
  6
CONTINUOUS
 10
159.1704302571
 20
132.5100509742
 40
10.8140998378
100
AcDbArc
 50
273.1208798812
 51
273.5947483239
  0
SPLINE
  5
30D
100
AcDbEntity
  8
DTM_AXIS
100
AcDbSpline
 62
7
  6
CONTINUOUS
 70
0
 71
3
 72
19
 73
15
 74
0
 42
0.0000001
 43
0.0000001
 44
0.0000000001
 40
0.0
 40
0.0
 40
0.0
 40
0.0
 40
0.1262365548
 40
0.25189176
 40
0.3770912839
 40
0.5019538847
 40
0.6265884694
 40
0.6888532294
 40
0.7510957375
 40
0.8133252042
 40
0.8755487822
 40
0.9066598065
 40
0.9377703648
 40
1.0
 40
1.0
 40
1.0
 40
1.0
 10
194.6445314511
 20
84.5902031891
 30
0.0
 10
194.503292494
 20
84.0874000211
 30
0.0
 10
194.2439924821
 20
83.0776385725
 30
0.0
 10
193.9214674313
 20
81.5507883364
 30
0.0
 10
193.6645445118
 20
80.0172978618
 30
0.0
 10
193.4702841168
 20
78.4789329592
 30
0.0
 10
193.3576706349
 20
77.193730399
 30
0.0
 10
193.2945765352
 20
76.1648799808
 30
0.0
 10
193.2596371476
 20
75.3930775837
 30
0.0
 10
193.2354862852
 20
74.6210304263
 30
0.0
 10
193.221979697
 20
73.9776063733
 30
0.0
 10
193.2129455881
 20
73.4627574002
 30
0.0
 10
193.2040718341
 20
72.9482661326
 30
0.0
 10
193.2062897489
 20
72.5605907448
 30
0.0
 10
193.2363480255
 20
72.3048960177
 30
0.0
  0
SPLINE
  5
30E
100
AcDbEntity
  8
DTM_AXIS
100
AcDbSpline
 62
7
  6
CONTINUOUS
 70
0
 71
3
 72
11
 73
7
 74
0
 42
0.0000001
 43
0.0000001
 44
0.0000000001
 40
0.0
 40
0.0
 40
0.0
 40
0.0
 40
0.2505840773
 40
0.4983932623
 40
0.746957635
 40
1.0
 40
1.0
 40
1.0
 40
1.0
 10
268.1430551673
 20
103.6674948642
 30
0.0
 10
268.199353891
 20
103.8384965635
 30
0.0
 10
268.2829375327
 20
104.1888502827
 30
0.0
 10
268.3133189609
 20
104.7274440754
 30
0.0
 10
268.2468680372
 20
105.2645073763
 30
0.0
 10
268.1407523357
 20
105.6110243255
 30
0.0
 10
268.0735503983
 20
105.7799446251
 30
0.0
  0
SPLINE
  5
30F
100
AcDbEntity
  8
DTM_AXIS
100
AcDbSpline
 62
7
  6
CONTINUOUS
 70
0
 71
3
 72
36
 73
32
 74
0
 42
0.0000001
 43
0.0000001
 44
0.0000000001
 40
0.0
 40
0.0
 40
0.0
 40
0.0
 40
0.008313466
 40
0.0167021181
 40
0.0336264771
 40
0.0506427408
 40
0.0676745821
 40
0.0846870494
 40
0.1016647531
 40
0.1354899256
 40
0.1691391231
 40
0.2026178538
 40
0.2690950769
 40
0.3349820283
 40
0.4002965434
 40
0.4650259325
 40
0.529131098
 40
0.592543867
 40
0.623960724
 40
0.6551664662
 40
0.7168465233
 40
0.7773748174
 40
0.807118052
 40
0.836446051
 40
0.8652972738
 40
0.893601137
 40
0.9212783701
 40
0.9482529837
 40
0.9744746034
 40
0.9873174965
 40
1.0
 40
1.0
 40
1.0
 40
1.0
 10
194.2585380231
 20
71.4139592335
 30
0.0
 10
194.4831199319
 20
71.3537134806
 30
0.0
 10
194.9369484821
 20
71.2420449141
 30
0.0
 10
195.8611651447
 20
71.0656792423
 30
0.0
 10
197.0385276248
 20
70.9273643614
 30
0.0
 10
198.4634238399
 20
70.8609790568
 30
0.0
 10
199.8920419365
 20
70.8694085274
 30
0.0
 10
201.3178538844
 20
70.9357679417
 30
0.0
 10
203.2089609143
 20
71.0853088851
 30
0.0
 10
205.5550794044
 20
71.3676197647
 30
0.0
 10
208.3434237705
 20
71.8156725987
 30
0.0
 10
212.0128014295
 20
72.5251258321
 30
0.0
 10
216.530885523
 20
73.5833035191
 30
0.0
 10
221.8595380758
 20
75.0625194922
 30
0.0
 10
227.084802263
 20
76.7178049896
 30
0.0
 10
232.2032479724
 20
78.5345089174
 30
0.0
 10
237.2061206734
 20
80.5081545689
 30
0.0
 10
241.2799059332
 20
82.2902842307
 30
0.0
 10
244.4643036712
 20
83.8028388808
 30
0.0
 10
247.5724724639
 20
85.3610796365
 30
0.0
 10
251.3394939131
 20
87.4194629683
 30
0.0
 10
254.9517079602
 20
89.6648386137
 30
0.0
 10
257.6931577842
 20
91.5830329602
 30
0.0
 10
259.648152464
 20
93.0761746275
 30
0.0
 10
261.4971525481
 20
94.6374656913
 30
0.0
 10
263.2191411263
 20
96.2721137548
 30
0.0
 10
264.7863956961
 20
97.9862062196
 30
0.0
 10
266.164958684
 20
99.7837501227
 30
0.0
 10
267.1267847974
 20
101.3663794174
 30
0.0
 10
267.7553488011
 20
102.6711118835
 30
0.0
 10
268.0215572879
 20
103.3342299455
 30
0.0
 10
268.1430551673
 20
103.6674948642
 30
0.0
  0
SPLINE
  5
310
100
AcDbEntity
  8
DTM_AXIS
100
AcDbSpline
 62
7
  6
CONTINUOUS
 70
0
 71
3
 72
14
 73
10
 74
0
 42
0.0000001
 43
0.0000001
 44
0.0000000001
 40
0.0
 40
0.0
 40
0.0
 40
0.0
 40
0.1068171909
 40
0.2165839382
 40
0.3331084321
 40
0.4562687323
 40
0.5846432353
 40
0.7185435639
 40
1.0
 40
1.0
 40
1.0
 40
1.0
 10
193.2363480255
 20
72.3048960177
 30
0.0
 10
193.2423737719
 20
72.253680417
 30
0.0
 10
193.2570317004
 20
72.149749286
 30
0.0
 10
193.3164107337
 20
71.9979847843
 30
0.0
 10
193.4206375836
 20
71.8632514048
 30
0.0
 10
193.55165549
 20
71.7426533472
 30
0.0
 10
193.7022689343
 20
71.6326946574
 30
0.0
 10
193.933075357
 20
71.5056007397
 30
0.0
 10
194.1272999113
 20
71.4491743566
 30
0.0
 10
194.2585380231
 20
71.4139592335
 30
0.0
  0
SPLINE
  5
311
100
AcDbEntity
  8
DTM_AXIS
100
AcDbSpline
 62
7
  6
CONTINUOUS
 70
0
 71
3
 72
17
 73
13
 74
0
 42
0.0000001
 43
0.0000001
 44
0.0000000001
 40
0.0
 40
0.0
 40
0.0
 40
0.0
 40
0.0607440031
 40
0.1224786662
 40
0.1848575393
 40
0.2476438949
 40
0.3738613729
 40
0.5002756006
 40
0.6263652046
 40
0.7517760454
 40
0.8763258778
 40
1.0
 40
1.0
 40
1.0
 40
1.0
 10
264.9280470164
 20
108.2682922175
 30
0.0
 10
264.4327278652
 20
108.5504557301
 30
0.0
 10
263.4082945816
 20
109.0747193317
 30
0.0
 10
261.8139711487
 20
109.7608520503
 30
0.0
 10
260.1658999731
 20
110.3634477525
 30
0.0
 10
257.913316706
 20
111.0666870407
 30
0.0
 10
255.0317020428
 20
111.759811953
 30
0.0
 10
251.5181771614
 20
112.3176348461
 30
0.0
 10
247.9788895353
 20
112.5969033551
 30
0.0
 10
244.4457081037
 20
112.5889831198
 30
0.0
 10
240.9487719177
 20
112.2767029334
 30
0.0
 10
238.6538568805
 20
111.8524529299
 30
0.0
 10
237.5245712912
 20
111.5846027132
 30
0.0
  0
SPLINE
  5
312
100
AcDbEntity
  8
DTM_AXIS
100
AcDbSpline
 62
7
  6
CONTINUOUS
 70
0
 71
3
 72
30
 73
26
 74
0
 42
0.0000001
 43
0.0000001
 44
0.0000000001
 40
0.0
 40
0.0
 40
0.0
 40
0.0
 40
0.0583766615
 40
0.117176251
 40
0.1767593804
 40
0.2371460275
 40
0.2981661624
 40
0.3597379064
 40
0.4218905967
 40
0.484693467
 40
0.548248633
 40
0.612647483
 40
0.6779433774
 40
0.7440690428
 40
0.7773632831
 40
0.8107219507
 40
0.8440407888
 40
0.8771476773
 40
0.9098025518
 40
0.92584476
 40
0.9416362577
 40
0.9570853229
 40
0.9720658038
 40
0.9864654593
 40
1.0
 40
1.0
 40
1.0
 40
1.0
 10
234.5484225111
 20
110.7341124511
 30
0.0
 10
233.4982954067
 20
110.3803438385
 30
0.0
 10
231.4249286143
 20
109.5611841533
 30
0.0
 10
228.4556599665
 20
107.9839606935
 30
0.0
 10
225.6462263522
 20
106.0698401494
 30
0.0
 10
222.9962913115
 20
103.8772955776
 30
0.0
 10
220.4832802457
 20
101.4765207064
 30
0.0
 10
218.0784802288
 20
98.9224702672
 30
0.0
 10
215.7507706026
 20
96.2537640606
 30
0.0
 10
213.4607738464
 20
93.5039728408
 30
0.0
 10
211.1692876808
 20
90.7003204372
 30
0.0
 10
208.8341305331
 20
87.8711947692
 30
0.0
 10
206.4189110228
 20
85.045299936
 30
0.0
 10
204.3244419343
 20
82.7231445894
 30
0.0
 10
202.5930445996
 20
80.8914224282
 30
0.0
 10
201.2707060918
 20
79.5302413177
 30
0.0
 10
199.9356120028
 20
78.1866238826
 30
0.0
 10
198.6073958755
 20
76.8550804394
 30
0.0
 10
197.5223591861
 20
75.7440521994
 30
0.0
 10
196.6882844653
 20
74.8479563526
 30
0.0
 10
196.0919231917
 20
74.1770274891
 30
0.0
 10
195.5313739894
 20
73.5018526679
 30
0.0
 10
195.0200256636
 20
72.8207679585
 30
0.0
 10
194.5801832598
 20
72.1348000357
 30
0.0
 10
194.3430751411
 20
71.656671273
 30
0.0
 10
194.2588068204
 20
71.4139696567
 30
0.0
  0
SPLINE
  5
313
100
AcDbEntity
  8
DTM_AXIS
100
AcDbSpline
 62
7
  6
CONTINUOUS
 70
0
 71
3
 72
14
 73
10
 74
0
 42
0.0000001
 43
0.0000001
 44
0.0000000001
 40
0.0
 40
0.0
 40
0.0
 40
0.0
 40
0.0625577923
 40
0.1265055113
 40
0.2553512623
 40
0.3835969197
 40
0.5104849257
 40
0.7593638522
 40
1.0
 40
1.0
 40
1.0
 40
1.0
 10
268.1430637189
 20
103.667561268
 30
0.0
 10
268.1120806947
 20
103.7825700109
 30
0.0
 10
268.0419950205
 20
104.0132259791
 30
0.0
 10
267.8714960376
 20
104.4687604883
 30
0.0
 10
267.6188648737
 20
105.0261258507
 30
0.0
 10
267.2710751924
 20
105.6697849509
 30
0.0
 10
266.7597950231
 20
106.4826081861
 30
0.0
 10
266.0263173818
 20
107.4049572853
 30
0.0
 10
265.3120928224
 20
108.0184209176
 30
0.0
 10
264.9280441301
 20
108.2682686546
 30
0.0
  0
SPLINE
  5
314
100
AcDbEntity
  8
DTM_AXIS
100
AcDbSpline
 62
7
  6
CONTINUOUS
 70
0
 71
3
 72
14
 73
10
 74
0
 42
0.0000001
 43
0.0000001
 44
0.0000000001
 40
0.0
 40
0.0
 40
0.0
 40
0.0
 40
0.37551418
 40
0.5424395356
 40
0.6874162092
 40
0.8066917264
 40
0.8964898029
 40
0.9565809205
 40
1.0
 40
1.0
 40
1.0
 40
1.0
 10
264.9280617526
 20
108.2682921029
 30
0.0
 10
264.9159467787
 20
108.3961014118
 30
0.0
 10
264.8987654912
 20
108.5807794744
 30
0.0
 10
264.8699850667
 20
108.814046633
 30
0.0
 10
264.8485525513
 20
108.9599098899
 30
0.0
 10
264.8274237364
 20
109.0791165142
 30
0.0
 10
264.8076958987
 20
109.1690432725
 30
0.0
 10
264.787566865
 20
109.2321901051
 30
0.0
 10
264.772279911
 20
109.2641707098
 30
0.0
 10
264.7656706786
 20
109.2774624621
 30
0.0
  0
SPLINE
  5
315
100
AcDbEntity
  8
DTM_AXIS
100
AcDbSpline
 62
7
  6
CONTINUOUS
 70
0
 71
3
 72
9
 73
5
 74
0
 42
0.0000001
 43
0.0000001
 44
0.0000000001
 40
0.0
 40
0.0
 40
0.0
 40
0.0
 40
0.556270989
 40
1.0
 40
1.0
 40
1.0
 40
1.0
 10
264.7657104055
 20
109.2774350304
 30
0.0
 10
265.0231234024
 20
109.1287395007
 30
0.0
 10
265.4846288389
 20
108.8594092291
 30
0.0
 10
265.9343856535
 20
108.5696392029
 30
0.0
 10
266.1263238949
 20
108.4303883069
 30
0.0
  0
SPLINE
  5
316
100
AcDbEntity
  8
DTM_AXIS
100
AcDbSpline
 62
7
  6
CONTINUOUS
 70
0
 71
3
 72
34
 73
30
 74
0
 42
0.0000001
 43
0.0000001
 44
0.0000000001
 40
0.0
 40
0.0
 40
0.0
 40
0.0
 40
0.003239035
 40
0.0065644593
 40
0.0133409222
 40
0.0202723501
 40
0.0273694895
 40
0.0346161182
 40
0.0419982246
 40
0.057111465
 40
0.0725993104
 40
0.0883816513
 40
0.1205745754
 40
0.1533175961
 40
0.1863632938
 40
0.2195446546
 40
0.252737343
 40
0.3188367916
 40
0.384250404
 40
0.4488286073
 40
0.5125783425
 40
0.5755661985
 40
0.6378772947
 40
0.6996092671
 40
0.7608236944
 40
0.8215478374
 40
0.8817357901
 40
0.9412356282
 40
1.0
 40
1.0
 40
1.0
 40
1.0
 10
193.2363558935
 20
72.3049584175
 30
0.0
 10
193.2535584639
 20
72.3590372797
 30
0.0
 10
193.2961825799
 20
72.4660893534
 30
0.0
 10
193.3930828983
 20
72.6787568537
 30
0.0
 10
193.5267323673
 20
72.9457586655
 30
0.0
 10
193.7054995177
 20
73.2635731999
 30
0.0
 10
193.9034393081
 20
73.579568976
 30
0.0
 10
194.1181721014
 20
73.8939632115
 30
0.0
 10
194.4266286208
 20
74.3140540877
 30
0.0
 10
194.8437392691
 20
74.8329755555
 30
0.0
 10
195.3775102046
 20
75.4459164025
 30
0.0
 10
196.1306864735
 20
76.2639953098
 30
0.0
 10
197.1157573605
 20
77.2789248757
 30
0.0
 10
198.328072827
 20
78.4943248189
 30
0.0
 10
199.5519732229
 20
79.7226625318
 30
0.0
 10
200.772426551
 20
80.9655248967
 30
0.0
 10
202.3786383188
 20
82.6410207912
 30
0.0
 10
204.3325712654
 20
84.7651328134
 30
0.0
 10
206.5883826222
 20
87.3568237865
 30
0.0
 10
208.7657896037
 20
89.9610177354
 30
0.0
 10
210.888921119
 20
92.5547978138
 30
0.0
 10
212.9894256886
 20
95.1157812927
 30
0.0
 10
215.0995235807
 20
97.6230347065
 30
0.0
 10
217.2488832416
 20
100.0558167793
 30
0.0
 10
219.4667586561
 20
102.3887483664
 30
0.0
 10
221.7764404162
 20
104.5927053483
 30
0.0
 10
224.1977577875
 20
106.6287878016
 30
0.0
 10
226.747680647
 20
108.4446479085
 30
0.0
 10
228.5459221131
 20
109.4822262806
 30
0.0
 10
229.462867367
 20
109.9504469181
 30
0.0
  0
SPLINE
  5
317
100
AcDbEntity
  8
DTM_AXIS
100
AcDbSpline
 62
7
  6
CONTINUOUS
 70
0
 71
3
 72
17
 73
13
 74
0
 42
0.0000001
 43
0.0000001
 44
0.0000000001
 40
0.0
 40
0.0
 40
0.0
 40
0.0
 40
0.1233737667
 40
0.2475946307
 40
0.3727881981
 40
0.4988260289
 40
0.6253703571
 40
0.7518634172
 40
0.814828616
 40
0.8773801361
 40
0.9392404537
 40
1.0
 40
1.0
 40
1.0
 40
1.0
 10
234.4924013258
 20
111.9891761393
 30
0.0
 10
235.7143599023
 20
112.3695653941
 30
0.0
 10
238.2115479884
 20
112.9954452567
 30
0.0
 10
242.0466598619
 20
113.5375948698
 30
0.0
 10
245.9433279073
 20
113.707635118
 30
0.0
 10
249.8629552757
 20
113.5265803793
 30
0.0
 10
253.7655070645
 20
113.0092345496
 30
0.0
 10
256.9718962033
 20
112.3051564354
 30
0.0
 10
259.4797876198
 20
111.5641591648
 30
0.0
 10
261.3143120784
 20
110.9186617558
 30
0.0
 10
263.0856257034
 20
110.1725878091
 30
0.0
 10
264.2199201326
 20
109.5926728124
 30
0.0
 10
264.7657039826
 20
109.2774409585
 30
0.0
  0
SPLINE
  5
318
100
AcDbEntity
  8
DTM_AXIS
100
AcDbSpline
 62
7
  6
CONTINUOUS
 70
0
 71
3
 72
11
 73
7
 74
0
 42
0.0000001
 43
0.0000001
 44
0.0000000001
 40
0.0
 40
0.0
 40
0.0
 40
0.0
 40
0.2500117552
 40
0.5000029252
 40
0.749995382
 40
1.0
 40
1.0
 40
1.0
 40
1.0
 10
126.3445590387
 20
118.0791272635
 30
0.0
 10
126.6677507175
 20
118.3842704476
 30
0.0
 10
127.2459594209
 20
119.0717808019
 30
0.0
 10
127.8513321406
 20
120.2725892204
 30
0.0
 10
128.1689854025
 20
121.5793658688
 30
0.0
 10
128.1731795956
 20
122.4778473322
 30
0.0
 10
128.1237534016
 20
122.9195610354
 30
0.0
  0
SPLINE
  5
319
100
AcDbEntity
  8
DTM_AXIS
100
AcDbSpline
 62
7
  6
CONTINUOUS
 70
0
 71
3
 72
37
 73
33
 74
0
 42
0.0000001
 43
0.0000001
 44
0.0000000001
 40
0.0
 40
0.0
 40
0.0
 40
0.0
 40
0.0078121148
 40
0.0156242582
 40
0.0312431198
 40
0.0468659495
 40
0.0624906877
 40
0.0781163721
 40
0.0937425329
 40
0.109368999
 40
0.1249956112
 40
0.1562469035
 40
0.1874992182
 40
0.2187520887
 40
0.2500052958
 40
0.3125075821
 40
0.3750108075
 40
0.4375137054
 40
0.5000161002
 40
0.5625176894
 40
0.5937706019
 40
0.6250235573
 40
0.6875231835
 40
0.7500209743
 40
0.8125118731
 40
0.8437635343
 40
0.8750138199
 40
0.9062621357
 40
0.9375075963
 40
0.9687495828
 40
0.9843748264
 40
1.0
 40
1.0
 40
1.0
 40
1.0
 10
39.8148428123
 20
120.9577672404
 30
0.0
 10
39.9564470344
 20
120.7662401163
 30
0.0
 10
40.2501768906
 20
120.3906970837
 30
0.0
 10
40.8888342474
 20
119.6829580649
 30
0.0
 10
41.7708448209
 20
118.8786820448
 30
0.0
 10
42.9167802314
 20
118.0224896936
 30
0.0
 10
44.1217459321
 20
117.2521871252
 30
0.0
 10
45.3679471067
 20
116.5511861884
 30
0.0
 10
46.6440838034
 20
115.9065602406
 30
0.0
 10
47.9437584166
 20
115.311012279
 30
0.0
 10
49.7005141348
 20
114.5716834852
 30
0.0
 10
51.9331623386
 20
113.7379998344
 30
0.0
 10
54.6517234606
 20
112.8521426422
 30
0.0
 10
57.3996875622
 20
112.0623873915
 30
0.0
 10
61.0934734058
 20
111.1207223002
 30
0.0
 10
65.7558677028
 20
110.1300682298
 30
0.0
 10
71.3987992449
 20
109.2012468247
 30
0.0
 10
77.076739165
 20
108.5180400281
 30
0.0
 10
82.7787177234
 20
108.0800617181
 30
0.0
 10
87.5424215143
 20
107.9273460497
 30
0.0
 10
91.3541932179
 20
107.9456240001
 30
0.0
 10
95.1642197156
 20
108.0590505311
 30
0.0
 10
99.9192494184
 20
108.3967048132
 30
0.0
 10
105.5885950343
 20
109.1607978159
 30
0.0
 10
110.2532461778
 20
110.160882966
 30
0.0
 10
113.9116198254
 20
111.2344515231
 30
0.0
 10
116.6056795206
 20
112.1952237092
 30
0.0
 10
119.230220834
 20
113.3333715616
 30
0.0
 10
121.75899769
 20
114.6720708365
 30
0.0
 10
123.7562198342
 20
115.9772904474
 30
0.0
 10
125.266513189
 20
117.1401527909
 30
0.0
 10
125.9904365213
 20
117.7604389392
 30
0.0
 10
126.3445590387
 20
118.0791272635
 30
0.0
  0
SPLINE
  5
31A
100
AcDbEntity
  8
DTM_AXIS
100
AcDbSpline
 62
7
  6
CONTINUOUS
 70
0
 71
3
 72
14
 73
10
 74
0
 42
0.0000001
 43
0.0000001
 44
0.0000000001
 40
0.0
 40
0.0
 40
0.0
 40
0.0
 40
0.1250897321
 40
0.2500997825
 40
0.3751132709
 40
0.5002203654
 40
0.7498095229
 40
0.8748955029
 40
1.0
 40
1.0
 40
1.0
 40
1.0
 10
39.6377971009
 20
122.5492380069
 30
0.0
 10
39.6039082836
 20
122.4867636373
 30
0.0
 10
39.5381067886
 20
122.3605419764
 30
0.0
 10
39.4721444376
 20
122.1561023789
 30
0.0
 10
39.4551436022
 20
121.9419895044
 30
0.0
 10
39.4782540507
 20
121.6587499103
 30
0.0
 10
39.5504263464
 20
121.379208657
 30
0.0
 10
39.6892411404
 20
121.1302218215
 30
0.0
 10
39.7725893609
 20
121.0149278669
 30
0.0
 10
39.8148428123
 20
120.9577672404
 30
0.0
  0
SPLINE
  5
31B
100
AcDbEntity
  8
DTM_AXIS
100
AcDbSpline
 62
7
  6
CONTINUOUS
 70
0
 71
3
 72
40
 73
36
 74
0
 42
0.0000001
 43
0.0000001
 44
0.0000000001
 40
0.0
 40
0.0
 40
0.0
 40
0.0
 40
0.0156262891
 40
0.03125367
 40
0.0624883242
 40
0.0937337828
 40
0.1249861869
 40
0.1562430945
 40
0.1875029646
 40
0.2187640974
 40
0.2500259606
 40
0.3125123109
 40
0.3750005821
 40
0.4374874154
 40
0.4999708348
 40
0.562451171
 40
0.6249309298
 40
0.687413417
 40
0.7499017853
 40
0.7811641707
 40
0.8124257768
 40
0.8436868857
 40
0.8749479252
 40
0.8905796939
 40
0.9062114097
 40
0.9218430952
 40
0.9374747666
 40
0.95310645
 40
0.9609223843
 40
0.9687383188
 40
0.9765542572
 40
0.9843702009
 40
0.9882781734
 40
0.9921861353
 40
1.0
 40
1.0
 40
1.0
 40
1.0
 10
128.1237534016
 20
122.9195610354
 30
0.0
 10
128.0557189393
 20
123.4997836689
 30
0.0
 10
127.8623175943
 20
124.6543398965
 30
0.0
 10
127.2620155194
 20
126.9148139477
 30
0.0
 10
126.1537721498
 20
129.6307172946
 30
0.0
 10
124.3845563672
 20
132.6658870334
 30
0.0
 10
122.2733247927
 20
135.4724783217
 30
0.0
 10
119.891066628
 20
138.0513243431
 30
0.0
 10
117.2889051546
 20
140.4070867228
 30
0.0
 10
114.5043580155
 20
142.5437107981
 30
0.0
 10
110.5887762516
 20
145.1017804587
 30
0.0
 10
105.3644187008
 20
147.7604957136
 30
0.0
 10
98.7217446911
 20
150.060441121
 30
0.0
 10
91.8244104735
 20
151.4260593356
 30
0.0
 10
84.8020127079
 20
151.8009364315
 30
0.0
 10
77.7991801967
 20
151.1427478186
 30
0.0
 10
70.9732079512
 20
149.4435099316
 30
0.0
 10
64.4771137319
 20
146.7490368589
 30
0.0
 10
59.4380304957
 20
143.7564407094
 30
0.0
 10
55.6726642013
 20
140.9836895661
 30
0.0
 10
52.9827042456
 20
138.7311721883
 30
0.0
 10
50.4308130579
 20
136.3241064081
 30
0.0
 10
48.4185511368
 20
134.203583066
 30
0.0
 10
46.8755161813
 20
132.4474767769
 30
0.0
 10
45.7513545088
 20
131.1018792301
 30
0.0
 10
44.6596111759
 20
129.7298920024
 30
0.0
 10
43.5992944595
 20
128.3334944011
 30
0.0
 10
42.7405962133
 20
127.1513485801
 30
0.0
 10
42.0670467097
 20
126.1961181987
 30
0.0
 10
41.5678295752
 20
125.4755344525
 30
0.0
 10
41.073544026
 20
124.751557231
 30
0.0
 10
40.6641702335
 20
124.1465491367
 30
0.0
 10
40.3371332943
 20
123.662179147
 30
0.0
 10
40.0115698279
 20
123.1770985133
 30
0.0
 10
39.7771041205
 20
122.806008393
 30
0.0
 10
39.6377971009
 20
122.5492380069
 30
0.0
  0
SPLINE
  5
31C
100
AcDbEntity
  8
DTM_AXIS
100
AcDbSpline
 62
7
  6
CONTINUOUS
 70
0
 71
3
 72
25
 73
21
 74
0
 42
0.0000001
 43
0.0000001
 44
0.0000000001
 40
0.0
 40
0.0
 40
0.0
 40
0.0
 40
0.0554349303
 40
0.1157137054
 40
0.1785793763
 40
0.2432334652
 40
0.3093138815
 40
0.3765635564
 40
0.4446884785
 40
0.5130347534
 40
0.5808532913
 40
0.6479103086
 40
0.7140961428
 40
0.7791947748
 40
0.8427483636
 40
0.903792342
 40
0.9327627837
 40
0.9598230599
 40
0.9835255897
 40
1.0
 40
1.0
 40
1.0
 40
1.0
 10
124.5726637625
 20
121.2784197113
 30
0.0
 10
123.1583239772
 20
122.0675818485
 30
0.0
 10
120.1628687554
 20
123.6392058026
 30
0.0
 10
115.3967770691
 20
125.7719549972
 30
0.0
 10
110.2278737354
 20
127.6308213966
 30
0.0
 10
104.748326989
 20
129.067802266
 30
0.0
 10
99.0231001391
 20
129.965763857
 30
0.0
 10
93.1315525763
 20
130.239637204
 30
0.0
 10
87.1801997999
 20
129.8614731424
 30
0.0
 10
81.2832118702
 20
128.8865340038
 30
0.0
 10
75.5184640764
 20
127.4464181034
 30
0.0
 10
69.9026289963
 20
125.7187409652
 30
0.0
 10
64.4026041389
 20
123.8948185817
 30
0.0
 10
58.9712648007
 20
122.1866830572
 30
0.0
 10
53.5894269664
 20
120.8403992411
 30
0.0
 10
49.1286841133
 20
120.2308753738
 30
0.0
 10
45.7051712573
 20
120.1690015773
 30
0.0
 10
43.3776977623
 20
120.3177131005
 30
0.0
 10
41.4316893128
 20
120.600137621
 30
0.0
 10
40.2830856612
 20
120.8450885662
 30
0.0
 10
39.8151218685
 20
120.9577016529
 30
0.0
  0
SPLINE
  5
31D
100
AcDbEntity
  8
DTM_AXIS
100
AcDbSpline
 62
7
  6
CONTINUOUS
 70
0
 71
3
 72
27
 73
23
 74
0
 42
0.0000001
 43
0.0000001
 44
0.0000000001
 40
0.0
 40
0.0
 40
0.0
 40
0.0
 40
0.0159925256
 40
0.039503833
 40
0.06645009
 40
0.0952838162
 40
0.1562324471
 40
0.187801388
 40
0.2198677529
 40
0.2523248462
 40
0.2851015743
 40
0.3514431928
 40
0.4186514544
 40
0.4866020345
 40
0.555035016
 40
0.6231905451
 40
0.6904665915
 40
0.7565856557
 40
0.8213009993
 40
0.8842475358
 40
0.9446060886
 40
1.0
 40
1.0
 40
1.0
 40
1.0
 10
39.6378224162
 20
122.5492626592
 30
0.0
 10
40.094380487
 20
122.429321319
 30
0.0
 10
41.2302018209
 20
122.1628769491
 30
0.0
 10
43.1683424924
 20
121.8473991044
 30
0.0
 10
45.5053951971
 20
121.6724051429
 30
0.0
 10
48.954574128
 20
121.7161807353
 30
0.0
 10
52.5168293567
 20
122.2087946585
 30
0.0
 10
56.1049466293
 20
123.0148951823
 30
0.0
 10
58.8442368232
 20
123.7538321025
 30
0.0
 10
61.5940605217
 20
124.5832078445
 30
0.0
 10
65.292407219
 20
125.76903023
 30
0.0
 10
69.9527353926
 20
127.3129171169
 30
0.0
 10
75.6454708867
 20
129.0408416868
 30
0.0
 10
81.4895850287
 20
130.4611847292
 30
0.0
 10
87.4618196046
 20
131.4026391264
 30
0.0
 10
93.4810496377
 20
131.7409257425
 30
0.0
 10
99.4339283717
 20
131.4302974233
 30
0.0
 10
105.2178984615
 20
130.5009333864
 30
0.0
 10
110.755930527
 20
129.0373513056
 30
0.0
 10
115.9826760204
 20
127.1533532866
 30
0.0
 10
120.8007944762
 20
124.9969374184
 30
0.0
 10
123.829002058
 20
123.4104151709
 30
0.0
 10
125.2571138818
 20
122.6142311686
 30
0.0
  0
SPLINE
  5
31E
100
AcDbEntity
  8
DTM_AXIS
100
AcDbSpline
 62
7
  6
CONTINUOUS
 70
0
 71
3
 72
20
 73
16
 74
0
 42
0.0000001
 43
0.0000001
 44
0.0000000001
 40
0.0
 40
0.0
 40
0.0
 40
0.0
 40
0.0961996584
 40
0.1952584334
 40
0.2963209267
 40
0.4006811221
 40
0.4553975034
 40
0.5129299958
 40
0.5744339964
 40
0.6414443019
 40
0.7157485181
 40
0.7989875382
 40
0.8929379773
 40
0.9446484815
 40
1.0
 40
1.0
 40
1.0
 40
1.0
 10
167.3389517008
 20
124.5834219028
 30
0.0
 10
166.9811147988
 20
124.1715991613
 30
0.0
 10
166.2235087763
 20
123.3619929447
 30
0.0
 10
164.9590143369
 20
122.2498478287
 30
0.0
 10
163.5176698216
 20
121.2869558095
 30
0.0
 10
162.1558302525
 20
120.693171483
 30
0.0
 10
160.9655392769
 20
120.3814481842
 30
0.0
 10
159.9895738083
 20
120.2328200134
 30
0.0
 10
158.9342507096
 20
120.1793912041
 30
0.0
 10
157.7836534309
 20
120.2210146989
 30
0.0
 10
156.5161446365
 20
120.3499410915
 30
0.0
 10
155.103627711
 20
120.5480705113
 30
0.0
 10
153.8195238693
 20
120.73887381
 30
0.0
 10
152.6881423492
 20
120.8790582158
 30
0.0
 10
152.0834380649
 20
120.9363404162
 30
0.0
 10
151.7701950636
 20
120.9567965369
 30
0.0
  0
LINE
  5
31F
100
AcDbEntity
  8
DTM_AXIS
100
AcDbLine
 62
7
  6
CONTINUOUS
 10
151.7701950636
 20
120.9567965369
 11
151.7562437893
 21
120.9577016529
  0
SPLINE
  5
320
100
AcDbEntity
  8
DTM_AXIS
100
AcDbSpline
 62
7
  6
CONTINUOUS
 70
0
 71
3
 72
16
 73
12
 74
0
 42
0.0000001
 43
0.0000001
 44
0.0000000001
 40
0.0
 40
0.0
 40
0.0
 40
0.0
 40
0.0414508518
 40
0.0820376935
 40
0.1613475087
 40
0.2376489251
 40
0.3108355725
 40
0.4482033092
 40
0.5747933612
 40
0.8012782932
 40
1.0
 40
1.0
 40
1.0
 40
1.0
 10
151.7585996093
 20
122.5491233744
 30
0.0
 10
151.8631283514
 20
122.5425322229
 30
0.0
 10
152.0696610368
 20
122.524412624
 30
0.0
 10
152.4754666125
 20
122.4854101981
 30
0.0
 10
152.9681752758
 20
122.4302390147
 30
0.0
 10
153.5415286886
 20
122.3560241784
 30
0.0
 10
154.2589995788
 20
122.2529731298
 30
0.0
 10
155.1005077202
 20
122.1202815608
 30
0.0
 10
156.3245562818
 20
121.9271438831
 30
0.0
 10
157.7071935991
 20
121.743120709
 30
0.0
 10
158.7825524988
 20
121.6895317252
 30
0.0
 10
159.2846313305
 20
121.696115598
 30
0.0
  0
SPLINE
  5
321
100
AcDbEntity
  8
DTM_AXIS
100
AcDbSpline
 62
7
  6
CONTINUOUS
 70
0
 71
3
 72
26
 73
22
 74
0
 42
0.0000001
 43
0.0000001
 44
0.0000000001
 40
0.0
 40
0.0
 40
0.0
 40
0.0
 40
0.0884845147
 40
0.170952691
 40
0.2499057468
 40
0.326874806
 40
0.4025506432
 40
0.4770861001
 40
0.5500974993
 40
0.6209603799
 40
0.6889210005
 40
0.753069696
 40
0.8123662176
 40
0.865724989
 40
0.9119455807
 40
0.9319876119
 40
0.949810879
 40
0.9653654788
 40
0.9787060473
 40
0.9900821743
 40
1.0
 40
1.0
 40
1.0
 40
1.0
 10
159.8484639472
 20
121.717228099
 30
0.0
 10
160.2992507592
 20
121.7455534427
 30
0.0
 10
161.1682974457
 20
121.8566184412
 30
0.0
 10
162.4003643418
 20
122.2039615005
 30
0.0
 10
163.5163796807
 20
122.6982423039
 30
0.0
 10
164.5314763351
 20
123.3092690338
 30
0.0
 10
165.4579690921
 20
124.0095479543
 30
0.0
 10
166.3070461825
 20
124.7710271493
 30
0.0
 10
167.0847666725
 20
125.5708519029
 30
0.0
 10
167.7940693786
 20
126.3876494255
 30
0.0
 10
168.4368880428
 20
127.2006005738
 30
0.0
 10
169.01262251
 20
127.9902700019
 30
0.0
 10
169.5165260993
 20
128.739319592
 30
0.0
 10
169.9410068737
 20
129.4305496009
 30
0.0
 10
170.2342906052
 20
129.9668062277
 30
0.0
 10
170.412807153
 20
130.3573871351
 30
0.0
 10
170.5094633182
 20
130.6126519418
 30
0.0
 10
170.57340637
 20
130.8428744154
 30
0.0
 10
170.6019327773
 20
131.0473071083
 30
0.0
 10
170.5935785956
 20
131.2252184027
 30
0.0
 10
170.5595205103
 20
131.3305198072
 30
0.0
 10
170.5357886395
 20
131.3752391451
 30
0.0
  0
ENDSEC
  0
SECTION
  2
OBJECTS
  0
DICTIONARY
  5
C
100
AcDbDictionary
280
0
281
1
  3
ACAD_GROUP
350
D
  3
ACAD_MLINESTYLE
350
17
  3
ACAD_LAYOUT
350
1A
  3
ACAD_PLOTSETTINGS
350
19
  3
ACAD_PLOTSTYLENAME
350
E
  3
ACAD_TABLESTYLE
350
       322
  0
DICTIONARY
  5
D
102
{ACAD_REACTORS
330
C
102
}
100
AcDbDictionary
280
0
281
1
  0
ACDBDICTIONARYWDFLT
  5
E
102
{ACAD_REACTORS
330
C
102
}
100
AcDbDictionary
281
1
  3
Normal
350
F
100
AcDbDictionaryWithDefault
340
F
  0
DICTIONARY
  5
17
102
{ACAD_REACTORS
330
C
102
}
100
AcDbDictionary
280
0
281
1
  3
Standard
350
18
  0
DICTIONARY
  5
322
330
C
100
AcDbDictionary
281
1
  3
Standard
350
       325
  3
Standard1
350
       326
  0
DICTIONARY
  5
19
102
{ACAD_REACTORS
330
C
102
}
100
AcDbDictionary
281
1
  0
DICTIONARY
  5
1A
102
{ACAD_REACTORS
330
C
102
}
100
AcDbDictionary
281
1
  3
Model
350
323
  3
Layout1
350
324
  0
ACDBPLACEHOLDER
  5
F
102
{ACAD_REACTORS
330
E
102
}
  0
MLINESTYLE
  5
18
102
{ACAD_REACTORS
330
17
102
}
100
AcDbMlineStyle
  2
STANDARD
 70
0
  3

 62
256
 51
90.0
 52
90.0
 71
2
 49
0.5
 62
256
  6
BYLAYER
 49
-0.5
 62
256
  6
BYLAYER
  0
LAYOUT
  5
323
102
{ACAD_REACTORS
330
1A
102
}
100
AcDbPlotSettings
  1

  2
none_device
  4
ISO_A4_(297.00_x_210.00_MM)
  6

 40
0.0
 41
0.0
 42
0.0
 43
0.0
 44
297.0
 45
210.0
 46
0.0
 47
0.0
 48
0.0
 49
0.0
140
0.0
141
0.0
142
1.0
143
1.0
 70
1024
 72
1
 73
0
 74
0
  7

 75
0
147
1.0
148
0.0
149
0.0
100
AcDbLayout
  1
Model
 70
0
 71
0
 10
0.0
 20
0.0
 11
297.0
 21
210.0
 12
0.0
 22
0.0
 32
0.0
 14
0.0
 24
0.0
 34
0.0
 15
0.0
 25
0.0
 35
0.0
146
0.0
 13
0.0
 23
0.0
 33
0.0
 16
1.0
 26
0.0
 36
0.0
 17
0.0
 27
1.0
 37
0.0
 76
0
330
20B
345
0
346
0
  0
LAYOUT
  5
324
102
{ACAD_REACTORS
330
1A
102
}
100
AcDbPlotSettings
  1

  2
none_device
  4
ISO_A4_(297.00_x_210.00_MM)
  6

 40
0.0
 41
0.0
 42
0.0
 43
0.0
 44
297.0
 45
210.0
 46
0.0
 47
0.0
 48
0.0
 49
0.0
140
0.0
141
0.0
142
1.0
143
1.0
 70
0
 72
1
 73
0
 74
0
  7

 75
0
147
1.0
148
0.0
149
0.0
100
AcDbLayout
  1
Layout1
 70
0
 71
1
 10
0.0
 20
0.0
 11
297.0
 21
210.0
 12
0.0
 22
0.0
 32
0.0
 14
0.0
 24
0.0
 34
0.0
 15
0.0
 25
0.0
 35
0.0
146
0.0
 13
0.0
 23
0.0
 33
0.0
 16
1.0
 26
0.0
 36
0.0
 17
0.0
 27
1.0
 37
0.0
 76
0
330
20C
345
0
346
0
  0
TABLESTYLE
  5
325
102
{ACAD_REACTORS
330
322
330
25F
102
}
330
322
100
AcDbTableStyle
  3
Standard
 70
0
 71
0
 40
0.06
 41
0.06
280
1
281
1
  7
Standard
140
0.18
170
1
 62
0
 63
7
283
0
  7
Standard
140
0.18
170
1
 62
0
 63
7
283
0
  7
Standard
140
0.18
170
1
 62
0
 63
7
283
0
  0
TABLESTYLE
  5
326
102
{ACAD_REACTORS
330
322
102
}
330
322
100
AcDbTableStyle
  3
Standard1
 70
1
 71
0
 40
0.06
 41
0.06
280
1
281
1
  7
Standard
140
0.18
170
1
 62
0
 63
7
283
0
  7
Standard
140
0.18
170
1
 62
0
 63
7
283
0
  7
Standard
140
0.18
170
1
 62
0
 63
7
283
0
  0
ENDSEC
  0
EOF
