999
DXF file: O:\ORAC_PRODUCTEN\ORAC_LIJN6\C-Type\C358\c358-prod-mm.dxf
999
Pro/ENGINEER 2018500 by Parametric Technology Corporation
  0
SECTION
  2
HEADER
  9
$ACADVER
  1
AC1024
  9
$DWGCODEPAGE
  3
ANSI_1250
  9
$EXTMAX
 10
297.0
 20
210.0
 30
0.0
  9
$EXTMIN
 10
0.0
 20
0.0
 30
0.0
  9
$LIMMIN
 10
0.0
 20
0.0
  9
$LIMMAX
 10
297.0
 20
210.0
  9
$VIEWCTR
 10
148.5
 20
105.0
  9
$VIEWSIZE
 40
210.0
  9
$CLAYER
  8
0
  9
$LTSCALE
 40
16.335
  9
$CELTYPE
  6
BYLAYER
  9
$DIMSCALE
 40
1.0
  9
$DIMASZ
 40
3.5
  9
$DIMEXO
 40
1.0
  9
$DIMDLI
 40
11.286
  9
$DIMEXE
 40
1.5
  9
$DIMCEN
 40
2.673
  9
$DIMLFAC
 40
1.0
  9
$DIMBLK
  1
_FILLED
  9
$DIMALT
 70
0
  9
$DIMALTF
 40
0.0393700787
  9
$DIMTXT
 40
2.5
  9
$DIMTOL
 70
1
  9
$DIMLIM
 70
0
  9
$DIMTFAC
 40
1.0
  9
$DIMTP
 40
0.001
  9
$DIMTM
 40
0.001
  9
$DIMGAP
 40
0.625
  9
$DIMDSEP
 70
44
  9
$AUNITS
 70
0
  9
$PDMODE
 70
3
  9
$PDSIZE
 40
8.0
  9
$HANDSEED
  5
364
  9
$TILEMODE
 70
1
  9
$MEASUREMENT
 70
1
  9
$INSUNITS
 70
4
  0
ENDSEC
  0
SECTION
  2
CLASSES
  0
CLASS
  1
ACDBDICTIONARYWDFLT
  2
AcDbDictionaryWithDefault
  3
AutoCAD 2000
 90
0
 91
1
280
0
281
0
  0
CLASS
  1
ACDBPLACEHOLDER
  2
AcDbPlaceHolder
  3
AutoCAD 2000
 90
0
 91
1
280
0
281
0
  0
CLASS
  1
LAYOUT
  2
AcDbLayout
  3
AutoCAD 2000
 90
0
 91
0
280
0
281
0
  0
CLASS
  1
TABLESTYLE
  2
AcDbTableStyle
  3
ObjectDBX Classes
 90
2047
 91
1
280
0
281
0
  0
CLASS
  1
ACAD_TABLE
  2
AcDbTable
  3
ObjectDBX Classes
 90
1025
 91
1
280
0
281
1
  0
ENDSEC
  0
SECTION
  2
TABLES
  0
TABLE
  2
VPORT
  5
8
100
AcDbSymbolTable
 70
2
  0
VPORT
  5
1F4
100
AcDbSymbolTableRecord
100
AcDbViewportTableRecord
  2
*ACTIVE
 70
0
 10
0.0
 20
0.0
 11
1.0
 21
1.0
 12
148.5
 22
105.0
 13
0.0
 23
0.0
 14
1.0
 24
1.0
 15
0.0
 25
0.0
 16
0.0
 26
0.0
 36
1.0
 17
0.0
 27
0.0
 37
0.0
 40
210.0
 41
1.4142857143
 42
50.0
 43
0.0
 44
0.0
 50
0.0
 51
0.0
 71
0
 72
100
 73
1
 74
1
 75
0
 76
0
 77
0
 78
0
  0
ENDTAB
  0
TABLE
  2
LTYPE
  5
5
100
AcDbSymbolTable
 70
6
  0
LTYPE
  5
14
100
AcDbSymbolTableRecord
100
AcDbLinetypeTableRecord
  2
BYBLOCK
 70
0
  3

 72
65
 73
0
 40
0.0
  0
LTYPE
  5
15
100
AcDbSymbolTableRecord
100
AcDbLinetypeTableRecord
  2
BYLAYER
 70
0
  3

 72
65
 73
0
 40
0.0
  0
LTYPE
  5
16
100
AcDbSymbolTableRecord
100
AcDbLinetypeTableRecord
  2
CONTINUOUS
 70
64
  3
Solid line
 72
65
 73
0
 40
0.0
  0
LTYPE
  5
1F5
100
AcDbSymbolTableRecord
100
AcDbLinetypeTableRecord
  2
CENTER
 70
64
  3
____ _ ____ _ ____ _ ____ _ ____ _ ____ _ ____
 72
65
 73
4
 40
0.6
 49
0.375
 74
0
 49
-0.075
 74
0
 49
0.075
 74
0
 49
-0.075
 74
0
  0
LTYPE
  5
1F6
100
AcDbSymbolTableRecord
100
AcDbLinetypeTableRecord
  2
HIDDEN
 70
64
  3
- - - - - - - - - - - - - - - - - - - -
 72
65
 73
2
 40
0.2
 49
0.1
 74
0
 49
-0.1
 74
0
  0
LTYPE
  5
1F7
100
AcDbSymbolTableRecord
100
AcDbLinetypeTableRecord
  2
PHANTOM
 70
64
  3
_____ _ _ _____ _ _ _____ _ _ _____
 72
65
 73
6
 40
0.8
 49
0.45
 74
0
 49
-0.05
 74
0
 49
0.1
 74
0
 49
-0.05
 74
0
 49
0.1
 74
0
 49
-0.05
 74
0
  0
LTYPE
  5
1F8
100
AcDbSymbolTableRecord
100
AcDbLinetypeTableRecord
  2
DOT
 70
64
  3
. . . . . . . . . . . . . . . . . . . .
 72
65
 73
2
 40
0.2
 49
0.1
 74
0
 49
-0.1
 74
0
  0
LTYPE
  5
1F9
100
AcDbSymbolTableRecord
100
AcDbLinetypeTableRecord
  2
DASHED
 70
64
  3
- - - - - - - - - - - - - - - - - - - -
 72
65
 73
2
 40
0.2
 49
0.1
 74
0
 49
-0.1
 74
0
  0
ENDTAB
  0
TABLE
  2
LAYER
  5
2
100
AcDbSymbolTable
 70
36
  0
LAYER
  5
10
100
AcDbSymbolTableRecord
100
AcDbLayerTableRecord
  2
0
 70
0
 62
7
  6
CONTINUOUS
370
-3
390
F
  0
LAYER
  5
1FA
100
AcDbSymbolTableRecord
100
AcDbLayerTableRecord
  2
DEFAULT_1
 70
0
 62
7
  6
CENTER
370
-3
390
F
  0
LAYER
  5
1FB
100
AcDbSymbolTableRecord
100
AcDbLayerTableRecord
  2
DEFAULT_2
 70
0
 62
8
  6
HIDDEN
370
-3
390
F
  0
LAYER
  5
1FC
100
AcDbSymbolTableRecord
100
AcDbLayerTableRecord
  2
DEFAULT_3
 70
0
 62
7
  6
PHANTOM
370
-3
390
F
  0
LAYER
  5
1FD
100
AcDbSymbolTableRecord
100
AcDbLayerTableRecord
  2
DTM_ALL
 70
0
 62
7
  6
CONTINUOUS
370
-3
390
F
  0
LAYER
  5
1FE
100
AcDbSymbolTableRecord
100
AcDbLayerTableRecord
  2
DTM_AXIS
 70
0
 62
7
  6
CONTINUOUS
370
-3
390
F
  0
LAYER
  5
1FF
100
AcDbSymbolTableRecord
100
AcDbLayerTableRecord
  2
DTM_CSYS
 70
0
 62
7
  6
CONTINUOUS
370
-3
390
F
  0
LAYER
  5
200
100
AcDbSymbolTableRecord
100
AcDbLayerTableRecord
  2
DTM_CURVE
 70
0
 62
7
  6
CONTINUOUS
370
-3
390
F
  0
LAYER
  5
201
100
AcDbSymbolTableRecord
100
AcDbLayerTableRecord
  2
DTM_MASTER
 70
0
 62
7
  6
CONTINUOUS
370
-3
390
F
  0
LAYER
  5
202
100
AcDbSymbolTableRecord
100
AcDbLayerTableRecord
  2
DTM_POINT
 70
0
 62
7
  6
CONTINUOUS
370
-3
390
F
  0
LAYER
  5
203
100
AcDbSymbolTableRecord
100
AcDbLayerTableRecord
  2
DTM_QUILT
 70
0
 62
7
  6
CONTINUOUS
370
-3
390
F
  0
LAYER
  5
204
100
AcDbSymbolTableRecord
100
AcDbLayerTableRecord
  2
GTOL
 70
0
 62
7
  6
CONTINUOUS
370
-3
390
F
  0
LAYER
  5
205
100
AcDbSymbolTableRecord
100
AcDbLayerTableRecord
  2
NOTES
 70
0
 62
7
  6
CONTINUOUS
370
-3
390
F
  0
ENDTAB
  0
TABLE
  2
STYLE
  5
3
100
AcDbSymbolTable
 70
1
  0
STYLE
  5
11
100
AcDbSymbolTableRecord
100
AcDbTextStyleTableRecord
  2
STANDARD
 70
0
 40
0.0
 41
1.0
 50
0.0
 71
0
 42
0.2
  3
cgtime.ttf
  4

  0
STYLE
  5
206
100
AcDbSymbolTableRecord
100
AcDbTextStyleTableRecord
  2
TEXTSTYLE_1
 70
0
 40
0.0
 41
0.8
 50
0.0
 71
0
 42
0.2
  3
gdt
  4

  0
STYLE
  5
207
100
AcDbSymbolTableRecord
100
AcDbTextStyleTableRecord
  2
TEXTSTYLE_2
 70
0
 40
0.0
 41
1.0
 50
0.0
 71
0
 42
0.2
  3
trium.ttf
  4

  0
STYLE
  5
208
100
AcDbSymbolTableRecord
100
AcDbTextStyleTableRecord
  2
TEXTSTYLE_3
 70
0
 40
0.0
 41
1.0
 50
0.0
 71
0
 42
0.2
  3
calibri.ttf
  4

  0
ENDTAB
  0
TABLE
  2
VIEW
  5
6
100
AcDbSymbolTable
 70
0
  0
ENDTAB
  0
TABLE
  2
UCS
  5
7
100
AcDbSymbolTable
 70
0
  0
ENDTAB
  0
TABLE
  2
APPID
  5
9
100
AcDbSymbolTable
 70
1
  0
APPID
  5
209
100
AcDbSymbolTableRecord
100
AcDbRegAppTableRecord
  2
ACAD
 70
0
  0
ENDTAB
  0
TABLE
  2
BLOCK_RECORD
  5
1
100
AcDbSymbolTable
 70
0
  0
BLOCK_RECORD
  5
20A
100
AcDbSymbolTableRecord
100
AcDbBlockTableRecord
  2
*Model_Space
  0
BLOCK_RECORD
  5
20B
100
AcDbSymbolTableRecord
100
AcDbBlockTableRecord
  2
*Paper_Space
  0
BLOCK_RECORD
  5
20C
100
AcDbSymbolTableRecord
100
AcDbBlockTableRecord
  2
_FILLED
  0
BLOCK_RECORD
  5
20D
100
AcDbSymbolTableRecord
100
AcDbBlockTableRecord
  2
*D0
  0
BLOCK_RECORD
  5
20E
100
AcDbSymbolTableRecord
100
AcDbBlockTableRecord
  2
*D1
  0
BLOCK_RECORD
  5
20F
100
AcDbSymbolTableRecord
100
AcDbBlockTableRecord
  2
*D2
  0
BLOCK_RECORD
  5
210
100
AcDbSymbolTableRecord
100
AcDbBlockTableRecord
  2
*D3
  0
BLOCK_RECORD
  5
211
100
AcDbSymbolTableRecord
100
AcDbBlockTableRecord
  2
*D4
  0
BLOCK_RECORD
  5
212
100
AcDbSymbolTableRecord
100
AcDbBlockTableRecord
  2
*D5
  0
BLOCK_RECORD
  5
213
100
AcDbSymbolTableRecord
100
AcDbBlockTableRecord
  2
*D6
  0
BLOCK_RECORD
  5
214
100
AcDbSymbolTableRecord
100
AcDbBlockTableRecord
  2
*D7
  0
BLOCK_RECORD
  5
215
100
AcDbSymbolTableRecord
100
AcDbBlockTableRecord
  2
*D8
  0
BLOCK_RECORD
  5
216
100
AcDbSymbolTableRecord
100
AcDbBlockTableRecord
  2
*D9
  0
BLOCK_RECORD
  5
217
100
AcDbSymbolTableRecord
100
AcDbBlockTableRecord
  2
*D10
  0
BLOCK_RECORD
  5
218
100
AcDbSymbolTableRecord
100
AcDbBlockTableRecord
  2
*D11
  0
BLOCK_RECORD
  5
219
100
AcDbSymbolTableRecord
100
AcDbBlockTableRecord
  2
*D12
  0
BLOCK_RECORD
  5
21A
100
AcDbSymbolTableRecord
100
AcDbBlockTableRecord
  2
*T1
  0
ENDTAB
  0
TABLE
  2
DIMSTYLE
  5
A
100
AcDbSymbolTable
 70
1
100
AcDbDimStyleTable
 71
0
  0
DIMSTYLE
105
21B
100
AcDbSymbolTableRecord
100
AcDbDimStyleTableRecord
  2
STANDARD
 70
0
  3

  4

 40
1.0
 41
3.5
 42
1.0
 43
0.38
 44
1.5
 45
0.0
 46
0.0
 47
0.001
 48
0.001
140
2.5
141
0.09
142
0.0
143
25.4
144
1.0
145
0.0
146
1.0
147
0.625
 71
1.0
 72
0.0
 73
1
 74
1
 75
0
 76
0
 77
0
 78
8
 79
2
170
0
171
2
172
0
173
0
174
0
175
0
176
0
177
0
178
0
270
2
179
3
271
3
272
3
273
2
274
2
275
0
280
0
281
0
282
0
283
1
284
8
285
0
286
0
287
3
288
0
340
11
278
44
341
20C
342
20C
343
20C
344
20C
  0
DIMSTYLE
105
21C
100
AcDbSymbolTableRecord
100
AcDbDimStyleTableRecord
  2
DIMSTYLE_1
 70
0
  3

  4

 40
1.0
 41
3.5
 42
1.0
 43
0.38
 44
1.5
 45
0.0
 46
0.0
 47
0.0
 48
0.0
140
2.5
141
0.09
142
0.0
143
25.4
144
1.0
145
0.0
146
1.0
147
1.25
 71
0.0
 72
0.0
 73
1
 74
1
 75
0
 76
0
 77
0
 78
8
 79
2
170
0
171
2
172
0
173
0
174
0
175
0
176
0
177
0
178
0
270
2
179
3
271
3
272
3
273
2
274
2
275
0
280
0
281
0
282
0
283
1
284
8
285
0
286
0
287
3
288
0
340
11
278
44
341
20C
342
20C
343
20C
344
20C
  0
DIMSTYLE
105
21D
100
AcDbSymbolTableRecord
100
AcDbDimStyleTableRecord
  2
DIMSTYLE_2
 70
0
  3

  4

 40
1.0
 41
3.5
 42
1.0
 43
0.38
 44
1.5
 45
0.0
 46
0.0
 47
0.0
 48
0.0
140
2.5
141
0.09
142
0.0
143
25.4
144
1.0
145
0.0
146
1.0
147
1.25
 71
0.0
 72
0.0
 73
1
 74
1
 75
0
 76
0
 77
0
 78
8
 79
2
170
0
171
2
172
0
173
0
174
0
175
0
176
0
177
0
178
0
270
2
179
3
271
0
272
0
273
2
274
2
275
0
280
0
281
0
282
0
283
1
284
8
285
0
286
0
287
3
288
0
340
11
278
44
341
20C
342
20C
343
20C
344
20C
  0
DIMSTYLE
105
21E
100
AcDbSymbolTableRecord
100
AcDbDimStyleTableRecord
  2
DIMSTYLE_3
 70
0
  3

  4

 40
1.0
 41
3.5
 42
1.0
 43
0.38
 44
1.5
 45
0.0
 46
0.0
 47
0.0
 48
0.0
140
2.5
141
0.09
142
0.0
143
25.4
144
1.0
145
0.0
146
1.0
147
1.25
 71
0.0
 72
0.0
 73
1
 74
1
 75
0
 76
0
 77
0
 78
8
 79
2
170
0
171
2
172
0
173
0
174
0
175
0
176
0
177
0
178
0
270
2
179
3
271
1
272
1
273
2
274
2
275
0
280
0
281
0
282
0
283
1
284
8
285
0
286
0
287
3
288
0
340
11
278
44
341
20C
342
20C
343
20C
344
20C
  0
ENDTAB
  0
ENDSEC
  0
SECTION
  2
BLOCKS
  0
BLOCK
  5
20
100
AcDbEntity
  8
0
100
AcDbBlockBegin
  2
*Model_Space
 70
0
 10
0.0
 20
0.0
 30
0.0
  3
*Model_Space
  1

  0
ENDBLK
  5
21
100
AcDbEntity
  8
0
100
AcDbBlockEnd
  0
BLOCK
  5
1C
100
AcDbEntity
  8
0
100
AcDbBlockBegin
  2
*Paper_Space
 70
0
 10
0.0
 20
0.0
 30
0.0
  3
*Paper_Space
  1

  0
ENDBLK
  5
1D
100
AcDbEntity
  8
0
100
AcDbBlockEnd
  0
BLOCK
  5
21F
100
AcDbEntity
  8
0
100
AcDbBlockBegin
  2
_FILLED
 70
64
 10
0.0
 20
0.0
  3
_FILLED
  1

  0
SOLID
  5
220
100
AcDbEntity
  8
0
  6
BYBLOCK
 62
0
100
AcDbTrace
 10
0.0
 20
0.0
 11
-1.0
 21
0.2142857143
 12
-1.0
 22
-0.2142857143
 13
-1.0
 23
-0.2142857143
  0
ENDBLK
  5
221
100
AcDbEntity
  8
0
  6
BYBLOCK
 62
0
100
AcDbBlockEnd
  0
BLOCK
  5
222
100
AcDbEntity
  8
0
100
AcDbBlockBegin
 62
2
  6
CONTINUOUS
  2
*D0
 70
65
 10
0.0
 20
0.0
  3
*D0
  1

  0
TEXT
  5
223
100
AcDbEntity
  8
0
100
AcDbText
 62
2
  6
CONTINUOUS
 10
12.0861468636
 20
133.9359882853
  7
STANDARD
 40
2.5
  1
73
 72
5
 11
15.7242791593
 21
133.9359882853
100
AcDbText
  0
TEXT
  5
224
100
AcDbEntity
  8
0
100
AcDbText
 62
2
  6
CONTINUOUS
 10
15.7242791593
 20
133.9359882853
  7
STANDARD
 40
2.5
  1
mm
 72
5
 11
21.395485385
 21
133.9359882853
100
AcDbText
  0
TEXT
  5
225
100
AcDbEntity
  8
0
100
AcDbText
 62
2
  6
CONTINUOUS
 10
11.9548239064
 20
130.1859882853
  7
STANDARD
 40
2.5
  1
2-7/8"
 72
5
 11
21.5268083422
 21
130.1859882853
100
AcDbText
  0
LINE
  5
226
100
AcDbEntity
  8
0
100
AcDbLine
 62
2
  6
CONTINUOUS
 10
41.882609378
 20
98.6859882853
 11
15.2408161243
 21
98.6859882853
  0
LINE
  5
227
100
AcDbEntity
  8
0
100
AcDbLine
 62
2
  6
CONTINUOUS
 10
31.882609378
 20
171.6859882853
 11
15.2408161243
 21
171.6859882853
  0
LINE
  5
228
100
AcDbEntity
  8
0
100
AcDbLine
 62
2
  6
CONTINUOUS
 10
16.7408161243
 20
98.6859882853
 11
16.7408161243
 21
128.9359882853
  0
LINE
  5
229
100
AcDbEntity
  8
0
100
AcDbLine
 62
2
  6
CONTINUOUS
 10
16.7408161243
 20
171.6859882853
 11
16.7408161243
 21
137.6859882853
  0
INSERT
  5
22A
100
AcDbEntity
  8
0
100
AcDbBlockReference
 62
2
  6
CONTINUOUS
  2
_FILLED
 10
16.7408161243
 20
98.6859882853
 41
3.5
 42
3.5
 43
3.5
 50
270.0
  0
INSERT
  5
22B
100
AcDbEntity
  8
0
100
AcDbBlockReference
 62
2
  6
CONTINUOUS
  2
_FILLED
 10
16.7408161243
 20
171.6859882853
 41
3.5
 42
3.5
 43
3.5
 50
90.0
  0
ENDBLK
  5
22C
100
AcDbEntity
  8
0
  6
BYBLOCK
 62
0
100
AcDbBlockEnd
  0
BLOCK
  5
22D
100
AcDbEntity
  8
0
100
AcDbBlockBegin
 62
2
  6
CONTINUOUS
  2
*D1
 70
65
 10
0.0
 20
0.0
  3
*D1
  1

  0
TEXT
  5
22E
100
AcDbEntity
  8
0
100
AcDbText
 62
2
  6
CONTINUOUS
 10
97.3184070433
 20
184.7703172816
  7
STANDARD
 40
2.5
  1
140
 72
5
 11
102.7756054869
 21
184.7703172816
100
AcDbText
  0
TEXT
  5
22F
100
AcDbEntity
  8
0
100
AcDbText
 62
2
  6
CONTINUOUS
 10
102.7756054869
 20
184.7703172816
  7
STANDARD
 40
2.5
  1
mm
 72
5
 11
108.4468117126
 21
184.7703172816
100
AcDbText
  0
TEXT
  5
230
100
AcDbEntity
  8
0
100
AcDbText
 62
2
  6
CONTINUOUS
 10
98.0966171601
 20
181.0203172816
  7
STANDARD
 40
2.5
  1
5-1/2"
 72
5
 11
107.6686015959
 21
181.0203172816
100
AcDbText
  0
LINE
  5
231
100
AcDbEntity
  8
0
100
AcDbLine
 62
2
  6
CONTINUOUS
 10
32.882609378
 20
172.6859882853
 11
32.882609378
 21
187.5203172816
  0
LINE
  5
232
100
AcDbEntity
  8
0
100
AcDbLine
 62
2
  6
CONTINUOUS
 10
172.882609378
 20
172.6859882853
 11
172.882609378
 21
187.5203172816
  0
LINE
  5
233
100
AcDbEntity
  8
0
100
AcDbLine
 62
2
  6
CONTINUOUS
 10
32.882609378
 20
186.0203172816
 11
96.0684070433
 21
186.0203172816
  0
LINE
  5
234
100
AcDbEntity
  8
0
100
AcDbLine
 62
2
  6
CONTINUOUS
 10
172.882609378
 20
186.0203172816
 11
109.6968117126
 21
186.0203172816
  0
INSERT
  5
235
100
AcDbEntity
  8
0
100
AcDbBlockReference
 62
2
  6
CONTINUOUS
  2
_FILLED
 10
32.882609378
 20
186.0203172816
 41
3.5
 42
3.5
 43
3.5
 50
180.0
  0
INSERT
  5
236
100
AcDbEntity
  8
0
100
AcDbBlockReference
 62
2
  6
CONTINUOUS
  2
_FILLED
 10
172.882609378
 20
186.0203172816
 41
3.5
 42
3.5
 43
3.5
  0
ENDBLK
  5
237
100
AcDbEntity
  8
0
  6
BYBLOCK
 62
0
100
AcDbBlockEnd
  0
BLOCK
  5
238
100
AcDbEntity
  8
0
100
AcDbBlockBegin
 62
2
  6
CONTINUOUS
  2
*D2
 70
65
 10
0.0
 20
0.0
  3
*D2
  1

  0
TEXT
  5
239
100
AcDbEntity
  8
0
100
AcDbText
 62
2
  6
CONTINUOUS
 10
121.8468923475
 20
90.7295834156
  7
STANDARD
 40
2.5
  1
153
 72
5
 11
127.3040907911
 21
90.7295834156
100
AcDbText
  0
LINE
  5
23A
100
AcDbEntity
  8
0
100
AcDbLine
 62
2
  6
CONTINUOUS
 10
173.2929740553
 20
170.7740667801
 11
195.1910385853
 21
122.1117011578
  0
LINE
  5
23B
100
AcDbEntity
  8
0
100
AcDbLine
 62
2
  6
CONTINUOUS
 10
33.2929740553
 20
107.7740667801
 11
55.1910385853
 21
59.1117011578
  0
LINE
  5
23C
100
AcDbEntity
  8
0
100
AcDbLine
 62
2
  6
CONTINUOUS
 10
194.5754915693
 20
123.4795834156
 11
128.5540907911
 21
93.7699530654
  0
LINE
  5
23D
100
AcDbEntity
  8
0
100
AcDbLine
 62
2
  6
CONTINUOUS
 10
54.5754915693
 20
60.4795834156
 11
120.5968923475
 21
90.1892137658
  0
INSERT
  5
23E
100
AcDbEntity
  8
0
100
AcDbBlockReference
 62
2
  6
CONTINUOUS
  2
_FILLED
 10
194.5754915693
 20
123.4795834156
 41
3.5
 42
3.5
 43
3.5
 50
24.227745318
  0
INSERT
  5
23F
100
AcDbEntity
  8
0
100
AcDbBlockReference
 62
2
  6
CONTINUOUS
  2
_FILLED
 10
54.5754915693
 20
60.4795834156
 41
3.5
 42
3.5
 43
3.5
 50
204.227745318
  0
ENDBLK
  5
240
100
AcDbEntity
  8
0
  6
BYBLOCK
 62
0
100
AcDbBlockEnd
  0
BLOCK
  5
241
100
AcDbEntity
  8
0
100
AcDbBlockBegin
 62
2
  6
CONTINUOUS
  2
*D3
 70
65
 10
0.0
 20
0.0
  3
*D3
  1

  0
TEXT
  5
242
100
AcDbEntity
  8
0
100
AcDbText
 62
2
  6
CONTINUOUS
 10
130.6484186737
 20
148.5434377262
  7
STANDARD
 40
2.5
  1
58
 72
5
 11
134.2865509694
 21
148.5434377262
100
AcDbText
  0
TEXT
  5
243
100
AcDbEntity
  8
0
100
AcDbText
 62
2
  6
CONTINUOUS
 10
134.2865509694
 20
148.5434377262
  7
STANDARD
 40
2.5
  1
mm
 72
5
 11
139.9577571951
 21
148.5434377262
100
AcDbText
  0
TEXT
  5
244
100
AcDbEntity
  8
0
100
AcDbText
 62
2
  6
CONTINUOUS
 10
130.5170957165
 20
144.7934377262
  7
STANDARD
 40
2.5
  1
2-1/4"
 72
5
 11
140.0890801523
 21
144.7934377262
100
AcDbText
  0
LINE
  5
245
100
AcDbEntity
  8
0
100
AcDbLine
 62
2
  6
CONTINUOUS
 10
122.6323598619
 20
123.2702463275
 11
116.7697039452
 21
127.6873158538
  0
LINE
  5
246
100
AcDbEntity
  8
0
100
AcDbLine
 62
2
  6
CONTINUOUS
 10
157.3030723075
 20
169.2877373917
 11
151.4404163908
 21
173.7048069179
  0
LINE
  5
247
100
AcDbEntity
  8
0
100
AcDbLine
 62
2
  6
CONTINUOUS
 10
117.9677317116
 20
126.7846921941
 11
130.5941838248
 21
143.5434377262
  0
LINE
  5
248
100
AcDbEntity
  8
0
100
AcDbLine
 62
2
  6
CONTINUOUS
 10
152.6384441572
 20
172.8021832583
 11
137.1866495782
 21
152.2934377262
  0
INSERT
  5
249
100
AcDbEntity
  8
0
100
AcDbBlockReference
 62
2
  6
CONTINUOUS
  2
_FILLED
 10
117.9677317116
 20
126.7846921941
 41
3.5
 42
3.5
 43
3.5
 50
233.0047288573
  0
INSERT
  5
24A
100
AcDbEntity
  8
0
100
AcDbBlockReference
 62
2
  6
CONTINUOUS
  2
_FILLED
 10
152.6384441572
 20
172.8021832583
 41
3.5
 42
3.5
 43
3.5
 50
53.0047288573
  0
ENDBLK
  5
24B
100
AcDbEntity
  8
0
  6
BYBLOCK
 62
0
100
AcDbBlockEnd
  0
BLOCK
  5
24C
100
AcDbEntity
  8
0
100
AcDbBlockBegin
 62
2
  6
CONTINUOUS
  2
*D4
 70
65
 10
0.0
 20
0.0
  3
*D4
  1

  0
TEXT
  5
24D
100
AcDbEntity
  8
0
100
AcDbText
 62
2
  6
CONTINUOUS
 10
88.7744884821
 20
124.0257872282
  7
STANDARD
 40
2.5
  1
44
 72
5
 11
92.4126207779
 21
124.0257872282
100
AcDbText
  0
TEXT
  5
24E
100
AcDbEntity
  8
0
100
AcDbText
 62
2
  6
CONTINUOUS
 10
92.4126207779
 20
124.0257872282
  7
STANDARD
 40
2.5
  1
mm
 72
5
 11
98.0838270035
 21
124.0257872282
100
AcDbText
  0
TEXT
  5
24F
100
AcDbEntity
  8
0
100
AcDbText
 62
2
  6
CONTINUOUS
 10
88.643165525
 20
120.2757872282
  7
STANDARD
 40
2.5
  1
1-3/4"
 72
5
 11
98.2151499607
 21
120.2757872282
100
AcDbText
  0
LINE
  5
250
100
AcDbEntity
  8
0
100
AcDbLine
 62
2
  6
CONTINUOUS
 10
71.4141222223
 20
119.6859882853
 11
71.4141222223
 21
126.7757872282
  0
LINE
  5
251
100
AcDbEntity
  8
0
100
AcDbLine
 62
2
  6
CONTINUOUS
 10
115.4441932634
 20
119.6859882853
 11
115.4441932634
 21
126.7757872282
  0
LINE
  5
252
100
AcDbEntity
  8
0
100
AcDbLine
 62
2
  6
CONTINUOUS
 10
71.4141222223
 20
125.2757872282
 11
87.5244884821
 21
125.2757872282
  0
LINE
  5
253
100
AcDbEntity
  8
0
100
AcDbLine
 62
2
  6
CONTINUOUS
 10
115.4441932634
 20
125.2757872282
 11
99.3338270035
 21
125.2757872282
  0
INSERT
  5
254
100
AcDbEntity
  8
0
100
AcDbBlockReference
 62
2
  6
CONTINUOUS
  2
_FILLED
 10
71.4141222223
 20
125.2757872282
 41
3.5
 42
3.5
 43
3.5
 50
180.0
  0
INSERT
  5
255
100
AcDbEntity
  8
0
100
AcDbBlockReference
 62
2
  6
CONTINUOUS
  2
_FILLED
 10
115.4441932634
 20
125.2757872282
 41
3.5
 42
3.5
 43
3.5
  0
ENDBLK
  5
256
100
AcDbEntity
  8
0
  6
BYBLOCK
 62
0
100
AcDbBlockEnd
  0
BLOCK
  5
257
100
AcDbEntity
  8
0
100
AcDbBlockBegin
 62
2
  6
CONTINUOUS
  2
*D5
 70
65
 10
0.0
 20
0.0
  3
*D5
  1

  0
TEXT
  5
258
100
AcDbEntity
  8
0
100
AcDbText
 62
2
  6
CONTINUOUS
 10
48.7520040907
 20
144.9141719465
  7
STANDARD
 40
2.5
  1
45
 72
5
 11
52.3901363864
 21
144.9141719465
100
AcDbText
  0
TEXT
  5
259
100
AcDbEntity
  8
0
100
AcDbText
 62
2
  6
CONTINUOUS
 10
52.3901363864
 20
144.9141719465
  7
STANDARD
 40
2.5
  1
mm
 72
5
 11
58.0613426121
 21
144.9141719465
100
AcDbText
  0
TEXT
  5
25A
100
AcDbEntity
  8
0
100
AcDbText
 62
2
  6
CONTINUOUS
 10
48.6206811335
 20
141.1641719465
  7
STANDARD
 40
2.5
  1
1-3/4"
 72
5
 11
58.1926655692
 21
141.1641719465
100
AcDbText
  0
LINE
  5
25B
100
AcDbEntity
  8
0
100
AcDbLine
 62
2
  6
CONTINUOUS
 10
44.2756992052
 20
123.6423556078
 11
54.9066733514
 21
123.6423556078
  0
LINE
  5
25C
100
AcDbEntity
  8
0
100
AcDbLine
 62
2
  6
CONTINUOUS
 10
43.882609378
 20
168.6859882853
 11
54.9066733514
 21
168.6859882853
  0
LINE
  5
25D
100
AcDbEntity
  8
0
100
AcDbLine
 62
2
  6
CONTINUOUS
 10
53.4066733514
 20
123.6423556078
 11
53.4066733514
 21
139.9141719465
  0
LINE
  5
25E
100
AcDbEntity
  8
0
100
AcDbLine
 62
2
  6
CONTINUOUS
 10
53.4066733514
 20
168.6859882853
 11
53.4066733514
 21
148.6641719465
  0
INSERT
  5
25F
100
AcDbEntity
  8
0
100
AcDbBlockReference
 62
2
  6
CONTINUOUS
  2
_FILLED
 10
53.4066733514
 20
123.6423556078
 41
3.5
 42
3.5
 43
3.5
 50
270.0
  0
INSERT
  5
260
100
AcDbEntity
  8
0
100
AcDbBlockReference
 62
2
  6
CONTINUOUS
  2
_FILLED
 10
53.4066733514
 20
168.6859882853
 41
3.5
 42
3.5
 43
3.5
 50
90.0
  0
ENDBLK
  5
261
100
AcDbEntity
  8
0
  6
BYBLOCK
 62
0
100
AcDbBlockEnd
  0
BLOCK
  5
262
100
AcDbEntity
  8
0
100
AcDbBlockBegin
 62
2
  6
CONTINUOUS
  2
*D6
 70
65
 10
0.0
 20
0.0
  3
*D6
  1

  0
TEXT
  5
263
100
AcDbEntity
  8
0
100
AcDbText
 62
2
  6
CONTINUOUS
 10
20.2696506724
 20
104.4274824562
  7
STANDARD
 40
2.5
  1
10
 72
5
 11
23.9077829682
 21
104.4274824562
100
AcDbText
  0
TEXT
  5
264
100
AcDbEntity
  8
0
100
AcDbText
 62
2
  6
CONTINUOUS
 10
23.9077829682
 20
104.4274824562
  7
STANDARD
 40
2.5
  1
mm
 72
5
 11
29.5789891938
 21
104.4274824562
100
AcDbText
  0
TEXT
  5
265
100
AcDbEntity
  8
0
100
AcDbText
 62
2
  6
CONTINUOUS
 10
21.6558374429
 20
100.6774824562
  7
STANDARD
 40
2.5
  1
3/8"
 72
5
 11
28.1928024234
 21
100.6774824562
100
AcDbText
  0
LINE
  5
266
100
AcDbEntity
  8
0
100
AcDbLine
 62
2
  6
CONTINUOUS
 10
41.882609378
 20
98.6859882853
 11
23.4243199331
 21
98.6859882853
  0
LINE
  5
267
100
AcDbEntity
  8
0
100
AcDbLine
 62
2
  6
CONTINUOUS
 10
31.882609378
 20
108.6859882853
 11
23.4243199331
 21
108.6859882853
  0
LINE
  5
268
100
AcDbEntity
  8
0
100
AcDbLine
 62
2
  6
CONTINUOUS
 10
24.9243199331
 20
98.6859882853
 11
24.9243199331
 21
93.6859882853
  0
LINE
  5
269
100
AcDbEntity
  8
0
100
AcDbLine
 62
2
  6
CONTINUOUS
 10
24.9243199331
 20
108.6859882853
 11
24.9243199331
 21
113.6859882853
  0
INSERT
  5
26A
100
AcDbEntity
  8
0
100
AcDbBlockReference
 62
2
  6
CONTINUOUS
  2
_FILLED
 10
24.9243199331
 20
98.6859882853
 41
3.5
 42
3.5
 43
3.5
 50
90.0
  0
INSERT
  5
26B
100
AcDbEntity
  8
0
100
AcDbBlockReference
 62
2
  6
CONTINUOUS
  2
_FILLED
 10
24.9243199331
 20
108.6859882853
 41
3.5
 42
3.5
 43
3.5
 50
270.0
  0
ENDBLK
  5
26C
100
AcDbEntity
  8
0
  6
BYBLOCK
 62
0
100
AcDbBlockEnd
  0
BLOCK
  5
26D
100
AcDbEntity
  8
0
100
AcDbBlockBegin
 62
2
  6
CONTINUOUS
  2
*D7
 70
65
 10
0.0
 20
0.0
  3
*D7
  1

  0
TEXT
  5
26E
100
AcDbEntity
  8
0
100
AcDbText
 62
2
  6
CONTINUOUS
 10
33.2279401173
 20
78.6410951014
  7
STANDARD
 40
2.5
  1
10
 72
5
 11
36.866072413
 21
78.6410951014
100
AcDbText
  0
TEXT
  5
26F
100
AcDbEntity
  8
0
100
AcDbText
 62
2
  6
CONTINUOUS
 10
36.866072413
 20
78.6410951014
  7
STANDARD
 40
2.5
  1
mm
 72
5
 11
42.5372786387
 21
78.6410951014
100
AcDbText
  0
TEXT
  5
270
100
AcDbEntity
  8
0
100
AcDbText
 62
2
  6
CONTINUOUS
 10
34.6141268877
 20
74.8910951014
  7
STANDARD
 40
2.5
  1
3/8"
 72
5
 11
41.1510918682
 21
74.8910951014
100
AcDbText
  0
LINE
  5
271
100
AcDbEntity
  8
0
100
AcDbLine
 62
2
  6
CONTINUOUS
 10
32.882609378
 20
107.6859882853
 11
32.882609378
 21
78.3910951014
  0
LINE
  5
272
100
AcDbEntity
  8
0
100
AcDbLine
 62
2
  6
CONTINUOUS
 10
42.882609378
 20
97.6859882853
 11
42.882609378
 21
78.3910951014
  0
LINE
  5
273
100
AcDbEntity
  8
0
100
AcDbLine
 62
2
  6
CONTINUOUS
 10
32.882609378
 20
79.8910951014
 11
27.882609378
 21
79.8910951014
  0
LINE
  5
274
100
AcDbEntity
  8
0
100
AcDbLine
 62
2
  6
CONTINUOUS
 10
42.882609378
 20
79.8910951014
 11
47.882609378
 21
79.8910951014
  0
INSERT
  5
275
100
AcDbEntity
  8
0
100
AcDbBlockReference
 62
2
  6
CONTINUOUS
  2
_FILLED
 10
32.882609378
 20
79.8910951014
 41
3.5
 42
3.5
 43
3.5
  0
INSERT
  5
276
100
AcDbEntity
  8
0
100
AcDbBlockReference
 62
2
  6
CONTINUOUS
  2
_FILLED
 10
42.882609378
 20
79.8910951014
 41
3.5
 42
3.5
 43
3.5
 50
180.0
  0
ENDBLK
  5
277
100
AcDbEntity
  8
0
  6
BYBLOCK
 62
0
100
AcDbBlockEnd
  0
BLOCK
  5
278
100
AcDbEntity
  8
0
100
AcDbBlockBegin
 62
2
  6
CONTINUOUS
  2
*D8
 70
65
 10
0.0
 20
0.0
  3
*D8
  1

  0
TEXT
  5
279
100
AcDbEntity
  8
0
100
AcDbText
 62
2
  6
CONTINUOUS
 10
50.7279401173
 20
78.6410951014
  7
STANDARD
 40
2.5
  1
25
 72
5
 11
54.366072413
 21
78.6410951014
100
AcDbText
  0
TEXT
  5
27A
100
AcDbEntity
  8
0
100
AcDbText
 62
2
  6
CONTINUOUS
 10
54.366072413
 20
78.6410951014
  7
STANDARD
 40
2.5
  1
mm
 72
5
 11
60.0372786387
 21
78.6410951014
100
AcDbText
  0
TEXT
  5
27B
100
AcDbEntity
  8
0
100
AcDbText
 62
2
  6
CONTINUOUS
 10
53.6316366153
 20
74.8910951014
  7
STANDARD
 40
2.5
  1
1"
 72
5
 11
57.1335821406
 21
74.8910951014
100
AcDbText
  0
LINE
  5
27C
100
AcDbEntity
  8
0
100
AcDbLine
 62
2
  6
CONTINUOUS
 10
67.882609378
 20
97.6859882853
 11
67.882609378
 21
78.3910951014
  0
LINE
  5
27D
100
AcDbEntity
  8
0
100
AcDbLine
 62
2
  6
CONTINUOUS
 10
42.882609378
 20
97.6859882853
 11
42.882609378
 21
78.3910951014
  0
LINE
  5
27E
100
AcDbEntity
  8
0
100
AcDbLine
 62
2
  6
CONTINUOUS
 10
67.882609378
 20
79.8910951014
 11
61.2872786387
 21
79.8910951014
  0
LINE
  5
27F
100
AcDbEntity
  8
0
100
AcDbLine
 62
2
  6
CONTINUOUS
 10
42.882609378
 20
79.8910951014
 11
49.4779401173
 21
79.8910951014
  0
INSERT
  5
280
100
AcDbEntity
  8
0
100
AcDbBlockReference
 62
2
  6
CONTINUOUS
  2
_FILLED
 10
67.882609378
 20
79.8910951014
 41
3.5
 42
3.5
 43
3.5
  0
INSERT
  5
281
100
AcDbEntity
  8
0
100
AcDbBlockReference
 62
2
  6
CONTINUOUS
  2
_FILLED
 10
42.882609378
 20
79.8910951014
 41
3.5
 42
3.5
 43
3.5
 50
180.0
  0
ENDBLK
  5
282
100
AcDbEntity
  8
0
  6
BYBLOCK
 62
0
100
AcDbBlockEnd
  0
BLOCK
  5
283
100
AcDbEntity
  8
0
100
AcDbBlockBegin
 62
2
  6
CONTINUOUS
  2
*D9
 70
65
 10
0.0
 20
0.0
  3
*D9
  1

  0
TEXT
  5
284
100
AcDbEntity
  8
0
100
AcDbText
 62
2
  6
CONTINUOUS
 10
95.7621866926
 20
100.7863901757
  7
STANDARD
 40
2.5
  1
50
 72
5
 11
99.4003189883
 21
100.7863901757
100
AcDbText
  0
TEXT
  5
285
100
AcDbEntity
  8
0
100
AcDbText
 62
2
  6
CONTINUOUS
 10
99.4003189883
 20
100.7863901757
  7
STANDARD
 40
2.5
  1
mm
 72
5
 11
105.071525214
 21
100.7863901757
100
AcDbText
  0
TEXT
  5
286
100
AcDbEntity
  8
0
100
AcDbText
 62
2
  6
CONTINUOUS
 10
98.6658831907
 20
97.0363901757
  7
STANDARD
 40
2.5
  1
2"
 72
5
 11
102.1678287159
 21
97.0363901757
100
AcDbText
  0
LINE
  5
287
100
AcDbEntity
  8
0
100
AcDbLine
 62
2
  6
CONTINUOUS
 10
125.4168559533
 20
107.6859882853
 11
125.4168559533
 21
100.5363901757
  0
LINE
  5
288
100
AcDbEntity
  8
0
100
AcDbLine
 62
2
  6
CONTINUOUS
 10
75.4168559533
 20
107.6859882853
 11
75.4168559533
 21
100.5363901757
  0
LINE
  5
289
100
AcDbEntity
  8
0
100
AcDbLine
 62
2
  6
CONTINUOUS
 10
125.4168559533
 20
102.0363901757
 11
106.321525214
 21
102.0363901757
  0
LINE
  5
28A
100
AcDbEntity
  8
0
100
AcDbLine
 62
2
  6
CONTINUOUS
 10
75.4168559533
 20
102.0363901757
 11
94.5121866926
 21
102.0363901757
  0
INSERT
  5
28B
100
AcDbEntity
  8
0
100
AcDbBlockReference
 62
2
  6
CONTINUOUS
  2
_FILLED
 10
125.4168559533
 20
102.0363901757
 41
3.5
 42
3.5
 43
3.5
  0
INSERT
  5
28C
100
AcDbEntity
  8
0
100
AcDbBlockReference
 62
2
  6
CONTINUOUS
  2
_FILLED
 10
75.4168559533
 20
102.0363901757
 41
3.5
 42
3.5
 43
3.5
 50
180.0
  0
ENDBLK
  5
28D
100
AcDbEntity
  8
0
  6
BYBLOCK
 62
0
100
AcDbBlockEnd
  0
BLOCK
  5
28E
100
AcDbEntity
  8
0
100
AcDbBlockBegin
 62
2
  6
CONTINUOUS
  2
*D10
 70
65
 10
0.0
 20
0.0
  3
*D10
  1

  0
TEXT
  5
28F
100
AcDbEntity
  8
0
100
AcDbText
 62
2
  6
CONTINUOUS
 10
15.2468907412
 20
178.0099102845
  7
STANDARD
 40
2.5
  1
5,9
 72
5
 11
20.1009763444
 21
178.0099102845
100
AcDbText
  0
TEXT
  5
290
100
AcDbEntity
  8
0
100
AcDbText
 62
2
  6
CONTINUOUS
 10
20.1009763444
 20
178.0099102845
  7
STANDARD
 40
2.5
  1
mm
 72
5
 11
25.77218257
 21
178.0099102845
100
AcDbText
  0
TEXT
  5
291
100
AcDbEntity
  8
0
100
AcDbText
 62
2
  6
CONTINUOUS
 10
19.2352175895
 20
174.2599102845
  7
STANDARD
 40
2.5
  1
1/4"
 72
5
 11
25.77218257
 21
174.2599102845
100
AcDbText
  0
LINE
  5
292
100
AcDbEntity
  8
0
100
AcDbLine
 62
2
  6
CONTINUOUS
 10
38.8302441832
 20
172.6859882853
 11
38.8302441832
 21
180.7599102845
  0
LINE
  5
293
100
AcDbEntity
  8
0
100
AcDbLine
 62
2
  6
CONTINUOUS
 10
32.882609378
 20
172.6859882853
 11
32.882609378
 21
180.7599102845
  0
LINE
  5
294
100
AcDbEntity
  8
0
100
AcDbLine
 62
2
  6
CONTINUOUS
 10
38.8302441832
 20
179.2599102845
 11
43.8302441832
 21
179.2599102845
  0
LINE
  5
295
100
AcDbEntity
  8
0
100
AcDbLine
 62
2
  6
CONTINUOUS
 10
32.882609378
 20
179.2599102845
 11
27.02218257
 21
179.2599102845
  0
INSERT
  5
296
100
AcDbEntity
  8
0
100
AcDbBlockReference
 62
2
  6
CONTINUOUS
  2
_FILLED
 10
38.8302441832
 20
179.2599102845
 41
3.5
 42
3.5
 43
3.5
 50
180.0
  0
INSERT
  5
297
100
AcDbEntity
  8
0
100
AcDbBlockReference
 62
2
  6
CONTINUOUS
  2
_FILLED
 10
32.882609378
 20
179.2599102845
 41
3.5
 42
3.5
 43
3.5
  0
ENDBLK
  5
298
100
AcDbEntity
  8
0
  6
BYBLOCK
 62
0
100
AcDbBlockEnd
  0
BLOCK
  5
299
100
AcDbEntity
  8
0
100
AcDbBlockBegin
 62
2
  6
CONTINUOUS
  2
*D11
 70
65
 10
0.0
 20
0.0
  3
*D11
  1

  0
TEXT
  5
29A
100
AcDbEntity
  8
0
100
AcDbText
 62
2
  6
CONTINUOUS
 10
184.115613028
 20
178.5850001023
  7
STANDARD
 40
2.5
  1
9,9
 72
5
 11
188.9696986311
 21
178.5850001023
100
AcDbText
  0
TEXT
  5
29B
100
AcDbEntity
  8
0
100
AcDbText
 62
2
  6
CONTINUOUS
 10
188.9696986311
 20
178.5850001023
  7
STANDARD
 40
2.5
  1
mm
 72
5
 11
194.6409048568
 21
178.5850001023
100
AcDbText
  0
TEXT
  5
29C
100
AcDbEntity
  8
0
100
AcDbText
 62
2
  6
CONTINUOUS
 10
184.115613028
 20
174.8350001023
  7
STANDARD
 40
2.5
  1
3/8"
 72
5
 11
190.6525780085
 21
174.8350001023
100
AcDbText
  0
LINE
  5
29D
100
AcDbEntity
  8
0
100
AcDbLine
 62
2
  6
CONTINUOUS
 10
172.882609378
 20
172.6859882853
 11
172.882609378
 21
181.3350001023
  0
LINE
  5
29E
100
AcDbEntity
  8
0
100
AcDbLine
 62
2
  6
CONTINUOUS
 10
162.9349745727
 20
172.6859882853
 11
162.9349745727
 21
181.3350001023
  0
LINE
  5
29F
100
AcDbEntity
  8
0
100
AcDbLine
 62
2
  6
CONTINUOUS
 10
172.882609378
 20
179.8350001023
 11
182.865613028
 21
179.8350001023
  0
LINE
  5
2A0
100
AcDbEntity
  8
0
100
AcDbLine
 62
2
  6
CONTINUOUS
 10
162.9349745727
 20
179.8350001023
 11
157.9349745727
 21
179.8350001023
  0
INSERT
  5
2A1
100
AcDbEntity
  8
0
100
AcDbBlockReference
 62
2
  6
CONTINUOUS
  2
_FILLED
 10
172.882609378
 20
179.8350001023
 41
3.5
 42
3.5
 43
3.5
 50
180.0
  0
INSERT
  5
2A2
100
AcDbEntity
  8
0
100
AcDbBlockReference
 62
2
  6
CONTINUOUS
  2
_FILLED
 10
162.9349745727
 20
179.8350001023
 41
3.5
 42
3.5
 43
3.5
  0
ENDBLK
  5
2A3
100
AcDbEntity
  8
0
  6
BYBLOCK
 62
0
100
AcDbBlockEnd
  0
BLOCK
  5
2A4
100
AcDbEntity
  8
0
100
AcDbBlockBegin
 62
2
  6
CONTINUOUS
  2
*D12
 70
65
 10
0.0
 20
0.0
  3
*D12
  1

  0
TEXT
  5
2A5
100
AcDbEntity
  8
0
100
AcDbText
 62
2
  6
CONTINUOUS
 10
150.7039551965
 20
134.2580561135
  7
STANDARD
 40
2.5
  1
79
 72
5
 11
154.3420874922
 21
134.2580561135
100
AcDbText
  0
TEXT
  5
2A6
100
AcDbEntity
  8
0
100
AcDbText
 62
2
  6
CONTINUOUS
 10
154.3420874922
 20
134.2580561135
  7
STANDARD
 40
2.5
  1
mm
 72
5
 11
160.0132937179
 21
134.2580561135
100
AcDbText
  0
TEXT
  5
2A7
100
AcDbEntity
  8
0
100
AcDbText
 62
2
  6
CONTINUOUS
 10
150.5726322393
 20
130.5080561135
  7
STANDARD
 40
2.5
  1
3-1/8"
 72
5
 11
160.1446166751
 21
130.5080561135
100
AcDbText
  0
LINE
  5
2A8
100
AcDbEntity
  8
0
100
AcDbLine
 62
2
  6
CONTINUOUS
 10
173.6812945556
 20
171.0842391788
 11
180.2895289359
 21
166.1054324539
  0
LINE
  5
2A9
100
AcDbEntity
  8
0
100
AcDbLine
 62
2
  6
CONTINUOUS
 10
126.2155411309
 20
108.0842391788
 11
132.8237755113
 21
103.1054324539
  0
LINE
  5
2AA
100
AcDbEntity
  8
0
100
AcDbLine
 62
2
  6
CONTINUOUS
 10
179.0915011695
 20
167.0080561135
 11
157.242186101
 21
138.0080561135
  0
LINE
  5
2AB
100
AcDbEntity
  8
0
100
AcDbLine
 62
2
  6
CONTINUOUS
 10
131.6257477449
 20
104.0080561135
 11
150.6497203476
 21
129.2580561135
  0
INSERT
  5
2AC
100
AcDbEntity
  8
0
100
AcDbBlockReference
 62
2
  6
CONTINUOUS
  2
_FILLED
 10
179.0915011695
 20
167.0080561135
 41
3.5
 42
3.5
 43
3.5
 50
53.0047288573
  0
INSERT
  5
2AD
100
AcDbEntity
  8
0
100
AcDbBlockReference
 62
2
  6
CONTINUOUS
  2
_FILLED
 10
131.6257477449
 20
104.0080561135
 41
3.5
 42
3.5
 43
3.5
 50
233.0047288573
  0
ENDBLK
  5
2AE
100
AcDbEntity
  8
0
  6
BYBLOCK
 62
0
100
AcDbBlockEnd
  0
BLOCK
  5
2AF
100
AcDbEntity
  8
0
100
AcDbBlockBegin
  2
*T1
 70
1
 10
0.0
 20
0.0
  3
*T1
  1

  0
LINE
  5
2B0
100
AcDbEntity
  8
0
100
AcDbLine
 62
7
  6
CONTINUOUS
 10
0.0
 20
0.0
 11
148.0
 21
0.0
  0
LINE
  5
2B1
100
AcDbEntity
  8
0
100
AcDbLine
 62
7
  6
CONTINUOUS
 10
0.0
 20
0.0
 11
0.0
 21
-43.0
  0
LINE
  5
2B2
100
AcDbEntity
  8
0
100
AcDbLine
 62
7
  6
CONTINUOUS
 10
45.0
 20
-20.0
 11
148.0
 21
-20.0
  0
LINE
  5
2B3
100
AcDbEntity
  8
0
100
AcDbLine
 62
7
  6
CONTINUOUS
 10
45.0
 20
-28.0
 11
148.0
 21
-28.0
  0
LINE
  5
2B4
100
AcDbEntity
  8
0
100
AcDbLine
 62
7
  6
CONTINUOUS
 10
0.0
 20
-43.0
 11
148.0
 21
-43.0
  0
LINE
  5
2B5
100
AcDbEntity
  8
0
100
AcDbLine
 62
7
  6
CONTINUOUS
 10
45.0
 20
0.0
 11
45.0
 21
-43.0
  0
LINE
  5
2B6
100
AcDbEntity
  8
0
100
AcDbLine
 62
7
  6
CONTINUOUS
 10
143.0
 20
0.0
 11
143.0
 21
-20.0
  0
LINE
  5
2B7
100
AcDbEntity
  8
0
100
AcDbLine
 62
7
  6
CONTINUOUS
 10
148.0
 20
0.0
 11
148.0
 21
-43.0
  0
TEXT
  5
2B8
100
AcDbEntity
  8
0
100
AcDbText
 62
7
  6
CONTINUOUS
 10
8.9659749243
 20
-9.175
  7
STANDARD
 40
8.0
  1
O
 72
5
 11
17.370644185
 21
-9.175
100
AcDbText
  0
TEXT
  5
2B9
100
AcDbEntity
  8
0
100
AcDbText
 62
7
  6
CONTINUOUS
 10
17.370644185
 20
-9.175
  7
STANDARD
 40
5.5
  1
RAC
 72
5
 11
33.9562472979
 21
-9.175
100
AcDbText
  0
TEXT
  5
2BA
100
AcDbEntity
  8
0
100
AcDbText
 62
7
  6
CONTINUOUS
 10
33.9562472979
 20
-4.425
  7
TEXTSTYLE_2
 40
3.0
  1
®
 72
5
 11
36.0340250757
 21
-4.425
100
AcDbText
  0
TEXT
  5
2BB
100
AcDbEntity
  8
0
100
AcDbText
 62
7
  6
CONTINUOUS
 10
9.5323389537
 20
-13.825
  7
TEXTSTYLE_2
 40
3.0
  1
D  E  C  O  R
 72
5
 11
34.3878945093
 21
-13.825
100
AcDbText
  0
TEXT
  5
2BC
100
AcDbEntity
  8
0
100
AcDbText
 62
7
  6
CONTINUOUS
 10
34.3878945093
 20
-13.825
  7
STANDARD
 40
2.5
  1
 
 72
5
 11
35.4676610463
 21
-13.825
100
AcDbText
  0
TEXT
  5
2BD
100
AcDbEntity
  8
0
100
AcDbText
 62
7
  6
CONTINUOUS
 10
52.8786764706
 20
-4.6
  7
TEXTSTYLE_3
 40
2.7
  1
Part name:
 72
5
 11
71.9375
 21
-4.6
100
AcDbText
  0
TEXT
  5
2BE
100
AcDbEntity
  8
0
100
AcDbText
 62
7
  6
CONTINUOUS
 10
49.6908613445
 20
-11.35
  7
TEXTSTYLE_3
 40
2.7
  1
Designed by:
 72
5
 11
71.9375
 21
-11.35
100
AcDbText
  0
TEXT
  5
2BF
100
AcDbEntity
  8
0
100
AcDbText
 62
7
  6
CONTINUOUS
 10
49.3732142857
 20
-18.1
  7
TEXTSTYLE_3
 40
2.7
  1
Designed on:
 72
5
 11
71.9375
 21
-18.1
100
AcDbText
  0
TEXT
  5
2C0
100
AcDbEntity
  8
0
100
AcDbText
 62
2
  6
CONTINUOUS
 10
74.0625
 20
-4.6
  7
TEXTSTYLE_3
 40
2.7
  1
C358
 72
5
 11
82.7977941176
 21
-4.6
100
AcDbText
  0
TEXT
  5
2C1
100
AcDbEntity
  8
0
100
AcDbText
 62
2
  6
CONTINUOUS
 10
74.0625
 20
-11.35
  7
TEXTSTYLE_3
 40
2.7
  1
Jacques Vergracht
 72
5
 11
105.5209033613
 21
-11.35
100
AcDbText
  0
TEXT
  5
2C2
100
AcDbEntity
  8
0
100
AcDbText
 62
2
  6
CONTINUOUS
 10
74.0625
 20
-18.1
  7
TEXTSTYLE_3
 40
2.7
  1
19-Nov-2004
 72
5
 11
96.5133403361
 21
-18.1
100
AcDbText
  0
TEXT
  5
2C3
100
AcDbEntity
  8
0
100
AcDbText
 62
2
  6
CONTINUOUS
 10
96.5133403361
 20
-18.1
  7
TEXTSTYLE_3
 40
2.7
  1
 
 72
5
 11
97.4776260504
 21
-18.1
100
AcDbText
  0
TEXT
  5
2C4
100
AcDbEntity
  8
0
100
AcDbText
 62
2
  6
CONTINUOUS
 10
146.5625
 20
-16.0
  7
TEXTSTYLE_3
 40
1.5
  1
Version: 
 50
90.0
 72
5
 11
146.5625
 21
-7.5294117647
100
AcDbText
  0
TEXT
  5
2C5
100
AcDbEntity
  8
0
100
AcDbText
 62
2
  6
CONTINUOUS
 10
146.5625
 20
-7.5294117647
  7
TEXTSTYLE_3
 40
1.5
  1
1.0
 50
90.0
 72
5
 11
146.5625
 21
-4.5357142857
100
AcDbText
  0
TEXT
  5
2C6
100
AcDbEntity
  8
0
100
AcDbText
 62
2
  6
CONTINUOUS
 10
146.5625
 20
-4.5357142857
  7
TEXTSTYLE_3
 40
1.5
  1
 
 50
90.0
 72
5
 11
146.5625
 21
-4.0
100
AcDbText
  0
TEXT
  5
2C7
100
AcDbEntity
  8
0
100
AcDbText
 62
7
  6
CONTINUOUS
 10
9.6586134454
 20
-22.75
  7
TEXTSTYLE_3
 40
2.5
  1
Biekorfstraat 32
 72
5
 11
35.3413865546
 21
-22.75
100
AcDbText
  0
TEXT
  5
2C8
100
AcDbEntity
  8
0
100
AcDbText
 62
7
  6
CONTINUOUS
 10
2.2584033613
 20
-26.5
  7
TEXTSTYLE_3
 40
2.5
  1
8400 Oostende - Belgium
 72
5
 11
42.7415966387
 21
-26.5
100
AcDbText
  0
TEXT
  5
2C9
100
AcDbEntity
  8
0
100
AcDbText
 62
7
  6
CONTINUOUS
 10
4.2699579832
 20
-30.25
  7
TEXTSTYLE_3
 40
2.5
  1
Tel  +32 (0)59 80 32 52
 72
5
 11
40.7300420168
 21
-30.25
100
AcDbText
  0
TEXT
  5
2CA
100
AcDbEntity
  8
0
100
AcDbText
 62
7
  6
CONTINUOUS
 10
5.7405462185
 20
-34.0
  7
TEXTSTYLE_3
 40
2.5
  1
www.oracdecor.com
 72
5
 11
39.2594537815
 21
-34.0
100
AcDbText
  0
TEXT
  5
2CB
100
AcDbEntity
  8
0
100
AcDbText
 62
7
  6
CONTINUOUS
 10
5.5777310924
 20
-37.75
  7
TEXTSTYLE_3
 40
2.5
  1
info@oracdecor.com
 72
5
 11
39.4222689076
 21
-37.75
100
AcDbText
  0
TEXT
  5
2CC
100
AcDbEntity
  8
0
100
AcDbText
 62
7
  6
CONTINUOUS
 10
46.0625
 20
-23.375
  7
TEXTSTYLE_3
 40
2.5
  1
Unless otherwise specified: all dimensions are in millimeters 
 72
5
 11
143.4259453782
 21
-23.375
100
AcDbText
  0
TEXT
  5
2CD
100
AcDbEntity
  8
0
100
AcDbText
 62
7
  6
CONTINUOUS
 10
46.0625
 20
-27.125
  7
TEXTSTYLE_3
 40
2.5
  1
and inches, scale 1:1, length 2 meters
 72
5
 11
106.1675420168
 21
-27.125
100
AcDbText
  0
TEXT
  5
2CE
100
AcDbEntity
  8
0
100
AcDbText
 62
7
  6
CONTINUOUS
 10
46.0625
 20
-31.81
  7
TEXTSTYLE_3
 40
1.8
  1
All information in this document is Orac's exclusive property.  It may in no case 
 72
5
 11
137.5070378151
 21
-31.81
100
AcDbText
  0
TEXT
  5
2CF
100
AcDbEntity
  8
0
100
AcDbText
 62
7
  6
CONTINUOUS
 10
46.0625
 20
-34.87
  7
TEXTSTYLE_3
 40
1.8
  1
be reproduced, even partly, be communicated to a third party or used for any 
 72
5
 11
136.3272058824
 21
-34.87
100
AcDbText
  0
TEXT
  5
2D0
100
AcDbEntity
  8
0
100
AcDbText
 62
7
  6
CONTINUOUS
 10
46.0625
 20
-37.93
  7
TEXTSTYLE_3
 40
1.8
  1
possible purpose without ORAC's express written permission. Further legal 
 72
5
 11
132.7952731092
 21
-37.93
100
AcDbText
  0
TEXT
  5
2D1
100
AcDbEntity
  8
0
100
AcDbText
 62
7
  6
CONTINUOUS
 10
46.0625
 20
-40.99
  7
TEXTSTYLE_3
 40
1.8
  1
information can be found at https://www.oracdecor.com/en/general-sales-conditions
 72
5
 11
145.349894958
 21
-40.99
100
AcDbText
  0
ENDBLK
  5
2D2
100
AcDbEntity
  8
0
  6
BYBLOCK
 62
0
100
AcDbBlockEnd
  0
ENDSEC
  0
SECTION
  2
ENTITIES
  0
DIMENSION
  5
2D3
100
AcDbEntity
  8
0
100
AcDbDimension
 62
2
  6
CONTINUOUS
  2
*D0
 10
16.7408161243
 20
171.6859882853
 11
16.7408161243
 21
133.3109882853
 70
160
 71
2
 72
2
 41
0.9
 42
73.0
  1
<>mm\P2-7/8"
  3
DIMSTYLE_1
100
AcDbAlignedDimension
 13
42.882609378
 23
98.6859882853
 14
32.882609378
 24
171.6859882853
 50
90.0
100
AcDbRotatedDimension
  0
DIMENSION
  5
2D4
100
AcDbEntity
  8
0
100
AcDbDimension
 62
2
  6
CONTINUOUS
  2
*D1
 10
172.882609378
 20
186.0203172816
 11
102.882609378
 21
184.1453172816
 70
160
 71
2
 72
2
 41
0.9
 42
140.0
  1
<>mm\P5-1/2"
  3
DIMSTYLE_1
100
AcDbAlignedDimension
 13
32.882609378
 23
171.6859882853
 14
172.882609378
 24
171.6859882853
100
AcDbRotatedDimension
  0
DIMENSION
  5
2D5
100
AcDbEntity
  8
0
100
AcDbDimension
 62
2
  6
CONTINUOUS
  2
*D2
 10
54.5754915693
 20
60.4795834156
 11
124.655915863
 21
91.9601247253
 70
160
 71
2
 72
2
 41
0.9
 42
153.5219853962
  3
DIMSTYLE_1
100
AcDbAlignedDimension
 13
172.882609378
 23
171.6859882853
 14
32.882609378
 24
108.6859882853
 50
204.227745318
100
AcDbRotatedDimension
  0
DIMENSION
  5
2D6
100
AcDbEntity
  8
0
100
AcDbDimension
 62
2
  6
CONTINUOUS
  2
*D3
 10
152.6384441572
 20
172.8021832583
 11
135.3030879344
 21
147.9184377262
 70
160
 71
2
 72
2
 41
0.9
 42
57.6165582565
  1
<>mm\P2-1/4"
  3
DIMSTYLE_2
100
AcDbAlignedDimension
 13
123.4310450395
 23
122.6684972211
 14
158.1017574851
 24
168.6859882853
 50
53.0047288573
100
AcDbRotatedDimension
  0
DIMENSION
  5
2D7
100
AcDbEntity
  8
0
100
AcDbDimension
 62
2
  6
CONTINUOUS
  2
*D4
 10
115.4441932634
 20
125.2757872282
 11
93.4291577428
 21
123.4007872282
 70
160
 71
2
 72
2
 41
0.9
 42
44.0300710411
  1
<>mm\P1-3/4"
  3
DIMSTYLE_2
100
AcDbAlignedDimension
 13
71.4141222223
 23
118.6859882853
 14
115.4441932634
 24
118.6859882853
100
AcDbRotatedDimension
  0
DIMENSION
  5
2D8
100
AcDbEntity
  8
0
100
AcDbDimension
 62
2
  6
CONTINUOUS
  2
*D5
 10
53.4066733514
 20
168.6859882853
 11
53.4066733514
 21
144.2891719465
 70
160
 71
2
 72
2
 41
0.9
 42
45.0436326775
  1
<>mm\P1-3/4"
  3
DIMSTYLE_2
100
AcDbAlignedDimension
 13
43.2756992052
 23
123.6423556078
 14
42.882609378
 24
168.6859882853
 50
90.0
100
AcDbRotatedDimension
  0
DIMENSION
  5
2D9
100
AcDbEntity
  8
0
100
AcDbDimension
 62
2
  6
CONTINUOUS
  2
*D6
 10
24.9243199331
 20
108.6859882853
 11
24.9243199331
 21
103.8024824562
 70
160
 71
2
 72
2
 41
0.9
 42
10.0
  1
<>mm\P3/8"
  3
DIMSTYLE_1
100
AcDbAlignedDimension
 13
42.882609378
 23
98.6859882853
 14
32.882609378
 24
108.6859882853
 50
90.0
100
AcDbRotatedDimension
  0
DIMENSION
  5
2DA
100
AcDbEntity
  8
0
100
AcDbDimension
 62
2
  6
CONTINUOUS
  2
*D7
 10
42.882609378
 20
79.8910951014
 11
37.882609378
 21
78.0160951014
 70
160
 71
2
 72
2
 41
0.9
 42
10.0
  1
<>mm\P3/8"
  3
DIMSTYLE_1
100
AcDbAlignedDimension
 13
32.882609378
 23
108.6859882853
 14
42.882609378
 24
98.6859882853
100
AcDbRotatedDimension
  0
DIMENSION
  5
2DB
100
AcDbEntity
  8
0
100
AcDbDimension
 62
2
  6
CONTINUOUS
  2
*D8
 10
42.882609378
 20
79.8910951014
 11
55.382609378
 21
78.0160951014
 70
160
 71
2
 72
2
 41
0.9
 42
25.0
  1
<>mm\P1"
  3
DIMSTYLE_1
100
AcDbAlignedDimension
 13
67.882609378
 23
98.6859882853
 14
42.882609378
 24
98.6859882853
 50
180.0
100
AcDbRotatedDimension
  0
DIMENSION
  5
2DC
100
AcDbEntity
  8
0
100
AcDbDimension
 62
2
  6
CONTINUOUS
  2
*D9
 10
75.4168559533
 20
102.0363901757
 11
100.4168559533
 21
100.1613901757
 70
160
 71
2
 72
2
 41
0.9
 42
50.0
  1
<>mm\P2"
  3
DIMSTYLE_1
100
AcDbAlignedDimension
 13
125.4168559533
 23
108.6859882853
 14
75.4168559533
 24
108.6859882853
 50
180.0
100
AcDbRotatedDimension
  0
DIMENSION
  5
2DD
100
AcDbEntity
  8
0
100
AcDbDimension
 62
2
  6
CONTINUOUS
  2
*D10
 10
32.882609378
 20
179.2599102845
 11
20.5095366556
 21
177.3849102845
 70
160
 71
3
 72
2
 41
0.9
 42
5.9476348052
  1
<>mm\P1/4"
  3
DIMSTYLE_3
100
AcDbAlignedDimension
 13
38.8302441832
 23
171.6859882853
 14
32.882609378
 24
171.6859882853
 50
180.0
100
AcDbRotatedDimension
  0
DIMENSION
  5
2DE
100
AcDbEntity
  8
0
100
AcDbDimension
 62
2
  6
CONTINUOUS
  2
*D11
 10
162.9349745727
 20
179.8350001023
 11
189.3782589424
 21
177.9600001023
 70
160
 71
1
 72
2
 41
0.9
 42
9.9476348052
  1
<>mm\P3/8"
  3
DIMSTYLE_3
100
AcDbAlignedDimension
 13
172.882609378
 23
171.6859882853
 14
162.9349745727
 24
171.6859882853
 50
180.0
100
AcDbRotatedDimension
  0
DIMENSION
  5
2DF
100
AcDbEntity
  8
0
100
AcDbDimension
 62
2
  6
CONTINUOUS
  2
*D12
 10
131.6257477449
 20
104.0080561135
 11
155.3586244572
 21
133.6330561135
 70
160
 71
2
 72
2
 41
0.9
 42
78.8796408978
  1
<>mm\P3-1/8"
  3
DIMSTYLE_2
100
AcDbAlignedDimension
 13
172.882609378
 23
171.6859882853
 14
125.4168559533
 24
108.6859882853
 50
233.0047288573
100
AcDbRotatedDimension
  0
ACAD_TABLE
  5
2E0
100
AcDbEntity
  8
0
 62
2
  6
CONTINUOUS
100
AcDbBlockReference
  2
*T1
 10
144.0
 20
48.0
 30
0.0
100
AcDbTable
342
       362
343
21A
 11
1.0
 21
0.0
 31
0.0
 90
22
 91
4
 92
4
 93
0
 94
0
 95
0
 96
0
141
15.0
141
5.0
141
8.0
141
15.0
142
45.0
142
28.0
142
70.0
142
5.0
171
1
172
0
173
0
174
0
175
1
176
1
 91
41
178
0
145
0.0
301
CELL_VALUE
 90
4
  1
\A1;O\H5.5;RAC\fCG Triumvirate;\H3.0;\S®^ ;\PD  E  C  O  R\fCG Times;\H2.5; 
304
ACVALUE_END
170
5
140
8.0
 64
7
171
1
172
0
173
0
174
0
175
1
176
2
 91
57
178
0
145
0.0
  7
TEXTSTYLE_3
301
CELL_VALUE
 90
4
  1
Part name:\PDesigned by:\PDesigned on:
304
ACVALUE_END
170
6
140
2.7
 64
7
171
1
172
0
173
0
174
0
175
1
176
2
 91
49
178
0
145
0.0
  7
TEXTSTYLE_3
301
CELL_VALUE
 90
4
  1
C358\PJacques Vergracht\P19-Nov-2004 
304
ACVALUE_END
170
4
140
2.7
171
1
172
0
173
0
174
0
175
1
176
2
 91
49
178
0
145
0.0
  7
TEXTSTYLE_3
301
CELL_VALUE
 90
4
  1
Version: 1.0 
304
ACVALUE_END
170
6
140
1.5
171
1
172
0
173
0
174
0
175
1
176
3
 91
57
178
0
145
0.0
  7
TEXTSTYLE_3
301
CELL_VALUE
 90
4
  1
Biekorfstraat 32\P8400 Oostende - Belgium\PTel  +32 (0)59 80 32 52\Pwww.oracdecor.com\Pinfo@oracdecor.com
304
ACVALUE_END
170
5
140
2.5
 64
7
171
1
172
0
173
1
174
0
175
1
176
1
 91
1
178
0
145
0.0
170
1
171
1
172
0
173
1
174
0
175
1
176
1
 91
1
178
0
145
0.0
170
1
171
1
172
0
173
1
174
0
175
1
176
1
 91
1
178
0
145
0.0
170
1
171
1
172
0
173
1
174
0
175
1
176
1
 91
1
178
0
145
0.0
170
1
171
1
172
0
173
0
174
0
175
3
176
1
 91
57
178
0
145
0.0
  7
TEXTSTYLE_3
301
CELL_VALUE
 90
4
  1
Unless otherwise specified: all dimensions are in millimeters \Pand inches, scale 1:1, length 2 meters
304
ACVALUE_END
170
4
140
2.5
 64
7
171
1
172
0
173
1
174
0
175
1
176
1
 91
1
178
0
145
0.0
170
1
171
1
172
0
173
1
174
0
175
1
176
1
 91
1
178
0
145
0.0
170
1
171
1
172
0
173
1
174
0
175
1
176
1
 91
1
178
0
145
0.0
170
1
171
1
172
0
173
0
174
0
175
3
176
1
 91
57
178
0
145
0.0
  7
TEXTSTYLE_3
301
CELL_VALUE
 90
4
  2
All information in this document is Orac's exclusive property.  It may in no case \Pbe reproduced, even partly, be communicated to a third party or used for any \Ppossible purpose without ORAC's express written permission. Further legal \Pinformation
  1
 can be found at https://www.oracdecor.com/en/general-sales-conditions
304
ACVALUE_END
170
4
140
1.8
 64
7
171
1
172
0
173
1
174
0
175
1
176
1
 91
1
178
0
145
0.0
170
1
171
1
172
0
173
1
174
0
175
1
176
1
 91
1
178
0
145
0.0
170
1
  0
TEXT
  5
2E1
100
AcDbEntity
  8
0
100
AcDbText
 62
2
  6
CONTINUOUS
 10
218.8146193359
 20
52.5689695965
  7
STANDARD
 40
2.5
  1
SCALE  
 72
5
 11
232.6181212814
 21
52.5689695965
100
AcDbText
  0
TEXT
  5
2E2
100
AcDbEntity
  8
0
100
AcDbText
 62
2
  6
CONTINUOUS
 10
232.6181212814
 20
52.5689695965
  7
STANDARD
 40
2.5
  1
1:2
 72
5
 11
237.4722068845
 21
52.5689695965
100
AcDbText
  0
LINE
  5
2E3
100
AcDbEntity
  8
0
100
AcDbLine
 62
5
  6
CONTINUOUS
 10
0.0
 20
0.0
 11
0.0
 21
210.0
  0
LINE
  5
2E4
100
AcDbEntity
  8
0
100
AcDbLine
 62
7
  6
CONTINUOUS
 10
5.0
 20
5.0
 11
5.0
 21
195.0
  0
LINE
  5
2E5
100
AcDbEntity
  8
0
100
AcDbLine
 62
5
  6
CONTINUOUS
 10
0.0
 20
0.0
 11
297.0
 21
0.0
  0
LINE
  5
2E6
100
AcDbEntity
  8
0
100
AcDbLine
 62
7
  6
CONTINUOUS
 10
5.0
 20
5.0
 11
292.0
 21
5.0
  0
LINE
  5
2E7
100
AcDbEntity
  8
0
100
AcDbLine
 62
4
  6
CONTINUOUS
 10
148.5
 20
195.0
 11
148.5
 21
205.0
  0
LINE
  5
2E8
100
AcDbEntity
  8
0
100
AcDbLine
 62
7
  6
CONTINUOUS
 10
5.0
 20
195.0
 11
292.0
 21
195.0
  0
LINE
  5
2E9
100
AcDbEntity
  8
0
100
AcDbLine
 62
5
  6
CONTINUOUS
 10
0.0
 20
210.0
 11
297.0
 21
210.0
  0
LINE
  5
2EA
100
AcDbEntity
  8
0
100
AcDbLine
 62
7
  6
CONTINUOUS
 10
292.0
 20
5.0
 11
292.0
 21
195.0
  0
LINE
  5
2EB
100
AcDbEntity
  8
0
100
AcDbLine
 62
5
  6
CONTINUOUS
 10
297.0
 20
0.0
 11
297.0
 21
210.0
  0
LINE
  5
2EC
100
AcDbEntity
  8
0
100
AcDbLine
 62
7
  6
CONTINUOUS
 10
190.2323572973
 20
71.2241093739
 11
190.1506311634
 21
102.7228651521
  0
LINE
  5
2ED
100
AcDbEntity
  8
0
100
AcDbLine
 62
7
  6
CONTINUOUS
 10
193.1536001253
 20
101.2313342134
 11
193.1235338607
 21
102.7312015678
  0
LINE
  5
2EE
100
AcDbEntity
  8
0
100
AcDbLine
 62
7
  6
CONTINUOUS
 10
195.1632652434
 20
70.2554203654
 11
195.2437917682
 21
66.2383232238
  0
LINE
  5
2EF
100
AcDbEntity
  8
0
100
AcDbLine
 62
7
  6
CONTINUOUS
 10
195.4079018239
 20
78.7165649766
 11
195.1529849528
 21
101.2369407551
  0
LINE
  5
2F0
100
AcDbEntity
  8
0
100
AcDbLine
 62
7
  6
CONTINUOUS
 10
200.2672940214
 20
73.7085385052
 11
200.2556977472
 21
74.287023174
  0
LINE
  5
2F1
100
AcDbEntity
  8
DTM_AXIS
100
AcDbLine
 62
7
  6
CONTINUOUS
 10
201.4432362567
 20
73.8809315998
 11
201.4523164502
 21
73.3033073319
  0
LINE
  5
2F2
100
AcDbEntity
  8
DTM_AXIS
100
AcDbLine
 62
7
  6
CONTINUOUS
 10
201.9553539432
 20
73.8000851126
 11
201.9644341368
 21
73.2224608446
  0
LINE
  5
2F3
100
AcDbEntity
  8
0
100
AcDbLine
 62
7
  6
CONTINUOUS
 10
195.2437917682
 20
66.2383232238
 11
219.9084742479
 21
57.8039695965
  0
LINE
  5
2F4
100
AcDbEntity
  8
0
100
AcDbLine
 62
7
  6
CONTINUOUS
 10
232.4046294198
 20
57.8390104823
 11
219.9084742479
 21
57.8039695965
  0
LINE
  5
2F5
100
AcDbEntity
  8
0
100
AcDbLine
 62
7
  6
CONTINUOUS
 10
190.2323572973
 20
71.2241093739
 11
195.177747245
 21
69.5329800566
  0
LINE
  5
2F6
100
AcDbEntity
  8
0
100
AcDbLine
 62
7
  6
CONTINUOUS
 10
207.7399469401
 20
66.2733641095
 11
232.4046294198
 21
57.8390104823
  0
LINE
  5
2F7
100
AcDbEntity
  8
0
100
AcDbLine
 62
7
  6
CONTINUOUS
 10
194.1611758871
 20
71.2351263053
 11
194.7774724722
 21
71.0243770551
  0
LINE
  5
2F8
100
AcDbEntity
  8
0
100
AcDbLine
 62
7
  6
CONTINUOUS
 10
217.8043692021
 20
93.4910561258
 11
217.7882163404
 21
94.2968479405
  0
LINE
  5
2F9
100
AcDbEntity
  8
0
100
AcDbLine
 62
7
  6
CONTINUOUS
 10
220.0043824821
 20
76.3074329842
 11
219.8176674325
 21
92.8025871278
  0
LINE
  5
2FA
100
AcDbEntity
  8
0
100
AcDbLine
 62
7
  6
CONTINUOUS
 10
206.2739862433
 20
72.6629254525
 11
208.6818091766
 21
75.8774449181
  0
LINE
  5
2FB
100
AcDbEntity
  8
0
100
AcDbLine
 62
7
  6
CONTINUOUS
 10
261.1499319337
 20
62.9194550252
 11
236.1576215899
 21
62.8493732537
  0
LINE
  5
2FC
100
AcDbEntity
  8
0
100
AcDbLine
 62
7
  6
CONTINUOUS
 10
200.2672940214
 20
73.7085385052
 11
201.4523164502
 21
73.3033073319
  0
LINE
  5
2FD
100
AcDbEntity
  8
0
100
AcDbLine
 62
7
  6
CONTINUOUS
 10
200.2556977472
 20
74.287023174
 11
201.4432362567
 21
73.8809315998
  0
LINE
  5
2FE
100
AcDbEntity
  8
0
100
AcDbLine
 62
7
  6
CONTINUOUS
 10
211.4929391102
 20
71.283726881
 11
207.7399469401
 21
66.2733641095
  0
LINE
  5
2FF
100
AcDbEntity
  8
0
100
AcDbLine
 62
7
  6
CONTINUOUS
 10
207.7399469401
 20
66.2733641095
 11
195.2437917682
 21
66.2383232238
  0
LINE
  5
300
100
AcDbEntity
  8
0
100
AcDbLine
 62
7
  6
CONTINUOUS
 10
211.4929391102
 20
71.283726881
 11
236.1576215899
 21
62.8493732537
  0
LINE
  5
301
100
AcDbEntity
  8
DTM_AXIS
100
AcDbLine
 62
7
  6
CONTINUOUS
 10
198.9038385444
 20
76.1389257548
 11
200.1014644499
 21
75.729384687
  0
LINE
  5
302
100
AcDbEntity
  8
0
100
AcDbLine
 62
7
  6
CONTINUOUS
 10
195.4079018239
 20
78.7165649766
 11
203.8145746848
 21
75.841812715
  0
LINE
  5
303
100
AcDbEntity
  8
0
100
AcDbLine
 62
7
  6
CONTINUOUS
 10
236.485249454
 20
71.3538086525
 11
211.4929391102
 21
71.283726881
  0
LINE
  5
304
100
AcDbEntity
  8
0
100
AcDbLine
 62
7
  6
CONTINUOUS
 10
190.2323572973
 20
71.2241093739
 11
194.1611758871
 21
71.2351263053
  0
LINE
  5
305
100
AcDbEntity
  8
0
100
AcDbLine
 62
7
  6
CONTINUOUS
 10
202.7725174121
 20
71.2592736554
 11
203.4830643372
 21
71.2612661238
  0
LINE
  5
306
100
AcDbEntity
  8
0
100
AcDbLine
 62
7
  6
CONTINUOUS
 10
236.485249454
 20
71.3538086525
 11
261.1499319337
 21
62.9194550252
  0
LINE
  5
307
100
AcDbEntity
  8
DTM_AXIS
100
AcDbLine
 62
7
  6
CONTINUOUS
 10
201.3159142168
 20
75.4258126229
 11
208.3583078363
 21
75.4455604381
  0
LINE
  5
308
100
AcDbEntity
  8
DTM_AXIS
100
AcDbLine
 62
7
  6
CONTINUOUS
 10
201.3268823997
 20
75.8348368941
 11
208.6653076177
 21
75.8554148171
  0
LINE
  5
309
100
AcDbEntity
  8
0
100
AcDbLine
 62
7
  6
CONTINUOUS
 10
197.9134672942
 20
76.2454871117
 11
198.2515190347
 21
76.2464350538
  0
LINE
  5
30A
100
AcDbEntity
  8
0
100
AcDbLine
 62
7
  6
CONTINUOUS
 10
209.4792154354
 20
76.277919012
 11
231.4874794338
 21
76.3396331196
  0
LINE
  5
30B
100
AcDbEntity
  8
DTM_AXIS
100
AcDbLine
 62
7
  6
CONTINUOUS
 10
201.2998934787
 20
75.8347629703
 11
200.4153547205
 21
75.8341031287
  0
LINE
  5
30C
100
AcDbEntity
  8
DTM_AXIS
100
AcDbLine
 62
7
  6
CONTINUOUS
 10
200.4153547205
 20
75.8341031287
 11
199.791229961
 21
75.8354727093
  0
LINE
  5
30D
100
AcDbEntity
  8
0
100
AcDbLine
 62
7
  6
CONTINUOUS
 10
235.4745107282
 20
78.3420035892
 11
252.7448390935
 21
101.3984359954
  0
LINE
  5
30E
100
AcDbEntity
  8
0
100
AcDbLine
 62
7
  6
CONTINUOUS
 10
260.1291001259
 20
102.9190941125
 11
236.485249454
 21
71.3538086525
  0
LINE
  5
30F
100
AcDbEntity
  8
0
100
AcDbLine
 62
7
  6
CONTINUOUS
 10
195.1529849528
 20
101.2369407551
 11
219.8176674325
 21
92.8025871278
  0
LINE
  5
310
100
AcDbEntity
  8
0
100
AcDbLine
 62
7
  6
CONTINUOUS
 10
217.7882163404
 20
94.2968479405
 11
193.1235338607
 21
102.7312015678
  0
LINE
  5
311
100
AcDbEntity
  8
0
100
AcDbLine
 62
7
  6
CONTINUOUS
 10
236.1576215899
 20
62.8493732537
 11
232.4046294198
 21
57.8390104823
  0
LINE
  5
312
100
AcDbEntity
  8
0
100
AcDbLine
 62
7
  6
CONTINUOUS
 10
255.1345297778
 20
101.4051370068
 11
255.1568126011
 21
102.9051511551
  0
LINE
  5
313
100
AcDbEntity
  8
0
100
AcDbLine
 62
7
  6
CONTINUOUS
 10
193.1536001253
 20
101.2313342134
 11
195.1529849528
 21
101.2369407551
  0
LINE
  5
314
100
AcDbEntity
  8
0
100
AcDbLine
 62
7
  6
CONTINUOUS
 10
252.7448390935
 20
101.3984359954
 11
255.1345297778
 21
101.4051370068
  0
LINE
  5
315
100
AcDbEntity
  8
0
100
AcDbLine
 62
7
  6
CONTINUOUS
 10
260.1291001259
 20
102.9190941125
 11
255.1568126011
 21
102.9051511551
  0
LINE
  5
316
100
AcDbEntity
  8
0
100
AcDbLine
 62
7
  6
CONTINUOUS
 10
193.1235338607
 20
102.7312015678
 11
190.1506311634
 21
102.7228651521
  0
LINE
  5
317
100
AcDbEntity
  8
0
100
AcDbLine
 62
7
  6
CONTINUOUS
 10
284.7937826056
 20
94.4847404852
 11
261.1499319337
 21
62.9194550252
  0
LINE
  5
318
100
AcDbEntity
  8
0
100
AcDbLine
 62
7
  6
CONTINUOUS
 10
284.7937826056
 20
94.4847404852
 11
260.1291001259
 21
102.9190941125
  0
LINE
  5
319
100
AcDbEntity
  8
0
100
AcDbLine
 62
7
  6
CONTINUOUS
 10
32.882609378
 20
108.6859882853
 11
32.882609378
 21
171.6859882853
  0
LINE
  5
31A
100
AcDbEntity
  8
0
100
AcDbLine
 62
7
  6
CONTINUOUS
 10
38.882609378
 20
168.6859882853
 11
38.8302441832
 21
171.6859882853
  0
LINE
  5
31B
100
AcDbEntity
  8
0
100
AcDbLine
 62
7
  6
CONTINUOUS
 10
42.7423595928
 20
106.7208930981
 11
42.882609378
 21
98.6859882853
  0
LINE
  5
31C
100
AcDbEntity
  8
0
100
AcDbLine
 62
7
  6
CONTINUOUS
 10
43.2756992052
 20
123.6423556078
 11
42.882609378
 21
168.6859882853
  0
LINE
  5
31D
100
AcDbEntity
  8
0
100
AcDbLine
 62
7
  6
CONTINUOUS
 10
52.971407867
 20
113.5987262531
 11
52.9512111061
 21
114.755797911
  0
LINE
  5
31E
100
AcDbEntity
  8
DTM_AXIS
100
AcDbLine
 62
7
  6
CONTINUOUS
 10
53.9510588013
 20
114.5996021398
 11
53.9712555622
 21
113.4425304818
  0
LINE
  5
31F
100
AcDbEntity
  8
DTM_AXIS
100
AcDbLine
 62
7
  6
CONTINUOUS
 10
52.6660641389
 20
118.6859882853
 11
52.6660641474
 21
117.8596364534
  0
LINE
  5
320
100
AcDbEntity
  8
DTM_AXIS
100
AcDbLine
 62
7
  6
CONTINUOUS
 10
57.9706463428
 20
108.6859882853
 11
57.9706463428
 21
109.5123401076
  0
LINE
  5
321
100
AcDbEntity
  8
DTM_AXIS
100
AcDbLine
 62
7
  6
CONTINUOUS
 10
59.3921774365
 20
108.6859882853
 11
59.3921774365
 21
109.5123401076
  0
LINE
  5
322
100
AcDbEntity
  8
0
100
AcDbLine
 62
7
  6
CONTINUOUS
 10
67.882609378
 20
98.6859882853
 11
42.882609378
 21
98.6859882853
  0
LINE
  5
323
100
AcDbEntity
  8
DTM_AXIS
100
AcDbLine
 62
7
  6
CONTINUOUS
 10
68.6730351413
 20
118.6859882853
 11
68.6730351413
 21
117.8596364629
  0
LINE
  5
324
100
AcDbEntity
  8
0
100
AcDbLine
 62
7
  6
CONTINUOUS
 10
125.4168559533
 20
108.6859882853
 11
75.4168559533
 21
108.6859882853
  0
LINE
  5
325
100
AcDbEntity
  8
0
100
AcDbLine
 62
7
  6
CONTINUOUS
 10
32.882609378
 20
108.6859882853
 11
40.7426642024
 21
108.6859882853
  0
LINE
  5
326
100
AcDbEntity
  8
0
100
AcDbLine
 62
7
  6
CONTINUOUS
 10
57.9706463428
 20
108.6859882853
 11
59.3921774365
 21
108.6859882853
  0
LINE
  5
327
100
AcDbEntity
  8
DTM_AXIS
100
AcDbLine
 62
7
  6
CONTINUOUS
 10
57.9706463428
 20
109.5123401076
 11
59.3921774365
 21
109.5123401076
  0
LINE
  5
328
100
AcDbEntity
  8
DTM_AXIS
100
AcDbLine
 62
7
  6
CONTINUOUS
 10
64.1842885021
 20
111.9018454691
 11
68.6730351413
 21
117.8596364629
  0
LINE
  5
329
100
AcDbEntity
  8
0
100
AcDbLine
 62
7
  6
CONTINUOUS
 10
64.9829736797
 20
111.4737445403
 11
69.8167518671
 21
117.8894864981
  0
LINE
  5
32A
100
AcDbEntity
  8
DTM_AXIS
100
AcDbLine
 62
7
  6
CONTINUOUS
 10
52.6660641481
 20
117.8596364534
 11
68.6730351413
 21
117.8596364629
  0
LINE
  5
32B
100
AcDbEntity
  8
0
100
AcDbLine
 62
7
  6
CONTINUOUS
 10
48.2755088205
 20
118.6859882853
 11
48.9518203255
 21
118.6859882853
  0
LINE
  5
32C
100
AcDbEntity
  8
DTM_AXIS
100
AcDbLine
 62
7
  6
CONTINUOUS
 10
48.9518203255
 20
118.6859882853
 11
71.4141222223
 21
118.6859882853
  0
LINE
  5
32D
100
AcDbEntity
  8
0
100
AcDbLine
 62
7
  6
CONTINUOUS
 10
71.4141222223
 20
118.6859882853
 11
115.4441932634
 21
118.6859882853
  0
LINE
  5
32E
100
AcDbEntity
  8
0
100
AcDbLine
 62
7
  6
CONTINUOUS
 10
75.4168559533
 20
108.6859882853
 11
67.882609378
 21
98.6859882853
  0
LINE
  5
32F
100
AcDbEntity
  8
0
100
AcDbLine
 62
7
  6
CONTINUOUS
 10
123.4310450395
 20
122.6684972211
 11
158.1017574851
 21
168.6859882853
  0
LINE
  5
330
100
AcDbEntity
  8
0
100
AcDbLine
 62
7
  6
CONTINUOUS
 10
172.882609378
 20
171.6859882853
 11
125.4168559533
 21
108.6859882853
  0
LINE
  5
331
100
AcDbEntity
  8
0
100
AcDbLine
 62
7
  6
CONTINUOUS
 10
38.882609378
 20
168.6859882853
 11
42.882609378
 21
168.6859882853
  0
LINE
  5
332
100
AcDbEntity
  8
0
100
AcDbLine
 62
7
  6
CONTINUOUS
 10
158.1017574851
 20
168.6859882853
 11
162.882609378
 21
168.6859882853
  0
LINE
  5
333
100
AcDbEntity
  8
0
100
AcDbLine
 62
7
  6
CONTINUOUS
 10
172.882609378
 20
171.6859882853
 11
162.9349745727
 21
171.6859882853
  0
LINE
  5
334
100
AcDbEntity
  8
0
100
AcDbLine
 62
7
  6
CONTINUOUS
 10
38.8302441832
 20
171.6859882853
 11
32.882609378
 21
171.6859882853
  0
LINE
  5
335
100
AcDbEntity
  8
0
100
AcDbLine
 62
7
  6
CONTINUOUS
 10
162.882609378
 20
168.6859882853
 11
162.9349745727
 21
171.6859882853
  0
ARC
  5
336
100
AcDbEntity
  8
DTM_AXIS
100
AcDbCircle
 62
7
  6
CONTINUOUS
 10
200.6674771158
 20
338.9740778857
 40
263.1400929314
100
AcDbArc
 50
269.8092233489
 51
270.1377103195
  0
ARC
  5
337
100
AcDbEntity
  8
0
100
AcDbCircle
 62
7
  6
CONTINUOUS
 10
231.4730937416
 20
81.3388004727
 40
4.9992004678
100
AcDbArc
 50
270.1648748906
 51
323.1692150053
  0
ARC
  5
338
100
AcDbEntity
  8
DTM_AXIS
100
AcDbCircle
 62
7
  6
CONTINUOUS
 10
199.3370986041
 20
71.616329278
 40
4.2280597395
100
AcDbArc
 50
78.5843636311
 51
80.733784589
  0
ARC
  5
339
100
AcDbEntity
  8
DTM_AXIS
100
AcDbCircle
 62
7
  6
CONTINUOUS
 10
199.3997513696
 20
71.9990006887
 40
3.8402934105
100
AcDbArc
 50
80.7370180463
 51
83.0934375515
  0
ARC
  5
33A
100
AcDbEntity
  8
0
100
AcDbCircle
 62
7
  6
CONTINUOUS
 10
203.472996231
 20
74.7606795312
 40
3.4994365823
100
AcDbArc
 50
270.1648443131
 51
323.1692455794
  0
ARC
  5
33B
100
AcDbEntity
  8
0
100
AcDbCircle
 62
7
  6
CONTINUOUS
 10
197.9064714976
 20
78.7439732285
 40
2.498495911
100
AcDbArc
 50
180.6413022348
 51
270.1604285776
  0
ARC
  5
33C
100
AcDbEntity
  8
0
100
AcDbCircle
 62
7
  6
CONTINUOUS
 10
202.765520892
 20
73.7577548003
 40
2.498490941
100
AcDbArc
 50
181.1412692692
 51
270.160445488
  0
ARC
  5
33D
100
AcDbEntity
  8
DTM_AXIS
100
AcDbCircle
 62
7
  6
CONTINUOUS
 10
203.9376531811
 20
73.3433525159
 40
2.4856254315
100
AcDbArc
 50
180.9231028873
 51
236.6447075024
  0
ARC
  5
33E
100
AcDbEntity
  8
DTM_AXIS
100
AcDbCircle
 62
7
  6
CONTINUOUS
 10
199.4722613649
 20
73.7620396912
 40
2.4833840232
100
AcDbArc
 50
0.8778051764
 51
42.0641321604
  0
ARC
  5
33F
100
AcDbEntity
  8
DTM_AXIS
100
AcDbCircle
 62
7
  6
CONTINUOUS
 10
203.9543619515
 20
73.2650393714
 40
1.9990752298
100
AcDbArc
 50
258.9867620986
 51
264.7534751654
  0
ARC
  5
340
100
AcDbEntity
  8
0
100
AcDbCircle
 62
7
  6
CONTINUOUS
 10
198.257108119
 20
74.2475975611
 40
1.9988453067
100
AcDbArc
 50
1.1413346157
 51
90.1602081774
  0
ARC
  5
341
100
AcDbEntity
  8
DTM_AXIS
100
AcDbCircle
 62
7
  6
CONTINUOUS
 10
203.9538756551
 20
73.2620828836
 40
1.9960802934
100
AcDbArc
 50
257.3142932647
 51
258.984251786
  0
ARC
  5
342
100
AcDbEntity
  8
DTM_AXIS
100
AcDbCircle
 62
7
  6
CONTINUOUS
 10
203.9504402185
 20
73.2527883523
 40
1.9862384669
100
AcDbArc
 50
180.8748730252
 51
257.3520951918
  0
ARC
  5
343
100
AcDbEntity
  8
DTM_AXIS
100
AcDbCircle
 62
7
  6
CONTINUOUS
 10
199.4608431017
 20
73.8531668098
 40
1.9825707906
100
AcDbArc
 50
0.8024146381
 51
71.1479427384
  0
ARC
  5
344
100
AcDbEntity
  8
0
100
AcDbCircle
 62
7
  6
CONTINUOUS
 10
194.1628468721
 20
70.2289094538
 40
1.0062182389
100
AcDbArc
 50
71.1861662588
 51
90.0951487737
  0
ARC
  5
345
100
AcDbEntity
  8
0
100
AcDbCircle
 62
7
  6
CONTINUOUS
 10
209.4820893567
 20
75.2780795476
 40
0.9998435948
100
AcDbArc
 50
90.1646895429
 51
143.1688295699
  0
ARC
  5
346
100
AcDbEntity
  8
0
100
AcDbCircle
 62
7
  6
CONTINUOUS
 10
194.1637815948
 20
70.2355088531
 40
0.9996760946
100
AcDbArc
 50
1.1412840315
 51
71.1148962471
  0
ARC
  5
347
100
AcDbEntity
  8
0
100
AcDbCircle
 62
7
  6
CONTINUOUS
 10
115.4441932634
 20
128.6859882853
 40
10.0
100
AcDbArc
 50
270.0
 51
323.0047288573
  0
ARC
  5
348
100
AcDbEntity
  8
0
100
AcDbCircle
 62
7
  6
CONTINUOUS
 10
59.3921774365
 20
115.6859882853
 40
7.0
100
AcDbArc
 50
270.0
 51
323.0047288573
  0
ARC
  5
349
100
AcDbEntity
  8
DTM_AXIS
100
AcDbCircle
 62
7
  6
CONTINUOUS
 10
59.3921774326
 20
115.5123401154
 40
6.0000000078
100
AcDbArc
 50
270.0000000371
 51
323.0047288202
  0
ARC
  5
34A
100
AcDbEntity
  8
DTM_AXIS
100
AcDbCircle
 62
7
  6
CONTINUOUS
 10
48.9518200753
 20
114.512340009
 40
5.0000002519
100
AcDbArc
 50
1.0000010792
 51
42.0253435662
  0
ARC
  5
34B
100
AcDbEntity
  8
0
100
AcDbCircle
 62
7
  6
CONTINUOUS
 10
57.9706463428
 20
113.6859882853
 40
5.0
100
AcDbArc
 50
181.0
 51
270.0
  0
ARC
  5
34C
100
AcDbEntity
  8
0
100
AcDbCircle
 62
7
  6
CONTINUOUS
 10
48.2755088205
 20
123.6859882853
 40
5.0
100
AcDbArc
 50
180.5
 51
270.0
  0
ARC
  5
34D
100
AcDbEntity
  8
DTM_AXIS
100
AcDbCircle
 62
7
  6
CONTINUOUS
 10
57.9706463552
 20
113.5123401202
 40
4.0000000126
100
AcDbArc
 50
181.0000001769
 51
269.9999998231
  0
ARC
  5
34E
100
AcDbEntity
  8
0
100
AcDbCircle
 62
7
  6
CONTINUOUS
 10
48.9518203255
 20
114.6859882853
 40
4.0
100
AcDbArc
 50
1.0
 51
90.0
  0
ARC
  5
34F
100
AcDbEntity
  8
0
100
AcDbCircle
 62
7
  6
CONTINUOUS
 10
40.7426642024
 20
106.6859882853
 40
2.0
100
AcDbArc
 50
1.0
 51
90.0
  0
ARC
  5
350
100
AcDbEntity
  8
0
100
AcDbCircle
 62
7
  6
CONTINUOUS
 10
71.4141222223
 20
116.6859882853
 40
2.0
100
AcDbArc
 50
90.0
 51
143.0047288573
  0
LINE
  5
351
100
AcDbEntity
  8
DTM_AXIS
100
AcDbLine
 62
7
  6
CONTINUOUS
 10
201.2999333229
 20
75.8347450085
 11
201.3269872207
 21
75.8348191103
  0
SPLINE
  5
352
100
AcDbEntity
  8
DTM_AXIS
100
AcDbSpline
 62
7
  6
CONTINUOUS
 70
0
 71
3
 72
9
 73
5
 74
0
 42
0.0000001
 43
0.0000001
 44
0.0000000001
 40
0.0
 40
0.0
 40
0.0
 40
0.0
 40
0.2475630147
 40
1.0
 40
1.0
 40
1.0
 40
1.0
 10
200.173936715
 20
75.7607461413
 30
0.0
 10
200.2702570557
 20
75.7413311652
 30
0.0
 10
200.6568009683
 20
75.6499389148
 30
0.0
 10
201.0328558549
 20
75.5210218405
 30
0.0
 10
201.3159142207
 20
75.4258126182
 30
0.0
  0
SPLINE
  5
353
100
AcDbEntity
  8
DTM_AXIS
100
AcDbSpline
 62
7
  6
CONTINUOUS
 70
0
 71
3
 72
11
 73
7
 74
0
 42
0.0000001
 43
0.0000001
 44
0.0000000001
 40
0.0
 40
0.0
 40
0.0
 40
0.0
 40
0.0687890613
 40
0.2585448969
 40
0.5700530523
 40
1.0
 40
1.0
 40
1.0
 40
1.0
 10
201.3268823998
 20
75.8348368899
 30
0.0
 10
201.3257700242
 20
75.8348337015
 30
0.0
 10
201.3253696929
 20
75.8287330086
 30
0.0
 10
201.3237255686
 20
75.8214353993
 30
0.0
 10
201.3228487154
 20
75.8053652934
 30
0.0
 10
201.322090093
 20
75.7937360311
 30
0.0
 10
201.3217479275
 20
75.7867918322
 30
0.0
  0
SPLINE
  5
354
100
AcDbEntity
  8
DTM_AXIS
100
AcDbSpline
 62
7
  6
CONTINUOUS
 70
0
 71
3
 72
9
 73
5
 74
0
 42
0.0000001
 43
0.0000001
 44
0.0000000001
 40
0.0
 40
0.0
 40
0.0
 40
0.0
 40
0.4073650616
 40
1.0
 40
1.0
 40
1.0
 40
1.0
 10
201.3217479275
 20
75.7867918322
 30
0.0
 10
201.3193351955
 20
75.7378257973
 30
0.0
 10
201.3170098286
 20
75.6174709619
 30
0.0
 10
201.3160395469
 20
75.4971347538
 30
0.0
 10
201.3159142165
 20
75.4258126229
 30
0.0
  0
SPLINE
  5
355
100
AcDbEntity
  8
DTM_AXIS
100
AcDbSpline
 62
7
  6
CONTINUOUS
 70
0
 71
3
 72
12
 73
8
 74
0
 42
0.0000001
 43
0.0000001
 44
0.0000000001
 40
0.0
 40
0.0
 40
0.0
 40
0.0
 40
0.0403901459
 40
0.1065649614
 40
0.3251012866
 40
0.6375953193
 40
1.0
 40
1.0
 40
1.0
 40
1.0
 10
201.4432362567
 20
73.8809315998
 30
0.0
 10
201.4443120831
 20
73.873885106
 30
0.0
 10
201.4585412773
 20
73.8586046752
 30
0.0
 10
201.5105972772
 20
73.8356685619
 30
0.0
 10
201.615366951
 20
73.8146145924
 30
0.0
 10
201.7720393329
 20
73.8005095012
 30
0.0
 10
201.8914083443
 20
73.7988246403
 30
0.0
 10
201.9553539432
 20
73.8000851126
 30
0.0
  0
SPLINE
  5
356
100
AcDbEntity
  8
DTM_AXIS
100
AcDbSpline
 62
7
  6
CONTINUOUS
 70
0
 71
3
 72
12
 73
8
 74
0
 42
0.0000001
 43
0.0000001
 44
0.0000000001
 40
0.0
 40
0.0
 40
0.0
 40
0.0
 40
0.0403901459
 40
0.1065649614
 40
0.3251012866
 40
0.6375953193
 40
1.0
 40
1.0
 40
1.0
 40
1.0
 10
201.4523164502
 20
73.3033073319
 30
0.0
 10
201.4533922766
 20
73.2962608381
 30
0.0
 10
201.4676214708
 20
73.2809804072
 30
0.0
 10
201.5196774708
 20
73.2580442939
 30
0.0
 10
201.6244471446
 20
73.2369903244
 30
0.0
 10
201.7811195265
 20
73.2228852332
 30
0.0
 10
201.9004885379
 20
73.2212003724
 30
0.0
 10
201.9644341368
 20
73.2224608446
 30
0.0
  0
SPLINE
  5
357
100
AcDbEntity
  8
DTM_AXIS
100
AcDbSpline
 62
7
  6
CONTINUOUS
 70
0
 71
3
 72
13
 73
9
 74
0
 42
0.0000001
 43
0.0000001
 44
0.0000000001
 40
0.0
 40
0.0
 40
0.0
 40
0.0
 40
0.0740424663
 40
0.1570505528
 40
0.2549769879
 40
0.3705450633
 40
0.65479005
 40
1.0
 40
1.0
 40
1.0
 40
1.0
 10
69.6881254472
 20
118.6859882853
 30
0.0
 10
69.6702106234
 20
118.6859882853
 30
0.0
 10
69.6319405005
 20
118.6779022955
 30
0.0
 10
69.5791380858
 20
118.6442853504
 30
0.0
 10
69.5298206961
 20
118.5914577893
 30
0.0
 10
69.4645177906
 20
118.4897339843
 30
0.0
 10
69.3990302538
 20
118.3201918639
 30
0.0
 10
69.3663716102
 20
118.1710749057
 30
0.0
 10
69.3530960806
 20
118.0886119612
 30
0.0
  0
SPLINE
  5
358
100
AcDbEntity
  8
DTM_AXIS
100
AcDbSpline
 62
7
  6
CONTINUOUS
 70
0
 71
3
 72
11
 73
7
 74
0
 42
0.0000001
 43
0.0000001
 44
0.0000000001
 40
0.0
 40
0.0
 40
0.0
 40
0.0
 40
0.2452780587
 40
0.493497965
 40
0.7452013436
 40
1.0
 40
1.0
 40
1.0
 40
1.0
 10
48.9518203255
 20
118.6859882765
 30
0.0
 10
49.2643644825
 20
118.6859888944
 30
0.0
 10
49.893917568
 20
118.6392199615
 30
0.0
 10
50.8259434398
 20
118.4485458631
 30
0.0
 10
51.7479085296
 20
118.1727202241
 30
0.0
 10
52.3586116664
 20
117.963978633
 30
0.0
 10
52.666064156
 20
117.859636444
 30
0.0
  0
SPLINE
  5
359
100
AcDbEntity
  8
DTM_AXIS
100
AcDbSpline
 62
7
  6
CONTINUOUS
 70
0
 71
3
 72
15
 73
11
 74
0
 42
0.0000001
 43
0.0000001
 44
0.0000000001
 40
0.0
 40
0.0
 40
0.0
 40
0.0
 40
0.0375157732
 40
0.065443694
 40
0.1008092206
 40
0.1943090774
 40
0.3166390003
 40
0.4639685672
 40
0.6311331457
 40
1.0
 40
1.0
 40
1.0
 40
1.0
 10
52.9512111061
 20
114.755797911
 30
0.0
 10
52.951437115
 20
114.742849872
 30
0.0
 10
52.9676978882
 20
114.7224378084
 30
0.0
 10
52.9967721461
 20
114.7045055172
 30
0.0
 10
53.046450135
 20
114.681959845
 30
0.0
 10
53.1300967576
 20
114.6585583349
 30
0.0
 10
53.2534399135
 20
114.635514528
 30
0.0
 10
53.403215812
 20
114.6174409347
 30
0.0
 10
53.6385220266
 20
114.6001399702
 30
0.0
 10
53.8237484666
 20
114.5974469375
 30
0.0
 10
53.9510588013
 20
114.5996021398
 30
0.0
  0
SPLINE
  5
35A
100
AcDbEntity
  8
DTM_AXIS
100
AcDbSpline
 62
7
  6
CONTINUOUS
 70
0
 71
3
 72
15
 73
11
 74
0
 42
0.0000001
 43
0.0000001
 44
0.0000000001
 40
0.0
 40
0.0
 40
0.0
 40
0.0
 40
0.0375157732
 40
0.065443694
 40
0.1008092206
 40
0.1943090774
 40
0.3166390003
 40
0.4639685672
 40
0.6311331457
 40
1.0
 40
1.0
 40
1.0
 40
1.0
 10
52.971407867
 20
113.5987262531
 30
0.0
 10
52.9716338759
 20
113.585778214
 30
0.0
 10
52.9878946491
 20
113.5653661504
 30
0.0
 10
53.016968907
 20
113.5474338593
 30
0.0
 10
53.0666468959
 20
113.5248881871
 30
0.0
 10
53.1502935185
 20
113.501486677
 30
0.0
 10
53.2736366744
 20
113.47844287
 30
0.0
 10
53.4234125729
 20
113.4603692767
 30
0.0
 10
53.6587187875
 20
113.4430683123
 30
0.0
 10
53.8439452275
 20
113.4403752795
 30
0.0
 10
53.9712555622
 20
113.4425304818
 30
0.0
  0
SPLINE
  5
35B
100
AcDbEntity
  8
DTM_AXIS
100
AcDbSpline
 62
7
  6
CONTINUOUS
 70
0
 71
3
 72
15
 73
11
 74
0
 42
0.0000001
 43
0.0000001
 44
0.0000000001
 40
0.0
 40
0.0
 40
0.0
 40
0.0
 40
0.0330045884
 40
0.0592876677
 40
0.0932492259
 40
0.1844688635
 40
0.3052663752
 40
0.4522069744
 40
0.6206993251
 40
1.0
 40
1.0
 40
1.0
 40
1.0
 10
64.9829736797
 20
111.4737445403
 30
0.0
 10
64.9768689051
 20
111.4656418394
 30
0.0
 10
64.9555424257
 20
111.4620252876
 30
0.0
 10
64.9279959247
 20
111.4660222547
 30
0.0
 10
64.8824966077
 20
111.4779488065
 30
0.0
 10
64.8126766426
 20
111.5068856589
 30
0.0
 10
64.714032378
 20
111.556607425
 30
0.0
 10
64.5977466314
 20
111.6234283961
 30
0.0
 10
64.4167640157
 20
111.7368570694
 30
0.0
 10
64.2784255352
 20
111.8330589625
 30
0.0
 10
64.1842885021
 20
111.9018454691
 30
0.0
  0
SPLINE
  5
35C
100
AcDbEntity
  8
DTM_AXIS
100
AcDbSpline
 62
7
  6
CONTINUOUS
 70
0
 71
3
 72
9
 73
5
 74
0
 42
0.0000001
 43
0.0000001
 44
0.0000000001
 40
0.0
 40
0.0
 40
0.0
 40
0.0
 40
0.2513448068
 40
1.0
 40
1.0
 40
1.0
 40
1.0
 10
68.6730351413
 20
117.8596364629
 30
0.0
 10
68.7298191235
 20
117.8793850431
 30
0.0
 10
68.9559158231
 20
117.957446813
 30
0.0
 10
69.1827197459
 20
118.0334823565
 30
0.0
 10
69.3530960819
 20
118.0886119494
 30
0.0
  0
SPLINE
  5
35D
100
AcDbEntity
  8
DTM_AXIS
100
AcDbSpline
 62
7
  6
CONTINUOUS
 70
0
 71
3
 72
14
 73
10
 74
0
 42
0.0000001
 43
0.0000001
 44
0.0000000001
 40
0.0
 40
0.0
 40
0.0
 40
0.0
 40
0.0384167792
 40
0.097639293
 40
0.1838643916
 40
0.2978659667
 40
0.4386539147
 40
0.6043474909
 40
1.0
 40
1.0
 40
1.0
 40
1.0
 10
69.8167518671
 20
117.8894864981
 30
0.0
 10
69.8127692538
 20
117.884200484
 30
0.0
 10
69.7954615586
 20
117.8773075104
 30
0.0
 10
69.7638795693
 20
117.8809487996
 30
0.0
 10
69.7205990149
 20
117.8926969762
 30
0.0
 10
69.6659604471
 20
117.9144694593
 30
0.0
 10
69.6004340105
 20
117.9454230282
 30
0.0
 10
69.4936050926
 20
118.0022331049
 30
0.0
 10
69.4107300753
 20
118.052218922
 30
0.0
 10
69.3530960819
 20
118.0886119494
 30
0.0
  0
SPLINE
  5
35E
100
AcDbEntity
  8
DTM_AXIS
100
AcDbSpline
 62
7
  6
CONTINUOUS
 70
0
 71
3
 72
11
 73
7
 74
0
 42
0.0000001
 43
0.0000001
 44
0.0000000001
 40
0.0
 40
0.0
 40
0.0
 40
0.0
 40
0.2539669111
 40
0.5043679718
 40
0.7530520703
 40
1.0
 40
1.0
 40
1.0
 40
1.0
 10
69.3530960701
 20
118.0886119568
 30
0.0
 10
69.5224624299
 20
118.1577440923
 30
0.0
 10
69.8555490752
 20
118.3027052915
 30
0.0
 10
70.3592295548
 20
118.5050911102
 30
0.0
 10
70.8785278518
 20
118.6496516733
 30
0.0
 10
71.2362457204
 20
118.6859888324
 30
0.0
 10
71.4141222223
 20
118.6859882812
 30
0.0
  0
ENDSEC
  0
SECTION
  2
OBJECTS
  0
DICTIONARY
  5
C
100
AcDbDictionary
280
0
281
1
  3
ACAD_GROUP
350
D
  3
ACAD_MLINESTYLE
350
17
  3
ACAD_LAYOUT
350
1A
  3
ACAD_PLOTSETTINGS
350
19
  3
ACAD_PLOTSTYLENAME
350
E
  3
ACAD_TABLESTYLE
350
       35F
  0
DICTIONARY
  5
D
102
{ACAD_REACTORS
330
C
102
}
100
AcDbDictionary
280
0
281
1
  0
ACDBDICTIONARYWDFLT
  5
E
102
{ACAD_REACTORS
330
C
102
}
100
AcDbDictionary
281
1
  3
Normal
350
F
100
AcDbDictionaryWithDefault
340
F
  0
DICTIONARY
  5
17
102
{ACAD_REACTORS
330
C
102
}
100
AcDbDictionary
280
0
281
1
  3
Standard
350
18
  0
DICTIONARY
  5
35F
330
C
100
AcDbDictionary
281
1
  3
Standard
350
       362
  3
Standard1
350
       363
  0
DICTIONARY
  5
19
102
{ACAD_REACTORS
330
C
102
}
100
AcDbDictionary
281
1
  0
DICTIONARY
  5
1A
102
{ACAD_REACTORS
330
C
102
}
100
AcDbDictionary
281
1
  3
Model
350
360
  3
Layout1
350
361
  0
ACDBPLACEHOLDER
  5
F
102
{ACAD_REACTORS
330
E
102
}
  0
MLINESTYLE
  5
18
102
{ACAD_REACTORS
330
17
102
}
100
AcDbMlineStyle
  2
STANDARD
 70
0
  3

 62
256
 51
90.0
 52
90.0
 71
2
 49
0.5
 62
256
  6
BYLAYER
 49
-0.5
 62
256
  6
BYLAYER
  0
LAYOUT
  5
360
102
{ACAD_REACTORS
330
1A
102
}
100
AcDbPlotSettings
  1

  2
none_device
  4
ISO_A4_(297.00_x_210.00_MM)
  6

 40
0.0
 41
0.0
 42
0.0
 43
0.0
 44
297.0
 45
210.0
 46
0.0
 47
0.0
 48
0.0
 49
0.0
140
0.0
141
0.0
142
1.0
143
1.0
 70
1024
 72
1
 73
0
 74
0
  7

 75
0
147
1.0
148
0.0
149
0.0
100
AcDbLayout
  1
Model
 70
0
 71
0
 10
0.0
 20
0.0
 11
297.0
 21
210.0
 12
0.0
 22
0.0
 32
0.0
 14
0.0
 24
0.0
 34
0.0
 15
0.0
 25
0.0
 35
0.0
146
0.0
 13
0.0
 23
0.0
 33
0.0
 16
1.0
 26
0.0
 36
0.0
 17
0.0
 27
1.0
 37
0.0
 76
0
330
20A
345
0
346
0
  0
LAYOUT
  5
361
102
{ACAD_REACTORS
330
1A
102
}
100
AcDbPlotSettings
  1

  2
none_device
  4
ISO_A4_(297.00_x_210.00_MM)
  6

 40
0.0
 41
0.0
 42
0.0
 43
0.0
 44
297.0
 45
210.0
 46
0.0
 47
0.0
 48
0.0
 49
0.0
140
0.0
141
0.0
142
1.0
143
1.0
 70
0
 72
1
 73
0
 74
0
  7

 75
0
147
1.0
148
0.0
149
0.0
100
AcDbLayout
  1
Layout1
 70
0
 71
1
 10
0.0
 20
0.0
 11
297.0
 21
210.0
 12
0.0
 22
0.0
 32
0.0
 14
0.0
 24
0.0
 34
0.0
 15
0.0
 25
0.0
 35
0.0
146
0.0
 13
0.0
 23
0.0
 33
0.0
 16
1.0
 26
0.0
 36
0.0
 17
0.0
 27
1.0
 37
0.0
 76
0
330
20B
345
0
346
0
  0
TABLESTYLE
  5
362
102
{ACAD_REACTORS
330
35F
330
2E0
102
}
330
35F
100
AcDbTableStyle
  3
Standard
 70
0
 71
0
 40
0.06
 41
0.06
280
1
281
1
  7
Standard
140
0.18
170
1
 62
0
 63
7
283
0
  7
Standard
140
0.18
170
1
 62
0
 63
7
283
0
  7
Standard
140
0.18
170
1
 62
0
 63
7
283
0
  0
TABLESTYLE
  5
363
102
{ACAD_REACTORS
330
35F
102
}
330
35F
100
AcDbTableStyle
  3
Standard1
 70
1
 71
0
 40
0.06
 41
0.06
280
1
281
1
  7
Standard
140
0.18
170
1
 62
0
 63
7
283
0
  7
Standard
140
0.18
170
1
 62
0
 63
7
283
0
  7
Standard
140
0.18
170
1
 62
0
 63
7
283
0
  0
ENDSEC
  0
EOF
