999
DXF file: O:\ORAC_PRODUCTEN\ORAC_LIJN6\C-Type\C211\c211-prod-inches.dxf
999
Pro/ENGINEER 2016130 by Parametric Technology Corporation
  0
SECTION
  2
HEADER
  9
$ACADVER
  1
AC1024
  9
$DWGCODEPAGE
  3
ANSI_1250
  9
$EXTMAX
 10
297.0
 20
210.0
 30
0.0
  9
$EXTMIN
 10
0.0
 20
0.0
 30
0.0
  9
$LIMMIN
 10
0.0
 20
0.0
  9
$LIMMAX
 10
297.0
 20
210.0
  9
$VIEWCTR
 10
148.5
 20
105.0
  9
$VIEWSIZE
 40
210.0
  9
$CLAYER
  8
0
  9
$LTSCALE
 40
16.335
  9
$CELTYPE
  6
BYLAYER
  9
$DIMSCALE
 40
1.0
  9
$DIMASZ
 40
3.5
  9
$DIMEXO
 40
1.0
  9
$DIMDLI
 40
11.286
  9
$DIMEXE
 40
1.5
  9
$DIMCEN
 40
2.673
  9
$DIMLFAC
 40
1.0
  9
$DIMBLK
  1
_FILLED
  9
$DIMALT
 70
0
  9
$DIMALTF
 40
0.0393700787
  9
$DIMTXT
 40
2.5
  9
$DIMTOL
 70
1
  9
$DIMLIM
 70
0
  9
$DIMTFAC
 40
1.0
  9
$DIMTP
 40
0.001
  9
$DIMTM
 40
0.001
  9
$DIMGAP
 40
0.625
  9
$DIMDSEP
 70
44
  9
$AUNITS
 70
0
  9
$PDMODE
 70
3
  9
$PDSIZE
 40
8.0
  9
$HANDSEED
  5
57A
  9
$TILEMODE
 70
1
  9
$MEASUREMENT
 70
1
  9
$INSUNITS
 70
4
  0
ENDSEC
  0
SECTION
  2
CLASSES
  0
CLASS
  1
ACDBDICTIONARYWDFLT
  2
AcDbDictionaryWithDefault
  3
AutoCAD 2000
 90
0
 91
1
280
0
281
0
  0
CLASS
  1
ACDBPLACEHOLDER
  2
AcDbPlaceHolder
  3
AutoCAD 2000
 90
0
 91
1
280
0
281
0
  0
CLASS
  1
LAYOUT
  2
AcDbLayout
  3
AutoCAD 2000
 90
0
 91
0
280
0
281
0
  0
CLASS
  1
TABLESTYLE
  2
AcDbTableStyle
  3
ObjectDBX Classes
 90
2047
 91
1
280
0
281
0
  0
CLASS
  1
ACAD_TABLE
  2
AcDbTable
  3
ObjectDBX Classes
 90
1025
 91
1
280
0
281
1
  0
ENDSEC
  0
SECTION
  2
TABLES
  0
TABLE
  2
VPORT
  5
8
100
AcDbSymbolTable
 70
2
  0
VPORT
  5
1F4
100
AcDbSymbolTableRecord
100
AcDbViewportTableRecord
  2
*ACTIVE
 70
0
 10
0.0
 20
0.0
 11
1.0
 21
1.0
 12
148.5
 22
105.0
 13
0.0
 23
0.0
 14
1.0
 24
1.0
 15
0.0
 25
0.0
 16
0.0
 26
0.0
 36
1.0
 17
0.0
 27
0.0
 37
0.0
 40
210.0
 41
1.4142857143
 42
50.0
 43
0.0
 44
0.0
 50
0.0
 51
0.0
 71
0
 72
100
 73
1
 74
1
 75
0
 76
0
 77
0
 78
0
  0
ENDTAB
  0
TABLE
  2
LTYPE
  5
5
100
AcDbSymbolTable
 70
6
  0
LTYPE
  5
14
100
AcDbSymbolTableRecord
100
AcDbLinetypeTableRecord
  2
BYBLOCK
 70
0
  3

 72
65
 73
0
 40
0.0
  0
LTYPE
  5
15
100
AcDbSymbolTableRecord
100
AcDbLinetypeTableRecord
  2
BYLAYER
 70
0
  3

 72
65
 73
0
 40
0.0
  0
LTYPE
  5
16
100
AcDbSymbolTableRecord
100
AcDbLinetypeTableRecord
  2
CONTINUOUS
 70
64
  3
Solid line
 72
65
 73
0
 40
0.0
  0
LTYPE
  5
1F5
100
AcDbSymbolTableRecord
100
AcDbLinetypeTableRecord
  2
CENTER
 70
64
  3
____ _ ____ _ ____ _ ____ _ ____ _ ____ _ ____
 72
65
 73
4
 40
0.6
 49
0.375
 74
0
 49
-0.075
 74
0
 49
0.075
 74
0
 49
-0.075
 74
0
  0
LTYPE
  5
1F6
100
AcDbSymbolTableRecord
100
AcDbLinetypeTableRecord
  2
HIDDEN
 70
64
  3
- - - - - - - - - - - - - - - - - - - -
 72
65
 73
2
 40
0.2
 49
0.1
 74
0
 49
-0.1
 74
0
  0
LTYPE
  5
1F7
100
AcDbSymbolTableRecord
100
AcDbLinetypeTableRecord
  2
PHANTOM
 70
64
  3
_____ _ _ _____ _ _ _____ _ _ _____
 72
65
 73
6
 40
0.8
 49
0.45
 74
0
 49
-0.05
 74
0
 49
0.1
 74
0
 49
-0.05
 74
0
 49
0.1
 74
0
 49
-0.05
 74
0
  0
LTYPE
  5
1F8
100
AcDbSymbolTableRecord
100
AcDbLinetypeTableRecord
  2
DOT
 70
64
  3
. . . . . . . . . . . . . . . . . . . .
 72
65
 73
2
 40
0.2
 49
0.1
 74
0
 49
-0.1
 74
0
  0
LTYPE
  5
1F9
100
AcDbSymbolTableRecord
100
AcDbLinetypeTableRecord
  2
DASHED
 70
64
  3
- - - - - - - - - - - - - - - - - - - -
 72
65
 73
2
 40
0.2
 49
0.1
 74
0
 49
-0.1
 74
0
  0
ENDTAB
  0
TABLE
  2
LAYER
  5
2
100
AcDbSymbolTable
 70
36
  0
LAYER
  5
10
100
AcDbSymbolTableRecord
100
AcDbLayerTableRecord
  2
0
 70
0
 62
7
  6
CONTINUOUS
370
-3
390
F
  0
LAYER
  5
1FA
100
AcDbSymbolTableRecord
100
AcDbLayerTableRecord
  2
DEFAULT_1
 70
0
 62
7
  6
CENTER
370
-3
390
F
  0
LAYER
  5
1FB
100
AcDbSymbolTableRecord
100
AcDbLayerTableRecord
  2
DEFAULT_2
 70
0
 62
8
  6
HIDDEN
370
-3
390
F
  0
LAYER
  5
1FC
100
AcDbSymbolTableRecord
100
AcDbLayerTableRecord
  2
DEFAULT_3
 70
0
 62
7
  6
PHANTOM
370
-3
390
F
  0
LAYER
  5
1FD
100
AcDbSymbolTableRecord
100
AcDbLayerTableRecord
  2
01___PRT_ALL_DTM_PLN
 70
0
 62
7
  6
CONTINUOUS
370
-3
390
F
  0
LAYER
  5
1FE
100
AcDbSymbolTableRecord
100
AcDbLayerTableRecord
  2
01___PRT_DEF_DTM_PLN
 70
0
 62
7
  6
CONTINUOUS
370
-3
390
F
  0
LAYER
  5
1FF
100
AcDbSymbolTableRecord
100
AcDbLayerTableRecord
  2
02___PRT_ALL_AXES
 70
0
 62
7
  6
CONTINUOUS
370
-3
390
F
  0
LAYER
  5
200
100
AcDbSymbolTableRecord
100
AcDbLayerTableRecord
  2
03___PRT_ALL_CURVES
 70
0
 62
7
  6
CONTINUOUS
370
-3
390
F
  0
LAYER
  5
201
100
AcDbSymbolTableRecord
100
AcDbLayerTableRecord
  2
04___PRT_ALL_DTM_PNT
 70
0
 62
7
  6
CONTINUOUS
370
-3
390
F
  0
LAYER
  5
202
100
AcDbSymbolTableRecord
100
AcDbLayerTableRecord
  2
05___PRT_ALL_DTM_CSYS
 70
0
 62
7
  6
CONTINUOUS
370
-3
390
F
  0
LAYER
  5
203
100
AcDbSymbolTableRecord
100
AcDbLayerTableRecord
  2
05___PRT_DEF_DTM_CSYS
 70
0
 62
7
  6
CONTINUOUS
370
-3
390
F
  0
LAYER
  5
204
100
AcDbSymbolTableRecord
100
AcDbLayerTableRecord
  2
06___PRT_ALL_SURFS
 70
0
 62
7
  6
CONTINUOUS
370
-3
390
F
  0
LAYER
  5
205
100
AcDbSymbolTableRecord
100
AcDbLayerTableRecord
  2
AXES
 70
0
 62
7
  6
CONTINUOUS
370
-3
390
F
  0
LAYER
  5
206
100
AcDbSymbolTableRecord
100
AcDbLayerTableRecord
  2
DTM_ALL
 70
0
 62
7
  6
CONTINUOUS
370
-3
390
F
  0
LAYER
  5
207
100
AcDbSymbolTableRecord
100
AcDbLayerTableRecord
  2
DTM_AXIS
 70
0
 62
7
  6
CONTINUOUS
370
-3
390
F
  0
LAYER
  5
208
100
AcDbSymbolTableRecord
100
AcDbLayerTableRecord
  2
DTM_CSYS
 70
0
 62
7
  6
CONTINUOUS
370
-3
390
F
  0
LAYER
  5
209
100
AcDbSymbolTableRecord
100
AcDbLayerTableRecord
  2
DTM_CURVE
 70
0
 62
7
  6
CONTINUOUS
370
-3
390
F
  0
LAYER
  5
20A
100
AcDbSymbolTableRecord
100
AcDbLayerTableRecord
  2
DTM_MASTER
 70
0
 62
7
  6
CONTINUOUS
370
-3
390
F
  0
LAYER
  5
20B
100
AcDbSymbolTableRecord
100
AcDbLayerTableRecord
  2
DTM_POINT
 70
0
 62
7
  6
CONTINUOUS
370
-3
390
F
  0
LAYER
  5
20C
100
AcDbSymbolTableRecord
100
AcDbLayerTableRecord
  2
DTM_QUILT
 70
0
 62
7
  6
CONTINUOUS
370
-3
390
F
  0
LAYER
  5
20D
100
AcDbSymbolTableRecord
100
AcDbLayerTableRecord
  2
GTOL
 70
0
 62
7
  6
CONTINUOUS
370
-3
390
F
  0
LAYER
  5
20E
100
AcDbSymbolTableRecord
100
AcDbLayerTableRecord
  2
NOTES
 70
0
 62
7
  6
CONTINUOUS
370
-3
390
F
  0
LAYER
  5
20F
100
AcDbSymbolTableRecord
100
AcDbLayerTableRecord
  2
REF_PLANS
 70
0
 62
7
  6
CONTINUOUS
370
-3
390
F
  0
LAYER
  5
210
100
AcDbSymbolTableRecord
100
AcDbLayerTableRecord
  2
XSEC_DATUMS
 70
0
 62
7
  6
CONTINUOUS
370
-3
390
F
  0
ENDTAB
  0
TABLE
  2
STYLE
  5
3
100
AcDbSymbolTable
 70
1
  0
STYLE
  5
11
100
AcDbSymbolTableRecord
100
AcDbTextStyleTableRecord
  2
STANDARD
 70
0
 40
0.0
 41
1.0
 50
0.0
 71
0
 42
0.2
  3
cgtime.ttf
  4

  0
STYLE
  5
211
100
AcDbSymbolTableRecord
100
AcDbTextStyleTableRecord
  2
TEXTSTYLE_1
 70
0
 40
0.0
 41
0.8
 50
0.0
 71
0
 42
0.2
  3
gdt
  4

  0
STYLE
  5
212
100
AcDbSymbolTableRecord
100
AcDbTextStyleTableRecord
  2
TEXTSTYLE_2
 70
0
 40
0.0
 41
1.0
 50
0.0
 71
0
 42
0.2
  3
trium.ttf
  4

  0
STYLE
  5
213
100
AcDbSymbolTableRecord
100
AcDbTextStyleTableRecord
  2
TEXTSTYLE_3
 70
0
 40
0.0
 41
1.0
 50
0.0
 71
0
 42
0.2
  3
calibri.ttf
  4

  0
ENDTAB
  0
TABLE
  2
VIEW
  5
6
100
AcDbSymbolTable
 70
0
  0
ENDTAB
  0
TABLE
  2
UCS
  5
7
100
AcDbSymbolTable
 70
0
  0
ENDTAB
  0
TABLE
  2
APPID
  5
9
100
AcDbSymbolTable
 70
1
  0
APPID
  5
214
100
AcDbSymbolTableRecord
100
AcDbRegAppTableRecord
  2
ACAD
 70
0
  0
ENDTAB
  0
TABLE
  2
BLOCK_RECORD
  5
1
100
AcDbSymbolTable
 70
0
  0
BLOCK_RECORD
  5
215
100
AcDbSymbolTableRecord
100
AcDbBlockTableRecord
  2
*Model_Space
  0
BLOCK_RECORD
  5
216
100
AcDbSymbolTableRecord
100
AcDbBlockTableRecord
  2
*Paper_Space
  0
BLOCK_RECORD
  5
217
100
AcDbSymbolTableRecord
100
AcDbBlockTableRecord
  2
_FILLED
  0
BLOCK_RECORD
  5
218
100
AcDbSymbolTableRecord
100
AcDbBlockTableRecord
  2
*D0
  0
BLOCK_RECORD
  5
219
100
AcDbSymbolTableRecord
100
AcDbBlockTableRecord
  2
*D1
  0
BLOCK_RECORD
  5
21A
100
AcDbSymbolTableRecord
100
AcDbBlockTableRecord
  2
*D2
  0
BLOCK_RECORD
  5
21B
100
AcDbSymbolTableRecord
100
AcDbBlockTableRecord
  2
*T1
  0
ENDTAB
  0
TABLE
  2
DIMSTYLE
  5
A
100
AcDbSymbolTable
 70
1
100
AcDbDimStyleTable
 71
0
  0
DIMSTYLE
105
21C
100
AcDbSymbolTableRecord
100
AcDbDimStyleTableRecord
  2
STANDARD
 70
0
  3

  4

 40
1.0
 41
3.5
 42
1.0
 43
0.38
 44
1.5
 45
0.0
 46
0.0
 47
0.001
 48
0.001
140
2.5
141
0.09
142
0.0
143
25.4
144
1.0
145
0.0
146
1.0
147
0.625
 71
1.0
 72
0.0
 73
1
 74
1
 75
0
 76
0
 77
0
 78
8
170
0
171
2
172
0
173
0
174
0
175
0
176
0
177
0
178
0
270
2
271
3
272
3
273
2
274
2
275
0
280
0
281
0
282
0
283
1
284
8
285
0
286
0
287
3
288
0
340
11
278
44
341
217
342
217
343
217
344
217
  0
DIMSTYLE
105
21D
100
AcDbSymbolTableRecord
100
AcDbDimStyleTableRecord
  2
DIMSTYLE_1
 70
0
  3

  4

 40
1.0
 41
3.5
 42
1.0
 43
0.38
 44
1.5
 45
0.0
 46
0.0
 47
0.0
 48
0.0
140
2.5
141
0.09
142
0.0
143
25.4
144
1.0
145
0.0
146
1.0
147
1.25
 71
0.0
 72
0.0
 73
1
 74
1
 75
0
 76
0
 77
0
 78
8
170
0
171
2
172
0
173
0
174
0
175
0
176
0
177
0
178
0
270
2
271
0
272
0
273
2
274
2
275
0
280
0
281
0
282
0
283
1
284
8
285
0
286
0
287
3
288
0
340
11
278
44
341
217
342
217
343
217
344
217
  0
ENDTAB
  0
ENDSEC
  0
SECTION
  2
BLOCKS
  0
BLOCK
  5
20
100
AcDbEntity
  8
0
100
AcDbBlockBegin
  2
*Model_Space
 70
0
 10
0.0
 20
0.0
 30
0.0
  3
*Model_Space
  1

  0
ENDBLK
  5
21
100
AcDbEntity
  8
0
100
AcDbBlockEnd
  0
BLOCK
  5
1C
100
AcDbEntity
  8
0
100
AcDbBlockBegin
  2
*Paper_Space
 70
0
 10
0.0
 20
0.0
 30
0.0
  3
*Paper_Space
  1

  0
ENDBLK
  5
1D
100
AcDbEntity
  8
0
100
AcDbBlockEnd
  0
BLOCK
  5
21E
100
AcDbEntity
  8
0
100
AcDbBlockBegin
  2
_FILLED
 70
64
 10
0.0
 20
0.0
  3
_FILLED
  1

  0
SOLID
  5
21F
100
AcDbEntity
  8
0
  6
BYBLOCK
 62
0
100
AcDbTrace
 10
0.0
 20
0.0
 11
-1.0
 21
0.2142857143
 12
-1.0
 22
-0.2142857143
 13
-1.0
 23
-0.2142857143
  0
ENDBLK
  5
220
100
AcDbEntity
  8
0
  6
BYBLOCK
 62
0
100
AcDbBlockEnd
  0
BLOCK
  5
221
100
AcDbEntity
  8
0
100
AcDbBlockBegin
 62
2
  6
CONTINUOUS
  2
*D0
 70
65
 10
0.0
 20
0.0
  3
*D0
  1

  0
TEXT
  5
222
100
AcDbEntity
  8
0
100
AcDbText
 62
2
  6
CONTINUOUS
 10
11.8127664995
 20
112.7861508852
  7
STANDARD
 40
2.5
  1
112
 72
5
 11
17.2699649431
 21
112.7861508852
100
AcDbText
  0
TEXT
  5
223
100
AcDbEntity
  8
0
100
AcDbText
 62
2
  6
CONTINUOUS
 10
17.2699649431
 20
112.7861508852
  7
STANDARD
 40
2.5
  1
mm
 72
5
 11
22.9411711688
 21
112.7861508852
100
AcDbText
  0
TEXT
  5
224
100
AcDbEntity
  8
0
100
AcDbText
 62
2
  6
CONTINUOUS
 10
12.5909766162
 20
109.0361508852
  7
STANDARD
 40
2.5
  1
4-3/8"
 72
5
 11
22.162961052
 21
109.0361508852
100
AcDbText
  0
LINE
  5
225
100
AcDbEntity
  8
0
100
AcDbLine
 62
2
  6
CONTINUOUS
 10
120.80488276
 20
170.0400716403
 11
15.8769688341
 21
170.0400716403
  0
LINE
  5
226
100
AcDbEntity
  8
0
100
AcDbLine
 62
2
  6
CONTINUOUS
 10
26.4392642241
 20
58.03223013
 11
15.8769688341
 21
58.03223013
  0
LINE
  5
227
100
AcDbEntity
  8
0
100
AcDbLine
 62
2
  6
CONTINUOUS
 10
17.3769688341
 20
170.0400716403
 11
17.3769688341
 21
116.5361508852
  0
LINE
  5
228
100
AcDbEntity
  8
0
100
AcDbLine
 62
2
  6
CONTINUOUS
 10
17.3769688341
 20
58.03223013
 11
17.3769688341
 21
107.7861508852
  0
INSERT
  5
229
100
AcDbEntity
  8
0
100
AcDbBlockReference
 62
2
  6
CONTINUOUS
  2
_FILLED
 10
17.3769688341
 20
170.0400716403
 41
3.5
 42
3.5
 43
3.5
 50
90.0
  0
INSERT
  5
22A
100
AcDbEntity
  8
0
100
AcDbBlockReference
 62
2
  6
CONTINUOUS
  2
_FILLED
 10
17.3769688341
 20
58.03223013
 41
3.5
 42
3.5
 43
3.5
 50
270.0
  0
ENDBLK
  5
22B
100
AcDbEntity
  8
0
  6
BYBLOCK
 62
0
100
AcDbBlockEnd
  0
BLOCK
  5
22C
100
AcDbEntity
  8
0
100
AcDbBlockBegin
 62
2
  6
CONTINUOUS
  2
*D1
 70
65
 10
0.0
 20
0.0
  3
*D1
  1

  0
TEXT
  5
22D
100
AcDbEntity
  8
0
100
AcDbText
 62
2
  6
CONTINUOUS
 10
79.8745979888
 20
177.3925212061
  7
STANDARD
 40
2.5
  1
116
 72
5
 11
85.3317964323
 21
177.3925212061
100
AcDbText
  0
TEXT
  5
22E
100
AcDbEntity
  8
0
100
AcDbText
 62
2
  6
CONTINUOUS
 10
85.3317964323
 20
177.3925212061
  7
STANDARD
 40
2.5
  1
mm
 72
5
 11
91.003002658
 21
177.3925212061
100
AcDbText
  0
TEXT
  5
22F
100
AcDbEntity
  8
0
100
AcDbText
 62
2
  6
CONTINUOUS
 10
80.6528081055
 20
173.6425212061
  7
STANDARD
 40
2.5
  1
4-5/8"
 72
5
 11
90.2247925413
 21
173.6425212061
100
AcDbText
  0
LINE
  5
230
100
AcDbEntity
  8
0
100
AcDbLine
 62
2
  6
CONTINUOUS
 10
27.4392642241
 20
79.4118556574
 11
27.4392642241
 21
180.1425212061
  0
LINE
  5
231
100
AcDbEntity
  8
0
100
AcDbLine
 62
2
  6
CONTINUOUS
 10
143.4383364226
 20
171.0400716403
 11
143.4383364226
 21
180.1425212061
  0
LINE
  5
232
100
AcDbEntity
  8
0
100
AcDbLine
 62
2
  6
CONTINUOUS
 10
27.4392642241
 20
178.6425212061
 11
78.6245979888
 21
178.6425212061
  0
LINE
  5
233
100
AcDbEntity
  8
0
100
AcDbLine
 62
2
  6
CONTINUOUS
 10
143.4383364226
 20
178.6425212061
 11
92.253002658
 21
178.6425212061
  0
INSERT
  5
234
100
AcDbEntity
  8
0
100
AcDbBlockReference
 62
2
  6
CONTINUOUS
  2
_FILLED
 10
27.4392642241
 20
178.6425212061
 41
3.5
 42
3.5
 43
3.5
 50
180.0
  0
INSERT
  5
235
100
AcDbEntity
  8
0
100
AcDbBlockReference
 62
2
  6
CONTINUOUS
  2
_FILLED
 10
143.4383364226
 20
178.6425212061
 41
3.5
 42
3.5
 43
3.5
 50
0.0
  0
ENDBLK
  5
236
100
AcDbEntity
  8
0
  6
BYBLOCK
 62
0
100
AcDbBlockEnd
  0
BLOCK
  5
237
100
AcDbEntity
  8
0
100
AcDbBlockBegin
 62
2
  6
CONTINUOUS
  2
*D2
 70
65
 10
0.0
 20
0.0
  3
*D2
  1

  0
TEXT
  5
238
100
AcDbEntity
  8
0
100
AcDbText
 62
2
  6
CONTINUOUS
 10
101.1377500918
 20
90.7653183907
  7
STANDARD
 40
2.5
  1
158
 72
5
 11
106.5949485354
 21
90.7653183907
100
AcDbText
  0
TEXT
  5
239
100
AcDbEntity
  8
0
100
AcDbText
 62
2
  6
CONTINUOUS
 10
106.5949485354
 20
90.7653183907
  7
STANDARD
 40
2.5
  1
mm
 72
5
 11
112.266154761
 21
90.7653183907
100
AcDbText
  0
TEXT
  5
23A
100
AcDbEntity
  8
0
100
AcDbText
 62
2
  6
CONTINUOUS
 10
101.9159602085
 20
87.0153183907
  7
STANDARD
 40
2.5
  1
6-1/4"
 72
5
 11
111.4879446443
 21
87.0153183907
100
AcDbText
  0
LINE
  5
23B
100
AcDbEntity
  8
0
100
AcDbLine
 62
2
  6
CONTINUOUS
 10
28.1338867801
 20
57.3128557457
 11
49.7443501611
 21
34.9323360591
  0
LINE
  5
23C
100
AcDbEntity
  8
0
100
AcDbLine
 62
2
  6
CONTINUOUS
 10
144.1329589786
 20
169.320697256
 11
165.7434223596
 21
146.9401775694
  0
LINE
  5
23D
100
AcDbEntity
  8
0
100
AcDbLine
 62
2
  6
CONTINUOUS
 10
48.7024163271
 20
36.0113976355
 11
100.6659602085
 21
86.1870091905
  0
LINE
  5
23E
100
AcDbEntity
  8
0
100
AcDbLine
 62
2
  6
CONTINUOUS
 10
164.7014885257
 20
148.0192391458
 11
109.2910361601
 21
94.5153183907
  0
INSERT
  5
23F
100
AcDbEntity
  8
0
100
AcDbBlockReference
 62
2
  6
CONTINUOUS
  2
_FILLED
 10
48.7024163271
 20
36.0113976355
 41
3.5
 42
3.5
 43
3.5
 50
223.9971474259
  0
INSERT
  5
240
100
AcDbEntity
  8
0
100
AcDbBlockReference
 62
2
  6
CONTINUOUS
  2
_FILLED
 10
164.7014885257
 20
148.0192391458
 41
3.5
 42
3.5
 43
3.5
 50
43.9971474259
  0
ENDBLK
  5
241
100
AcDbEntity
  8
0
  6
BYBLOCK
 62
0
100
AcDbBlockEnd
  0
BLOCK
  5
242
100
AcDbEntity
  8
0
100
AcDbBlockBegin
  2
*T1
 70
1
 10
0.0
 20
0.0
  3
*T1
  1

  0
LINE
  5
243
100
AcDbEntity
  8
0
100
AcDbLine
 62
7
  6
CONTINUOUS
 10
0.0
 20
0.0
 11
148.0
 21
0.0
  0
LINE
  5
244
100
AcDbEntity
  8
0
100
AcDbLine
 62
7
  6
CONTINUOUS
 10
0.0
 20
0.0
 11
0.0
 21
-43.0
  0
LINE
  5
245
100
AcDbEntity
  8
0
100
AcDbLine
 62
7
  6
CONTINUOUS
 10
45.0
 20
-23.0
 11
148.0
 21
-23.0
  0
LINE
  5
246
100
AcDbEntity
  8
0
100
AcDbLine
 62
7
  6
CONTINUOUS
 10
45.0
 20
-28.0
 11
148.0
 21
-28.0
  0
LINE
  5
247
100
AcDbEntity
  8
0
100
AcDbLine
 62
7
  6
CONTINUOUS
 10
0.0
 20
-43.0
 11
148.0
 21
-43.0
  0
LINE
  5
248
100
AcDbEntity
  8
0
100
AcDbLine
 62
7
  6
CONTINUOUS
 10
45.0
 20
0.0
 11
45.0
 21
-43.0
  0
LINE
  5
249
100
AcDbEntity
  8
0
100
AcDbLine
 62
7
  6
CONTINUOUS
 10
143.0
 20
0.0
 11
143.0
 21
-23.0
  0
LINE
  5
24A
100
AcDbEntity
  8
0
100
AcDbLine
 62
7
  6
CONTINUOUS
 10
148.0
 20
0.0
 11
148.0
 21
-43.0
  0
TEXT
  5
24B
100
AcDbEntity
  8
0
100
AcDbText
 62
7
  6
CONTINUOUS
 10
8.9659749243
 20
-10.675
  7
STANDARD
 40
8.0
  1
O
 72
5
 11
17.370644185
 21
-10.675
100
AcDbText
  0
TEXT
  5
24C
100
AcDbEntity
  8
0
100
AcDbText
 62
7
  6
CONTINUOUS
 10
17.370644185
 20
-10.675
  7
STANDARD
 40
5.5
  1
RAC
 72
5
 11
33.9562472979
 21
-10.675
100
AcDbText
  0
TEXT
  5
24D
100
AcDbEntity
  8
0
100
AcDbText
 62
7
  6
CONTINUOUS
 10
33.9562472979
 20
-5.925
  7
TEXTSTYLE_2
 40
3.0
  1
®
 72
5
 11
36.0340250757
 21
-5.925
100
AcDbText
  0
TEXT
  5
24E
100
AcDbEntity
  8
0
100
AcDbText
 62
7
  6
CONTINUOUS
 10
9.5323389537
 20
-15.325
  7
TEXTSTYLE_2
 40
3.0
  1
D  E  C  O  R
 72
5
 11
34.3878945093
 21
-15.325
100
AcDbText
  0
TEXT
  5
24F
100
AcDbEntity
  8
0
100
AcDbText
 62
7
  6
CONTINUOUS
 10
34.3878945093
 20
-15.325
  7
STANDARD
 40
2.5
  1
 
 72
5
 11
35.4676610463
 21
-15.325
100
AcDbText
  0
TEXT
  5
250
100
AcDbEntity
  8
0
100
AcDbText
 62
7
  6
CONTINUOUS
 10
52.5257352941
 20
-6.0
  7
TEXTSTYLE_3
 40
2.75
  1
Part name:
 72
5
 11
71.9375
 21
-6.0
100
AcDbText
  0
TEXT
  5
251
100
AcDbEntity
  8
0
100
AcDbText
 62
7
  6
CONTINUOUS
 10
49.2788865546
 20
-12.875
  7
TEXTSTYLE_3
 40
2.75
  1
Designed by:
 72
5
 11
71.9375
 21
-12.875
100
AcDbText
  0
TEXT
  5
252
100
AcDbEntity
  8
0
100
AcDbText
 62
7
  6
CONTINUOUS
 10
48.9553571429
 20
-19.75
  7
TEXTSTYLE_3
 40
2.75
  1
Designed on:
 72
5
 11
71.9375
 21
-19.75
100
AcDbText
  0
TEXT
  5
253
100
AcDbEntity
  8
0
100
AcDbText
 62
2
  6
CONTINUOUS
 10
74.0625
 20
-6.0
  7
TEXTSTYLE_3
 40
2.75
  1
C211
 72
5
 11
82.9595588235
 21
-6.0
100
AcDbText
  0
TEXT
  5
254
100
AcDbEntity
  8
0
100
AcDbText
 62
2
  6
CONTINUOUS
 10
74.0625
 20
-12.875
  7
TEXTSTYLE_3
 40
2.75
  1
ORAC
 72
5
 11
84.1034663866
 21
-12.875
100
AcDbText
  0
TEXT
  5
255
100
AcDbEntity
  8
0
100
AcDbText
 62
2
  6
CONTINUOUS
 10
74.0625
 20
-19.75
  7
TEXTSTYLE_3
 40
2.75
  1
29-Jul-1977
 72
5
 11
94.5488445378
 21
-19.75
100
AcDbText
  0
TEXT
  5
256
100
AcDbEntity
  8
0
100
AcDbText
 62
2
  6
CONTINUOUS
 10
94.5488445378
 20
-19.75
  7
TEXTSTYLE_3
 40
2.75
  1
 
 72
5
 11
95.530987395
 21
-19.75
100
AcDbText
  0
TEXT
  5
257
100
AcDbEntity
  8
0
100
AcDbText
 62
2
  6
CONTINUOUS
 10
146.5625
 20
-17.5
  7
TEXTSTYLE_3
 40
1.5
  1
Version: 
 50
90.0
 72
5
 11
146.5625
 21
-9.0294117647
100
AcDbText
  0
TEXT
  5
258
100
AcDbEntity
  8
0
100
AcDbText
 62
2
  6
CONTINUOUS
 10
146.5625
 20
-9.0294117647
  7
TEXTSTYLE_3
 40
1.5
  1
1.0
 50
90.0
 72
5
 11
146.5625
 21
-6.0357142857
100
AcDbText
  0
TEXT
  5
259
100
AcDbEntity
  8
0
100
AcDbText
 62
2
  6
CONTINUOUS
 10
146.5625
 20
-6.0357142857
  7
TEXTSTYLE_3
 40
1.5
  1
 
 50
90.0
 72
5
 11
146.5625
 21
-5.5
100
AcDbText
  0
TEXT
  5
25A
100
AcDbEntity
  8
0
100
AcDbText
 62
7
  6
CONTINUOUS
 10
9.6586134454
 20
-24.25
  7
TEXTSTYLE_3
 40
2.5
  1
Biekorfstraat 32
 72
5
 11
35.3413865546
 21
-24.25
100
AcDbText
  0
TEXT
  5
25B
100
AcDbEntity
  8
0
100
AcDbText
 62
7
  6
CONTINUOUS
 10
2.2584033613
 20
-28.0
  7
TEXTSTYLE_3
 40
2.5
  1
8400 Oostende - Belgium
 72
5
 11
42.7415966387
 21
-28.0
100
AcDbText
  0
TEXT
  5
25C
100
AcDbEntity
  8
0
100
AcDbText
 62
7
  6
CONTINUOUS
 10
4.2699579832
 20
-31.75
  7
TEXTSTYLE_3
 40
2.5
  1
Tel  +32 (0)59 80 32 52
 72
5
 11
40.7300420168
 21
-31.75
100
AcDbText
  0
TEXT
  5
25D
100
AcDbEntity
  8
0
100
AcDbText
 62
7
  6
CONTINUOUS
 10
5.7405462185
 20
-35.5
  7
TEXTSTYLE_3
 40
2.5
  1
www.oracdecor.com
 72
5
 11
39.2594537815
 21
-35.5
100
AcDbText
  0
TEXT
  5
25E
100
AcDbEntity
  8
0
100
AcDbText
 62
7
  6
CONTINUOUS
 10
5.5777310924
 20
-39.25
  7
TEXTSTYLE_3
 40
2.5
  1
info@oracdecor.com
 72
5
 11
39.4222689076
 21
-39.25
100
AcDbText
  0
TEXT
  5
25F
100
AcDbEntity
  8
0
100
AcDbText
 62
7
  6
CONTINUOUS
 10
46.0625
 20
-26.75
  7
TEXTSTYLE_3
 40
2.5
  1
All dimensions are in mm unless otherwise specified   
 72
5
 11
132.3019957983
 21
-26.75
100
AcDbText
  0
TEXT
  5
260
100
AcDbEntity
  8
0
100
AcDbText
 62
7
  6
CONTINUOUS
 10
46.0625
 20
-31.7075
  7
TEXTSTYLE_3
 40
1.85
  1
All information in this document is Orac's exclusive property.  It may in no case 
 72
5
 11
140.0471638655
 21
-31.7075
100
AcDbText
  0
TEXT
  5
261
100
AcDbEntity
  8
0
100
AcDbText
 62
7
  6
CONTINUOUS
 10
46.0625
 20
-34.8525
  7
TEXTSTYLE_3
 40
1.85
  1
be reproduced, even partly, be communicated to a third party or used for any 
 72
5
 11
138.8345588235
 21
-34.8525
100
AcDbText
  0
TEXT
  5
262
100
AcDbEntity
  8
0
100
AcDbText
 62
7
  6
CONTINUOUS
 10
46.0625
 20
-37.9975
  7
TEXTSTYLE_3
 40
1.85
  1
possible purpose without ORAC's express written permission. 
 72
5
 11
119.4484243697
 21
-37.9975
100
AcDbText
  0
TEXT
  5
263
100
AcDbEntity
  8
0
100
AcDbText
 62
7
  6
CONTINUOUS
 10
46.0625
 20
-41.1425
  7
TEXTSTYLE_3
 40
1.85
  1
Further legal information can be found at http://www.oracdecor.be/nl/disclaimer 
 72
5
 11
143.7316176471
 21
-41.1425
100
AcDbText
  0
ENDBLK
  5
264
100
AcDbEntity
  8
0
  6
BYBLOCK
 62
0
100
AcDbBlockEnd
  0
ENDSEC
  0
SECTION
  2
ENTITIES
  0
DIMENSION
  5
265
100
AcDbEntity
  8
0
100
AcDbDimension
 62
2
  6
CONTINUOUS
  2
*D0
 10
17.3769688341
 20
58.03223013
 11
17.3769688341
 21
112.1611508852
 70
160
 71
2
 42
112.0078415103
  1
<>mm\P4-3/8"
  3
DIMSTYLE_1
100
AcDbAlignedDimension
 13
121.80488276
 23
170.0400716403
 14
27.4392642241
 24
58.03223013
 50
270.0
100
AcDbRotatedDimension
  0
DIMENSION
  5
266
100
AcDbEntity
  8
0
100
AcDbDimension
 62
2
  6
CONTINUOUS
  2
*D1
 10
143.4383364226
 20
178.6425212061
 11
85.4388003234
 21
176.7675212061
 70
160
 71
2
 42
115.9990721985
  1
<>mm\P4-5/8"
  3
DIMSTYLE_1
100
AcDbAlignedDimension
 13
27.4392642241
 23
78.4118556574
 14
143.4383364226
 24
170.0400716403
100
AcDbRotatedDimension
  0
DIMENSION
  5
267
100
AcDbEntity
  8
0
100
AcDbDimension
 62
2
  6
CONTINUOUS
  2
*D2
 10
164.7014885257
 20
148.0192391458
 11
106.7019524264
 21
90.1403183907
 70
160
 71
2
 42
161.2499342968
  1
<>mm\P6-1/4"
  3
DIMSTYLE_1
100
AcDbAlignedDimension
 13
27.4392642241
 23
58.03223013
 14
143.4383364226
 24
170.0400716403
 50
43.9971474259
100
AcDbRotatedDimension
  0
ACAD_TABLE
  5
268
100
AcDbEntity
  8
0
 62
2
  6
CONTINUOUS
100
AcDbBlockReference
  2
*T1
 10
143.9999958937
 20
47.9999925619
 30
0.0
100
AcDbTable
342
       578
343
21B
 11
1.0
 21
0.0
 31
0.0
 90
22
 91
4
 92
4
 93
0
 94
0
 95
0
 96
0
141
18.0
141
5.0
141
5.0
141
15.0
142
45.0
142
28.0
142
70.0
142
5.0
171
1
172
0
173
0
174
0
175
1
176
1
 91
41
178
0
145
0.0
301
CELL_VALUE
 90
4
  1
\A1;O\H5.5;RAC\Ftrium.ttf;\H3.0;\S®^ ;\PD  E  C  O  R\Fcgtime.ttf;\H2.5; 
304
ACVALUE_END
170
5
140
8.0
 64
7
171
1
172
0
173
0
174
0
175
1
176
2
 91
57
178
0
145
0.0
  7
TEXTSTYLE_3
301
CELL_VALUE
 90
4
  1
Part name:\PDesigned by:\PDesigned on:
304
ACVALUE_END
170
6
140
2.75
 64
7
171
1
172
0
173
0
174
0
175
1
176
2
 91
49
178
0
145
0.0
  7
TEXTSTYLE_3
301
CELL_VALUE
 90
4
  1
C211\PORAC\P29-Jul-1977 
304
ACVALUE_END
170
4
140
2.75
171
1
172
0
173
0
174
0
175
1
176
2
 91
49
178
0
145
0.0
  7
TEXTSTYLE_3
301
CELL_VALUE
 90
4
  1
Version: 1.0 
304
ACVALUE_END
170
6
140
1.5
171
1
172
0
173
0
174
0
175
1
176
3
 91
57
178
0
145
0.0
  7
TEXTSTYLE_3
301
CELL_VALUE
 90
4
  1
Biekorfstraat 32\P8400 Oostende - Belgium\PTel  +32 (0)59 80 32 52\Pwww.oracdecor.com\Pinfo@oracdecor.com
304
ACVALUE_END
170
5
140
2.5
 64
7
171
1
172
0
173
1
174
0
175
1
176
1
 91
1
178
0
145
0.0
170
1
171
1
172
0
173
1
174
0
175
1
176
1
 91
1
178
0
145
0.0
170
1
171
1
172
0
173
1
174
0
175
1
176
1
 91
1
178
0
145
0.0
170
1
171
1
172
0
173
1
174
0
175
1
176
1
 91
1
178
0
145
0.0
170
1
171
1
172
0
173
0
174
0
175
3
176
1
 91
57
178
0
145
0.0
  7
TEXTSTYLE_3
301
CELL_VALUE
 90
4
  1
All dimensions are in mm unless otherwise specified   
304
ACVALUE_END
170
1
140
2.5
 64
7
171
1
172
0
173
1
174
0
175
1
176
1
 91
1
178
0
145
0.0
170
1
171
1
172
0
173
1
174
0
175
1
176
1
 91
1
178
0
145
0.0
170
1
171
1
172
0
173
1
174
0
175
1
176
1
 91
1
178
0
145
0.0
170
1
171
1
172
0
173
0
174
0
175
3
176
1
 91
57
178
0
145
0.0
  7
TEXTSTYLE_3
301
CELL_VALUE
 90
4
  2
All information in this document is Orac's exclusive property.  It may in no case \Pbe reproduced, even partly, be communicated to a third party or used for any \Ppossible purpose without ORAC's express written permission. \PFurther legal information
  1
 can be found at http://www.oracdecor.be/nl/disclaimer 
304
ACVALUE_END
170
4
140
1.85
 64
7
171
1
172
0
173
1
174
0
175
1
176
1
 91
1
178
0
145
0.0
170
1
171
1
172
0
173
1
174
0
175
1
176
1
 91
1
178
0
145
0.0
170
1
  0
LINE
  5
269
100
AcDbEntity
  8
0
100
AcDbLine
 62
5
  6
CONTINUOUS
 10
0.0
 20
0.0
 11
0.0
 21
210.0
  0
LINE
  5
26A
100
AcDbEntity
  8
0
100
AcDbLine
 62
7
  6
CONTINUOUS
 10
5.0
 20
5.0
 11
5.0
 21
195.0
  0
LINE
  5
26B
100
AcDbEntity
  8
0
100
AcDbLine
 62
5
  6
CONTINUOUS
 10
0.0
 20
0.0
 11
297.0
 21
0.0
  0
LINE
  5
26C
100
AcDbEntity
  8
0
100
AcDbLine
 62
7
  6
CONTINUOUS
 10
5.0
 20
5.0
 11
292.0
 21
5.0
  0
LINE
  5
26D
100
AcDbEntity
  8
0
100
AcDbLine
 62
4
  6
CONTINUOUS
 10
148.5
 20
195.0
 11
148.5
 21
205.0
  0
LINE
  5
26E
100
AcDbEntity
  8
0
100
AcDbLine
 62
7
  6
CONTINUOUS
 10
5.0
 20
195.0
 11
292.0
 21
195.0
  0
LINE
  5
26F
100
AcDbEntity
  8
0
100
AcDbLine
 62
5
  6
CONTINUOUS
 10
0.0
 20
210.0
 11
297.0
 21
210.0
  0
LINE
  5
270
100
AcDbEntity
  8
0
100
AcDbLine
 62
7
  6
CONTINUOUS
 10
292.0
 20
5.0
 11
292.0
 21
195.0
  0
LINE
  5
271
100
AcDbEntity
  8
0
100
AcDbLine
 62
5
  6
CONTINUOUS
 10
297.0
 20
0.0
 11
297.0
 21
210.0
  0
LINE
  5
272
100
AcDbEntity
  8
0
100
AcDbLine
 62
7
  6
CONTINUOUS
 10
165.2192122482
 20
125.2538213105
 11
165.2379245621
 21
121.9489775879
  0
LINE
  5
273
100
AcDbEntity
  8
0
100
AcDbLine
 62
7
  6
CONTINUOUS
 10
165.2536305096
 20
119.1750981771
 11
165.2768035268
 21
115.0824348737
  0
LINE
  5
274
100
AcDbEntity
  8
0
100
AcDbLine
 62
7
  6
CONTINUOUS
 10
171.5267900497
 20
133.1165929226
 11
171.5436313935
 21
130.2959214636
  0
LINE
  5
275
100
AcDbEntity
  8
0
100
AcDbLine
 62
7
  6
CONTINUOUS
 10
168.3799849884
 20
116.7254474166
 11
168.3891164312
 21
115.1127130572
  0
LINE
  5
276
100
AcDbEntity
  8
0
100
AcDbLine
 62
7
  6
CONTINUOUS
 10
236.5155732573
 20
55.790325518
 11
233.4032603529
 21
55.7600473345
  0
LINE
  5
277
100
AcDbEntity
  8
0
100
AcDbLine
 62
7
  6
CONTINUOUS
 10
175.995383152
 20
123.6599973505
 11
176.013116408
 21
120.6899440357
  0
LINE
  5
278
100
AcDbEntity
  8
0
100
AcDbLine
 62
7
  6
CONTINUOUS
 10
185.1149055972
 20
146.1493381505
 11
173.9451857555
 21
137.860796907
  0
LINE
  5
279
100
AcDbEntity
  8
0
100
AcDbLine
 62
7
  6
CONTINUOUS
 10
244.1395732341
 20
61.3675564965
 11
241.0253089015
 21
61.3372593285
  0
LINE
  5
27A
100
AcDbEntity
  8
0
100
AcDbLine
 62
7
  6
CONTINUOUS
 10
165.2379245621
 20
121.9489775879
 11
165.8632792764
 21
120.3438804906
  0
LINE
  5
27B
100
AcDbEntity
  8
DTM_AXIS
100
AcDbLine
 62
7
  6
CONTINUOUS
 10
177.7288713551
 20
123.2250732469
 11
177.7312068892
 21
122.8340216214
  0
LINE
  5
27C
100
AcDbEntity
  8
DTM_AXIS
100
AcDbLine
 62
7
  6
CONTINUOUS
 10
178.8614736999
 20
122.238838554
 11
178.8638092339
 21
121.8477869286
  0
LINE
  5
27D
100
AcDbEntity
  8
DTM_AXIS
100
AcDbLine
 62
7
  6
CONTINUOUS
 10
179.9940760446
 20
121.2526038612
 11
179.9964115786
 21
120.8615522357
  0
LINE
  5
27E
100
AcDbEntity
  8
0
100
AcDbLine
 62
7
  6
CONTINUOUS
 10
180.0751601406
 20
135.8556893227
 11
180.1477355955
 21
123.7003935745
  0
LINE
  5
27F
100
AcDbEntity
  8
DTM_AXIS
100
AcDbLine
 62
7
  6
CONTINUOUS
 10
180.6440708967
 20
123.2682003201
 11
180.5714954418
 21
135.4234960683
  0
LINE
  5
280
100
AcDbEntity
  8
DTM_AXIS
100
AcDbLine
 62
7
  6
CONTINUOUS
 10
181.1266783893
 20
120.2663691684
 11
181.1290139234
 21
119.8753175429
  0
LINE
  5
281
100
AcDbEntity
  8
0
100
AcDbLine
 62
7
  6
CONTINUOUS
 10
181.0312117654
 20
136.5650975147
 11
181.035390034
 21
135.8653004526
  0
LINE
  5
282
100
AcDbEntity
  8
DTM_AXIS
100
AcDbLine
 62
7
  6
CONTINUOUS
 10
182.2592807341
 20
119.2801344755
 11
182.2616162681
 21
118.8890828501
  0
LINE
  5
283
100
AcDbEntity
  8
DTM_AXIS
100
AcDbLine
 62
7
  6
CONTINUOUS
 10
182.2568966356
 20
121.8638021175
 11
182.1843211807
 21
134.0190978657
  0
LINE
  5
284
100
AcDbEntity
  8
DTM_AXIS
100
AcDbLine
 62
7
  6
CONTINUOUS
 10
181.120543389
 20
122.8500003196
 11
181.0517188359
 21
135.0053325586
  0
LINE
  5
285
100
AcDbEntity
  8
DTM_AXIS
100
AcDbLine
 62
7
  6
CONTINUOUS
 10
181.7729223395
 20
122.2819291365
 11
181.7040977865
 21
134.4372613755
  0
LINE
  5
286
100
AcDbEntity
  8
DTM_AXIS
100
AcDbLine
 62
7
  6
CONTINUOUS
 10
182.9055246843
 20
121.2956944437
 11
182.8367001312
 21
133.4510266826
  0
LINE
  5
287
100
AcDbEntity
  8
DTM_AXIS
100
AcDbLine
 62
7
  6
CONTINUOUS
 10
244.1131239171
 20
65.0307247675
 11
247.4638583341
 21
65.0803169519
  0
LINE
  5
288
100
AcDbEntity
  8
DTM_AXIS
100
AcDbLine
 62
7
  6
CONTINUOUS
 10
246.3312559894
 20
66.0665516447
 11
242.9805215724
 21
66.0169594603
  0
LINE
  5
289
100
AcDbEntity
  8
DTM_AXIS
100
AcDbLine
 62
7
  6
CONTINUOUS
 10
245.1986536446
 20
67.0527863375
 11
241.8479192276
 21
67.0031941532
  0
LINE
  5
28A
100
AcDbEntity
  8
DTM_AXIS
100
AcDbLine
 62
7
  6
CONTINUOUS
 10
240.7153168829
 20
67.989428846
 11
244.0660512999
 21
68.0390210304
  0
LINE
  5
28B
100
AcDbEntity
  8
DTM_AXIS
100
AcDbLine
 62
7
  6
CONTINUOUS
 10
239.5827145382
 20
68.9756635388
 11
242.9334489552
 21
69.0252557232
  0
LINE
  5
28C
100
AcDbEntity
  8
0
100
AcDbLine
 62
7
  6
CONTINUOUS
 10
244.1218399781
 20
64.3376098113
 11
248.2741924216
 21
64.3780060353
  0
LINE
  5
28D
100
AcDbEntity
  8
DTM_AXIS
100
AcDbLine
 62
7
  6
CONTINUOUS
 10
247.9440817283
 20
64.6621534421
 11
244.5547452285
 21
64.6461747439
  0
LINE
  5
28E
100
AcDbEntity
  8
DTM_AXIS
100
AcDbLine
 62
7
  6
CONTINUOUS
 10
243.4221428837
 20
65.6324094368
 11
246.8114793835
 21
65.6483881349
  0
LINE
  5
28F
100
AcDbEntity
  8
DTM_AXIS
100
AcDbLine
 62
7
  6
CONTINUOUS
 10
242.289540539
 20
66.6186441296
 11
245.6788770388
 21
66.6346228278
  0
LINE
  5
290
100
AcDbEntity
  8
DTM_AXIS
100
AcDbLine
 62
7
  6
CONTINUOUS
 10
244.5462746941
 20
67.6208575206
 11
241.1569381943
 21
67.6048788224
  0
LINE
  5
291
100
AcDbEntity
  8
DTM_AXIS
100
AcDbLine
 62
7
  6
CONTINUOUS
 10
243.4136723493
 20
68.6070922135
 11
240.0243358495
 21
68.5911135153
  0
LINE
  5
292
100
AcDbEntity
  8
DTM_AXIS
100
AcDbLine
 62
7
  6
CONTINUOUS
 10
183.3918830788
 20
118.2938997827
 11
183.3942186128
 21
117.9028481572
  0
LINE
  5
293
100
AcDbEntity
  8
DTM_AXIS
100
AcDbLine
 62
7
  6
CONTINUOUS
 10
183.3894989741
 20
120.8775684774
 11
183.3169235254
 21
133.0328631729
  0
LINE
  5
294
100
AcDbEntity
  8
DTM_AXIS
100
AcDbLine
 62
7
  6
CONTINUOUS
 10
184.0418779246
 20
120.3094972943
 11
183.969302476
 21
132.4647919898
  0
LINE
  5
295
100
AcDbEntity
  8
DTM_AXIS
100
AcDbLine
 62
7
  6
CONTINUOUS
 10
184.5244854235
 20
117.3076650898
 11
184.5268209576
 21
116.9166134644
  0
LINE
  5
296
100
AcDbEntity
  8
DTM_AXIS
100
AcDbLine
 62
7
  6
CONTINUOUS
 10
185.1744802757
 20
119.3232615487
 11
185.1019048207
 21
131.478557297
  0
LINE
  5
297
100
AcDbEntity
  8
DTM_AXIS
100
AcDbLine
 62
7
  6
CONTINUOUS
 10
185.6570877683
 20
116.321430397
 11
185.6594233023
 21
115.9303787715
  0
LINE
  5
298
100
AcDbEntity
  8
DTM_AXIS
100
AcDbLine
 62
7
  6
CONTINUOUS
 10
186.789690113
 20
115.3351957042
 11
186.792025647
 21
114.9441440787
  0
LINE
  5
299
100
AcDbEntity
  8
DTM_AXIS
100
AcDbLine
 62
7
  6
CONTINUOUS
 10
186.7873060146
 20
117.9188633461
 11
186.7147305596
 21
130.0741590944
  0
LINE
  5
29A
100
AcDbEntity
  8
DTM_AXIS
100
AcDbLine
 62
7
  6
CONTINUOUS
 10
187.9222924577
 20
114.3489610113
 11
187.9246279918
 21
113.9579093859
  0
LINE
  5
29B
100
AcDbEntity
  8
DTM_AXIS
100
AcDbLine
 62
7
  6
CONTINUOUS
 10
187.919908353
 20
116.932629706
 11
187.8473329043
 21
129.0879244015
  0
LINE
  5
29C
100
AcDbEntity
  8
DTM_AXIS
100
AcDbLine
 62
7
  6
CONTINUOUS
 10
188.5722873036
 20
116.3645585229
 11
188.4997118549
 21
128.5198532184
  0
LINE
  5
29D
100
AcDbEntity
  8
DTM_AXIS
100
AcDbLine
 62
7
  6
CONTINUOUS
 10
184.5183504232
 20
119.8912962411
 11
184.4495258701
 21
132.04662848
  0
LINE
  5
29E
100
AcDbEntity
  8
DTM_AXIS
100
AcDbLine
 62
7
  6
CONTINUOUS
 10
185.6509527679
 20
118.9050615482
 11
185.5821282149
 21
131.0603937872
  0
LINE
  5
29F
100
AcDbEntity
  8
0
100
AcDbLine
 62
7
  6
CONTINUOUS
 10
185.6992656903
 20
141.2639625578
 11
185.7101982589
 21
139.3331254096
  0
LINE
  5
2A0
100
AcDbEntity
  8
DTM_AXIS
100
AcDbLine
 62
7
  6
CONTINUOUS
 10
186.3033317185
 20
118.3369903652
 11
186.2345071654
 21
130.4923226041
  0
LINE
  5
2A1
100
AcDbEntity
  8
DTM_AXIS
100
AcDbLine
 62
7
  6
CONTINUOUS
 10
187.4359340632
 20
117.3507556723
 11
187.3671095102
 21
129.5060879113
  0
LINE
  5
2A2
100
AcDbEntity
  8
0
100
AcDbLine
 62
7
  6
CONTINUOUS
 10
212.0327116647
 20
171.4430281419
 11
203.0246442596
 21
154.8520565202
  0
LINE
  5
2A3
100
AcDbEntity
  8
DTM_AXIS
100
AcDbLine
 62
7
  6
CONTINUOUS
 10
241.8008466104
 20
70.0114904161
 11
238.4501121934
 21
69.9618982317
  0
LINE
  5
2A4
100
AcDbEntity
  8
DTM_AXIS
100
AcDbLine
 62
7
  6
CONTINUOUS
 10
240.6682442657
 20
70.9977251089
 11
237.3175098487
 21
70.9481329245
  0
LINE
  5
2A5
100
AcDbEntity
  8
DTM_AXIS
100
AcDbLine
 62
7
  6
CONTINUOUS
 10
236.184907504
 20
71.9343676174
 11
239.535641921
 21
71.9839598017
  0
LINE
  5
2A6
100
AcDbEntity
  8
DTM_AXIS
100
AcDbLine
 62
7
  6
CONTINUOUS
 10
235.0523051592
 20
72.9206023102
 11
238.4030395762
 21
72.9701944946
  0
LINE
  5
2A7
100
AcDbEntity
  8
DTM_AXIS
100
AcDbLine
 62
7
  6
CONTINUOUS
 10
237.2704372315
 20
73.9564291874
 11
233.9197028145
 21
73.906837003
  0
LINE
  5
2A8
100
AcDbEntity
  8
DTM_AXIS
100
AcDbLine
 62
7
  6
CONTINUOUS
 10
238.8917335048
 20
69.5773482081
 11
242.2810700046
 21
69.5933269063
  0
LINE
  5
2A9
100
AcDbEntity
  8
DTM_AXIS
100
AcDbLine
 62
7
  6
CONTINUOUS
 10
237.7591311601
 20
70.563582901
 11
241.1484676599
 21
70.5795615991
  0
LINE
  5
2AA
100
AcDbEntity
  8
DTM_AXIS
100
AcDbLine
 62
7
  6
CONTINUOUS
 10
240.0158653151
 20
71.565796292
 11
236.6265288153
 21
71.5498175938
  0
LINE
  5
2AB
100
AcDbEntity
  8
DTM_AXIS
100
AcDbLine
 62
7
  6
CONTINUOUS
 10
238.8832629704
 20
72.5520309848
 11
235.4939264706
 21
72.5360522866
  0
LINE
  5
2AC
100
AcDbEntity
  8
DTM_AXIS
100
AcDbLine
 62
7
  6
CONTINUOUS
 10
234.3613241258
 20
73.5222869795
 11
237.7506606257
 21
73.5382656776
  0
LINE
  5
2AD
100
AcDbEntity
  8
DTM_AXIS
100
AcDbLine
 62
7
  6
CONTINUOUS
 10
233.2287217811
 20
74.5085216723
 11
236.6180582809
 21
74.5245003705
  0
LINE
  5
2AE
100
AcDbEntity
  8
0
100
AcDbLine
 62
7
  6
CONTINUOUS
 10
233.4032603529
 20
55.7600473345
 11
165.2768035268
 21
115.0824348737
  0
LINE
  5
2AF
100
AcDbEntity
  8
DTM_AXIS
100
AcDbLine
 62
7
  6
CONTINUOUS
 10
189.0548948025
 20
113.3627263185
 11
189.0572303365
 21
112.971674693
  0
LINE
  5
2B0
100
AcDbEntity
  8
DTM_AXIS
100
AcDbLine
 62
7
  6
CONTINUOUS
 10
189.7048896546
 20
115.3783227773
 11
189.6323141996
 21
127.5336185256
  0
LINE
  5
2B1
100
AcDbEntity
  8
DTM_AXIS
100
AcDbLine
 62
7
  6
CONTINUOUS
 10
190.1874971472
 20
112.3764916257
 11
190.1898326812
 21
111.9854400002
  0
LINE
  5
2B2
100
AcDbEntity
  8
DTM_AXIS
100
AcDbLine
 62
7
  6
CONTINUOUS
 10
191.3200994919
 20
111.3902569328
 11
191.322435026
 21
110.9992053073
  0
LINE
  5
2B3
100
AcDbEntity
  8
DTM_AXIS
100
AcDbLine
 62
7
  6
CONTINUOUS
 10
191.3177153935
 20
113.9739245747
 11
191.2451399385
 21
126.129220323
  0
LINE
  5
2B4
100
AcDbEntity
  8
DTM_AXIS
100
AcDbLine
 62
7
  6
CONTINUOUS
 10
192.4527018367
 20
110.40402224
 11
192.4550373707
 21
110.0129706145
  0
LINE
  5
2B5
100
AcDbEntity
  8
DTM_AXIS
100
AcDbLine
 62
7
  6
CONTINUOUS
 10
192.4503177319
 20
112.9876909347
 11
192.3777422833
 21
125.1429856302
  0
LINE
  5
2B6
100
AcDbEntity
  8
DTM_AXIS
100
AcDbLine
 62
7
  6
CONTINUOUS
 10
193.1026966825
 20
112.4196197516
 11
193.0301212338
 21
124.5749144471
  0
LINE
  5
2B7
100
AcDbEntity
  8
DTM_AXIS
100
AcDbLine
 62
7
  6
CONTINUOUS
 10
193.5853041814
 20
109.4177875471
 11
193.5876397154
 21
109.0267359217
  0
LINE
  5
2B8
100
AcDbEntity
  8
DTM_AXIS
100
AcDbLine
 62
7
  6
CONTINUOUS
 10
194.2352990335
 20
111.433384006
 11
194.1627235786
 21
123.5886797543
  0
LINE
  5
2B9
100
AcDbEntity
  8
DTM_AXIS
100
AcDbLine
 62
7
  6
CONTINUOUS
 10
189.0487598021
 20
115.9463574697
 11
188.9799352491
 21
128.1016897087
  0
LINE
  5
2BA
100
AcDbEntity
  8
0
100
AcDbLine
 62
7
  6
CONTINUOUS
 10
188.9501304925
 20
143.2721449902
 11
188.9613213108
 21
141.2956975156
  0
LINE
  5
2BB
100
AcDbEntity
  8
DTM_AXIS
100
AcDbLine
 62
7
  6
CONTINUOUS
 10
190.1813621468
 20
114.9601227769
 11
190.1125375938
 21
127.1154550158
  0
LINE
  5
2BC
100
AcDbEntity
  8
DTM_AXIS
100
AcDbLine
 62
7
  6
CONTINUOUS
 10
190.8337410974
 20
114.3920515938
 11
190.7649165444
 21
126.5473838328
  0
LINE
  5
2BD
100
AcDbEntity
  8
DTM_AXIS
100
AcDbLine
 62
7
  6
CONTINUOUS
 10
191.9663434421
 20
113.405816901
 11
191.8975188891
 21
125.5611491399
  0
LINE
  5
2BE
100
AcDbEntity
  8
DTM_AXIS
100
AcDbLine
 62
7
  6
CONTINUOUS
 10
193.579169181
 20
112.0014186984
 11
193.510344628
 21
124.1567509373
  0
LINE
  5
2BF
100
AcDbEntity
  8
DTM_AXIS
100
AcDbLine
 62
7
  6
CONTINUOUS
 10
236.1378348868
 20
74.9426638803
 11
232.7871004698
 21
74.8930716959
  0
LINE
  5
2C0
100
AcDbEntity
  8
DTM_AXIS
100
AcDbLine
 62
7
  6
CONTINUOUS
 10
231.654498125
 20
75.8793063887
 11
235.005232542
 21
75.9288985731
  0
LINE
  5
2C1
100
AcDbEntity
  8
DTM_AXIS
100
AcDbLine
 62
7
  6
CONTINUOUS
 10
230.5218957803
 20
76.8655410816
 11
233.8726301973
 21
76.9151332659
  0
LINE
  5
2C2
100
AcDbEntity
  8
DTM_AXIS
100
AcDbLine
 62
7
  6
CONTINUOUS
 10
232.7400278526
 20
77.9013679588
 11
229.3892934356
 21
77.8517757744
  0
LINE
  5
2C3
100
AcDbEntity
  8
DTM_AXIS
100
AcDbLine
 62
7
  6
CONTINUOUS
 10
231.6074255078
 20
78.8876026516
 11
228.2566910908
 21
78.8380104672
  0
LINE
  5
2C4
100
AcDbEntity
  8
DTM_AXIS
100
AcDbLine
 62
7
  6
CONTINUOUS
 10
227.1240887461
 20
79.8242451601
 11
230.4748231631
 21
79.8738373444
  0
LINE
  5
2C5
100
AcDbEntity
  8
0
100
AcDbLine
 62
7
  6
CONTINUOUS
 10
249.1618468601
 20
76.5429129134
 11
248.2016169667
 21
76.5333017836
  0
LINE
  5
2C6
100
AcDbEntity
  8
0
100
AcDbLine
 62
7
  6
CONTINUOUS
 10
253.8366550851
 20
80.0107378704
 11
251.9959482518
 21
79.9928305259
  0
LINE
  5
2C7
100
AcDbEntity
  8
DTM_AXIS
100
AcDbLine
 62
7
  6
CONTINUOUS
 10
247.3975447469
 20
76.8151002345
 11
247.8752571752
 21
76.8174856811
  0
LINE
  5
2C8
100
AcDbEntity
  8
DTM_AXIS
100
AcDbLine
 62
7
  6
CONTINUOUS
 10
246.2648126249
 20
77.8013342793
 11
246.7426548305
 21
77.8037203739
  0
LINE
  5
2C9
100
AcDbEntity
  8
DTM_AXIS
100
AcDbLine
 62
7
  6
CONTINUOUS
 10
245.1322102802
 20
78.7875689721
 11
245.6100524858
 21
78.7899550667
  0
LINE
  5
2CA
100
AcDbEntity
  8
DTM_AXIS
100
AcDbLine
 62
7
  6
CONTINUOUS
 10
243.9997377127
 20
79.773804313
 11
244.477450141
 21
79.7761897596
  0
LINE
  5
2CB
100
AcDbEntity
  8
DTM_AXIS
100
AcDbLine
 62
7
  6
CONTINUOUS
 10
235.4854559362
 20
75.5107350633
 11
232.0961194364
 21
75.4947563651
  0
LINE
  5
2CC
100
AcDbEntity
  8
DTM_AXIS
100
AcDbLine
 62
7
  6
CONTINUOUS
 10
234.3528535915
 20
76.4969697562
 11
230.9635170916
 21
76.480991058
  0
LINE
  5
2CD
100
AcDbEntity
  8
DTM_AXIS
100
AcDbLine
 62
7
  6
CONTINUOUS
 10
229.8309147469
 20
77.4672257508
 11
233.2202512467
 21
77.483204449
  0
LINE
  5
2CE
100
AcDbEntity
  8
DTM_AXIS
100
AcDbLine
 62
7
  6
CONTINUOUS
 10
228.6983124022
 20
78.4534604437
 11
232.087648902
 21
78.4694391418
  0
LINE
  5
2CF
100
AcDbEntity
  8
DTM_AXIS
100
AcDbLine
 62
7
  6
CONTINUOUS
 10
230.9550465573
 20
79.4556738347
 11
227.5657100574
 21
79.4396951365
  0
LINE
  5
2D0
100
AcDbEntity
  8
0
100
AcDbLine
 62
7
  6
CONTINUOUS
 10
168.3891164312
 20
115.1127130572
 11
236.5155732573
 21
55.790325518
  0
LINE
  5
2D1
100
AcDbEntity
  8
0
100
AcDbLine
 62
7
  6
CONTINUOUS
 10
168.3799849884
 20
116.7254474166
 11
169.6714032701
 21
115.6009207738
  0
LINE
  5
2D2
100
AcDbEntity
  8
DTM_AXIS
100
AcDbLine
 62
7
  6
CONTINUOUS
 10
169.6714032701
 20
115.6009207738
 11
235.3849990425
 21
58.3795771634
  0
LINE
  5
2D3
100
AcDbEntity
  8
0
100
AcDbLine
 62
7
  6
CONTINUOUS
 10
235.3849990425
 20
58.3795771634
 11
236.5064418145
 21
57.4030598775
  0
LINE
  5
2D4
100
AcDbEntity
  8
DTM_AXIS
100
AcDbLine
 62
7
  6
CONTINUOUS
 10
194.7179065261
 20
108.4315528543
 11
194.7202420602
 21
108.0405012288
  0
LINE
  5
2D5
100
AcDbEntity
  8
DTM_AXIS
100
AcDbLine
 62
7
  6
CONTINUOUS
 10
195.8505088709
 20
107.4453181615
 11
195.8528444049
 21
107.054266536
  0
LINE
  5
2D6
100
AcDbEntity
  8
DTM_AXIS
100
AcDbLine
 62
7
  6
CONTINUOUS
 10
195.8481247724
 20
110.0289858034
 11
195.7755493175
 21
122.1842815516
  0
LINE
  5
2D7
100
AcDbEntity
  8
DTM_AXIS
100
AcDbLine
 62
7
  6
CONTINUOUS
 10
196.9831112156
 20
106.4590834686
 11
196.9854467496
 21
106.0680318431
  0
LINE
  5
2D8
100
AcDbEntity
  8
DTM_AXIS
100
AcDbLine
 62
7
  6
CONTINUOUS
 10
196.9807271109
 20
109.0427521633
 11
196.9081516622
 21
121.1980468588
  0
LINE
  5
2D9
100
AcDbEntity
  8
DTM_AXIS
100
AcDbLine
 62
7
  6
CONTINUOUS
 10
197.6331060614
 20
108.4746809802
 11
197.5605306128
 21
120.6299756757
  0
LINE
  5
2DA
100
AcDbEntity
  8
DTM_AXIS
100
AcDbLine
 62
7
  6
CONTINUOUS
 10
198.1157135603
 20
105.4728487758
 11
198.1180490944
 21
105.0817971503
  0
LINE
  5
2DB
100
AcDbEntity
  8
DTM_AXIS
100
AcDbLine
 62
7
  6
CONTINUOUS
 10
198.7657084125
 20
107.4884452346
 11
198.6931329575
 21
119.6437409829
  0
LINE
  5
2DC
100
AcDbEntity
  8
DTM_AXIS
100
AcDbLine
 62
7
  6
CONTINUOUS
 10
199.2483159051
 20
104.4866140829
 11
199.2506514391
 21
104.0955624575
  0
LINE
  5
2DD
100
AcDbEntity
  8
DTM_AXIS
100
AcDbLine
 62
7
  6
CONTINUOUS
 10
200.3809182498
 20
103.5003793901
 11
200.3832537838
 21
103.1093277646
  0
LINE
  5
2DE
100
AcDbEntity
  8
DTM_AXIS
100
AcDbLine
 62
7
  6
CONTINUOUS
 10
200.3785341514
 20
106.084047032
 11
200.3059586964
 21
118.2393427803
  0
LINE
  5
2DF
100
AcDbEntity
  8
DTM_AXIS
100
AcDbLine
 62
7
  6
CONTINUOUS
 10
194.7117715258
 20
111.0151840055
 11
194.6429469727
 21
123.1705162445
  0
LINE
  5
2E0
100
AcDbEntity
  8
DTM_AXIS
100
AcDbLine
 62
7
  6
CONTINUOUS
 10
195.3641504763
 20
110.4471128224
 11
195.2953259233
 21
122.6024450614
  0
LINE
  5
2E1
100
AcDbEntity
  8
DTM_AXIS
100
AcDbLine
 62
7
  6
CONTINUOUS
 10
196.4967528211
 20
109.4608781296
 11
196.427928268
 21
121.6162103686
  0
LINE
  5
2E2
100
AcDbEntity
  8
DTM_AXIS
100
AcDbLine
 62
7
  6
CONTINUOUS
 10
198.10957856
 20
108.056479927
 11
198.0407540069
 21
120.211812166
  0
LINE
  5
2E3
100
AcDbEntity
  8
DTM_AXIS
100
AcDbLine
 62
7
  6
CONTINUOUS
 10
199.2421809047
 20
107.0702452342
 11
199.1733563517
 21
119.2255774731
  0
LINE
  5
2E4
100
AcDbEntity
  8
DTM_AXIS
100
AcDbLine
 62
7
  6
CONTINUOUS
 10
199.8945598553
 20
106.5021740511
 11
199.8257353022
 21
118.6575062901
  0
LINE
  5
2E5
100
AcDbEntity
  8
0
100
AcDbLine
 62
7
  6
CONTINUOUS
 10
218.5325809587
 20
171.5062622193
 11
218.5117591328
 21
171.4506763975
  0
LINE
  5
2E6
100
AcDbEntity
  8
0
100
AcDbLine
 62
7
  6
CONTINUOUS
 10
168.8336901183
 20
126.5473253234
 11
165.2192122482
 21
125.2538213105
  0
LINE
  5
2E7
100
AcDbEntity
  8
DTM_AXIS
100
AcDbLine
 62
7
  6
CONTINUOUS
 10
225.9914864014
 20
80.8104798529
 11
229.3422208184
 21
80.8600720373
  0
LINE
  5
2E8
100
AcDbEntity
  8
DTM_AXIS
100
AcDbLine
 62
7
  6
CONTINUOUS
 10
228.2096184736
 20
81.8463067301
 11
224.8588840566
 21
81.7967145457
  0
LINE
  5
2E9
100
AcDbEntity
  8
DTM_AXIS
100
AcDbLine
 62
7
  6
CONTINUOUS
 10
227.0770161289
 20
82.832541423
 11
223.7262817119
 21
82.7829492386
  0
LINE
  5
2EA
100
AcDbEntity
  8
DTM_AXIS
100
AcDbLine
 62
7
  6
CONTINUOUS
 10
222.5936793671
 20
83.7691839314
 11
225.9444137842
 21
83.8187761158
  0
LINE
  5
2EB
100
AcDbEntity
  8
DTM_AXIS
100
AcDbLine
 62
7
  6
CONTINUOUS
 10
221.4610770224
 20
84.7554186243
 11
224.8118114394
 21
84.8050108086
  0
LINE
  5
2EC
100
AcDbEntity
  8
DTM_AXIS
100
AcDbLine
 62
7
  6
CONTINUOUS
 10
223.6792090947
 20
85.7912455015
 11
220.3284746777
 21
85.7416533171
  0
LINE
  5
2ED
100
AcDbEntity
  8
0
100
AcDbLine
 62
7
  6
CONTINUOUS
 10
275.9462706479
 20
81.0769200641
 11
269.9170615132
 21
81.0182648112
  0
LINE
  5
2EE
100
AcDbEntity
  8
0
100
AcDbLine
 62
7
  6
CONTINUOUS
 10
257.0877781369
 20
81.9733099764
 11
253.8257225164
 21
81.9415750187
  0
LINE
  5
2EF
100
AcDbEntity
  8
0
100
AcDbLine
 62
7
  6
CONTINUOUS
 10
264.653451768
 20
84.0234690922
 11
257.0765873186
 21
83.949757451
  0
LINE
  5
2F0
100
AcDbEntity
  8
DTM_AXIS
100
AcDbLine
 62
7
  6
CONTINUOUS
 10
242.8671353679
 20
80.7600390059
 11
243.3448477963
 21
80.7624244524
  0
LINE
  5
2F1
100
AcDbEntity
  8
DTM_AXIS
100
AcDbLine
 62
7
  6
CONTINUOUS
 10
241.734403246
 20
81.7462730507
 11
242.2122454516
 21
81.7486591453
  0
LINE
  5
2F2
100
AcDbEntity
  8
DTM_AXIS
100
AcDbLine
 62
7
  6
CONTINUOUS
 10
240.6018009013
 20
82.7325077435
 11
241.0796431068
 21
82.7348938381
  0
LINE
  5
2F3
100
AcDbEntity
  8
DTM_AXIS
100
AcDbLine
 62
7
  6
CONTINUOUS
 10
239.4693283337
 20
83.7187430844
 11
239.9470407621
 21
83.7211285309
  0
LINE
  5
2F4
100
AcDbEntity
  8
DTM_AXIS
100
AcDbLine
 62
7
  6
CONTINUOUS
 10
238.336725989
 20
84.7049777772
 11
238.8144384174
 21
84.7073632238
  0
LINE
  5
2F5
100
AcDbEntity
  8
DTM_AXIS
100
AcDbLine
 62
7
  6
CONTINUOUS
 10
237.2039938671
 20
85.691211822
 11
237.6818360726
 21
85.6935979166
  0
LINE
  5
2F6
100
AcDbEntity
  8
DTM_AXIS
100
AcDbLine
 62
7
  6
CONTINUOUS
 10
229.8224442125
 20
80.4419085275
 11
226.4331077127
 21
80.4259298293
  0
LINE
  5
2F7
100
AcDbEntity
  8
DTM_AXIS
100
AcDbLine
 62
7
  6
CONTINUOUS
 10
225.300505368
 20
81.4121645222
 11
228.6898418678
 21
81.4281432204
  0
LINE
  5
2F8
100
AcDbEntity
  8
DTM_AXIS
100
AcDbLine
 62
7
  6
CONTINUOUS
 10
224.1679030232
 20
82.398399215
 11
227.5572395231
 21
82.4143779132
  0
LINE
  5
2F9
100
AcDbEntity
  8
DTM_AXIS
100
AcDbLine
 62
7
  6
CONTINUOUS
 10
226.4246371783
 20
83.400612606
 11
223.0353006785
 21
83.3846339079
  0
LINE
  5
2FA
100
AcDbEntity
  8
DTM_AXIS
100
AcDbLine
 62
7
  6
CONTINUOUS
 10
225.2920348336
 20
84.3868472989
 11
221.9026983338
 21
84.3708686007
  0
LINE
  5
2FB
100
AcDbEntity
  8
DTM_AXIS
100
AcDbLine
 62
7
  6
CONTINUOUS
 10
220.770095989
 20
85.3571032935
 11
224.1594324889
 21
85.3730819917
  0
LINE
  5
2FC
100
AcDbEntity
  8
0
100
AcDbLine
 62
7
  6
CONTINUOUS
 10
172.8988520754
 20
120.6596468677
 11
174.1902703571
 21
119.5351202248
  0
LINE
  5
2FD
100
AcDbEntity
  8
DTM_AXIS
100
AcDbLine
 62
7
  6
CONTINUOUS
 10
174.1902703571
 20
119.5351202248
 11
239.9038661295
 21
62.3137766145
  0
LINE
  5
2FE
100
AcDbEntity
  8
0
100
AcDbLine
 62
7
  6
CONTINUOUS
 10
239.9038661295
 20
62.3137766145
 11
241.0253089015
 21
61.3372593285
  0
LINE
  5
2FF
100
AcDbEntity
  8
0
100
AcDbLine
 62
7
  6
CONTINUOUS
 10
244.1395732341
 20
61.3675564965
 11
176.013116408
 21
120.6899440357
  0
LINE
  5
300
100
AcDbEntity
  8
DTM_AXIS
100
AcDbLine
 62
7
  6
CONTINUOUS
 10
201.5135205946
 20
102.5141446973
 11
201.5158561286
 21
102.1230930718
  0
LINE
  5
301
100
AcDbEntity
  8
DTM_AXIS
100
AcDbLine
 62
7
  6
CONTINUOUS
 10
201.5111364898
 20
105.0978133919
 11
201.4385610412
 21
117.2531080875
  0
LINE
  5
302
100
AcDbEntity
  8
DTM_AXIS
100
AcDbLine
 62
7
  6
CONTINUOUS
 10
202.1635154404
 20
104.5297422089
 11
202.0909399917
 21
116.6850369044
  0
LINE
  5
303
100
AcDbEntity
  8
DTM_AXIS
100
AcDbLine
 62
7
  6
CONTINUOUS
 10
202.6461229393
 20
101.5279100044
 11
202.6484584733
 21
101.136858379
  0
LINE
  5
304
100
AcDbEntity
  8
DTM_AXIS
100
AcDbLine
 62
7
  6
CONTINUOUS
 10
203.2961177914
 20
103.5435064633
 11
203.2235423365
 21
115.6988022115
  0
LINE
  5
305
100
AcDbEntity
  8
DTM_AXIS
100
AcDbLine
 62
7
  6
CONTINUOUS
 10
203.778725284
 20
100.5416753116
 11
203.781060818
 21
100.1506236861
  0
LINE
  5
306
100
AcDbEntity
  8
DTM_AXIS
100
AcDbLine
 62
7
  6
CONTINUOUS
 10
204.9113276288
 20
99.5554406187
 11
204.9136631628
 21
99.1643889933
  0
LINE
  5
307
100
AcDbEntity
  8
DTM_AXIS
100
AcDbLine
 62
7
  6
CONTINUOUS
 10
204.9089435303
 20
102.1391082607
 11
204.8363680754
 21
114.2944040089
  0
LINE
  5
308
100
AcDbEntity
  8
DTM_AXIS
100
AcDbLine
 62
7
  6
CONTINUOUS
 10
206.0439299735
 20
98.5692059259
 11
206.0462655075
 21
98.1781543004
  0
LINE
  5
309
100
AcDbEntity
  8
DTM_AXIS
100
AcDbLine
 62
7
  6
CONTINUOUS
 10
206.0415458687
 20
101.1528746206
 11
205.9689704201
 21
113.3081693161
  0
LINE
  5
30A
100
AcDbEntity
  8
DTM_AXIS
100
AcDbLine
 62
7
  6
CONTINUOUS
 10
201.0271622
 20
105.5159393583
 11
200.958337647
 21
117.6712715972
  0
LINE
  5
30B
100
AcDbEntity
  8
DTM_AXIS
100
AcDbLine
 62
7
  6
CONTINUOUS
 10
202.6399879389
 20
104.1115411557
 11
202.5711633859
 21
116.2668733946
  0
LINE
  5
30C
100
AcDbEntity
  8
0
100
AcDbLine
 62
7
  6
CONTINUOUS
 10
202.557719174
 20
153.0039187718
 11
202.5672241056
 21
151.3252213143
  0
LINE
  5
30D
100
AcDbEntity
  8
DTM_AXIS
100
AcDbLine
 62
7
  6
CONTINUOUS
 10
203.7725902836
 20
103.1253064628
 11
203.7037657306
 21
115.2806387018
  0
LINE
  5
30E
100
AcDbEntity
  8
DTM_AXIS
100
AcDbLine
 62
7
  6
CONTINUOUS
 10
204.4249692342
 20
102.5572352797
 11
204.3561446812
 21
114.7125675187
  0
LINE
  5
30F
100
AcDbEntity
  8
DTM_AXIS
100
AcDbLine
 62
7
  6
CONTINUOUS
 10
205.5575715789
 20
101.5710005869
 11
205.4887470259
 21
113.7263328259
  0
LINE
  5
310
100
AcDbEntity
  8
0
100
AcDbLine
 62
7
  6
CONTINUOUS
 10
165.3115853967
 20
119.1958198489
 11
165.2536305096
 21
119.1750981771
  0
LINE
  5
311
100
AcDbEntity
  8
DTM_AXIS
100
AcDbLine
 62
7
  6
CONTINUOUS
 10
222.54660675
 20
86.7774801943
 11
219.1958723329
 21
86.7278880099
  0
LINE
  5
312
100
AcDbEntity
  8
DTM_AXIS
100
AcDbLine
 62
7
  6
CONTINUOUS
 10
218.0632699882
 20
87.7141227028
 11
221.4140044052
 21
87.7637148872
  0
LINE
  5
313
100
AcDbEntity
  8
DTM_AXIS
100
AcDbLine
 62
7
  6
CONTINUOUS
 10
216.9306676435
 20
88.7003573956
 11
220.2814020605
 21
88.74994958
  0
LINE
  5
314
100
AcDbEntity
  8
DTM_AXIS
100
AcDbLine
 62
7
  6
CONTINUOUS
 10
219.1487997158
 20
89.7361842728
 11
215.7980652987
 21
89.6865920885
  0
LINE
  5
315
100
AcDbEntity
  8
DTM_AXIS
100
AcDbLine
 62
7
  6
CONTINUOUS
 10
218.016197371
 20
90.7224189657
 11
214.665462954
 21
90.6728267813
  0
LINE
  5
316
100
AcDbEntity
  8
DTM_AXIS
100
AcDbLine
 62
7
  6
CONTINUOUS
 10
236.0713915223
 20
86.6774465149
 11
236.5492337279
 21
86.6798326095
  0
LINE
  5
317
100
AcDbEntity
  8
DTM_AXIS
100
AcDbLine
 62
7
  6
CONTINUOUS
 10
234.9389189548
 20
87.6636818557
 11
235.4166313832
 21
87.6660673023
  0
LINE
  5
318
100
AcDbEntity
  8
DTM_AXIS
100
AcDbLine
 62
7
  6
CONTINUOUS
 10
233.8063166101
 20
88.6499165486
 11
234.2840290384
 21
88.6523019951
  0
LINE
  5
319
100
AcDbEntity
  8
DTM_AXIS
100
AcDbLine
 62
7
  6
CONTINUOUS
 10
232.6735844881
 20
89.6361505934
 11
233.1514266937
 21
89.638536688
  0
LINE
  5
31A
100
AcDbEntity
  8
DTM_AXIS
100
AcDbLine
 62
7
  6
CONTINUOUS
 10
231.5409821434
 20
90.6223852862
 11
232.018824349
 21
90.6247713808
  0
LINE
  5
31B
100
AcDbEntity
  8
DTM_AXIS
100
AcDbLine
 62
7
  6
CONTINUOUS
 10
230.4085095759
 20
91.6086206271
 11
230.8862220042
 21
91.6110060736
  0
LINE
  5
31C
100
AcDbEntity
  8
DTM_AXIS
100
AcDbLine
 62
7
  6
CONTINUOUS
 10
219.6374936443
 20
86.3433379864
 11
223.0268301441
 21
86.3593166846
  0
LINE
  5
31D
100
AcDbEntity
  8
DTM_AXIS
100
AcDbLine
 62
7
  6
CONTINUOUS
 10
221.8942277994
 20
87.3455513774
 11
218.5048912996
 21
87.3295726792
  0
LINE
  5
31E
100
AcDbEntity
  8
DTM_AXIS
100
AcDbLine
 62
7
  6
CONTINUOUS
 10
220.7616254547
 20
88.3317860702
 11
217.3722889548
 21
88.315807372
  0
LINE
  5
31F
100
AcDbEntity
  8
DTM_AXIS
100
AcDbLine
 62
7
  6
CONTINUOUS
 10
216.2396866101
 20
89.3020420649
 11
219.6290231099
 21
89.3180207631
  0
LINE
  5
320
100
AcDbEntity
  8
DTM_AXIS
100
AcDbLine
 62
7
  6
CONTINUOUS
 10
215.1070842654
 20
90.2882767577
 11
218.4964207652
 21
90.3042554559
  0
LINE
  5
321
100
AcDbEntity
  8
DTM_AXIS
100
AcDbLine
 62
7
  6
CONTINUOUS
 10
217.3638184205
 20
91.2904901487
 11
213.9744819206
 21
91.2745114506
  0
LINE
  5
322
100
AcDbEntity
  8
0
100
AcDbLine
 62
7
  6
CONTINUOUS
 10
175.995383152
 20
123.6599973505
 11
244.1218399781
 21
64.3376098113
  0
LINE
  5
323
100
AcDbEntity
  8
DTM_AXIS
100
AcDbLine
 62
7
  6
CONTINUOUS
 10
244.5547452285
 20
64.6461747439
 11
244.1131239171
 21
65.0307247675
  0
LINE
  5
324
100
AcDbEntity
  8
DTM_AXIS
100
AcDbLine
 62
7
  6
CONTINUOUS
 10
241.1569381943
 20
67.6048788224
 11
240.7153168829
 21
67.989428846
  0
LINE
  5
325
100
AcDbEntity
  8
DTM_AXIS
100
AcDbLine
 62
7
  6
CONTINUOUS
 10
240.0243358495
 20
68.5911135153
 11
239.5827145382
 21
68.9756635388
  0
LINE
  5
326
100
AcDbEntity
  8
DTM_AXIS
100
AcDbLine
 62
7
  6
CONTINUOUS
 10
236.6265288153
 20
71.5498175938
 11
236.184907504
 21
71.9343676174
  0
LINE
  5
327
100
AcDbEntity
  8
DTM_AXIS
100
AcDbLine
 62
7
  6
CONTINUOUS
 10
235.4939264706
 20
72.5360522866
 11
235.0523051592
 21
72.9206023102
  0
LINE
  5
328
100
AcDbEntity
  8
DTM_AXIS
100
AcDbLine
 62
7
  6
CONTINUOUS
 10
232.0961194364
 20
75.4947563651
 11
231.654498125
 21
75.8793063887
  0
LINE
  5
329
100
AcDbEntity
  8
DTM_AXIS
100
AcDbLine
 62
7
  6
CONTINUOUS
 10
230.9635170916
 20
76.480991058
 11
230.5218957803
 21
76.8655410816
  0
LINE
  5
32A
100
AcDbEntity
  8
DTM_AXIS
100
AcDbLine
 62
7
  6
CONTINUOUS
 10
227.5657100574
 20
79.4396951365
 11
227.1240887461
 21
79.8242451601
  0
LINE
  5
32B
100
AcDbEntity
  8
DTM_AXIS
100
AcDbLine
 62
7
  6
CONTINUOUS
 10
226.4331077127
 20
80.4259298293
 11
225.9914864014
 21
80.8104798529
  0
LINE
  5
32C
100
AcDbEntity
  8
DTM_AXIS
100
AcDbLine
 62
7
  6
CONTINUOUS
 10
223.0353006785
 20
83.3846339079
 11
222.5936793671
 21
83.7691839314
  0
LINE
  5
32D
100
AcDbEntity
  8
DTM_AXIS
100
AcDbLine
 62
7
  6
CONTINUOUS
 10
221.9026983338
 20
84.3708686007
 11
221.4610770224
 21
84.7554186243
  0
LINE
  5
32E
100
AcDbEntity
  8
DTM_AXIS
100
AcDbLine
 62
7
  6
CONTINUOUS
 10
218.5048912996
 20
87.3295726792
 11
218.0632699882
 21
87.7141227028
  0
LINE
  5
32F
100
AcDbEntity
  8
DTM_AXIS
100
AcDbLine
 62
7
  6
CONTINUOUS
 10
217.3722889548
 20
88.315807372
 11
216.9306676435
 21
88.7003573956
  0
LINE
  5
330
100
AcDbEntity
  8
DTM_AXIS
100
AcDbLine
 62
7
  6
CONTINUOUS
 10
213.9744819206
 20
91.2745114506
 11
213.5328606093
 21
91.6590614741
  0
LINE
  5
331
100
AcDbEntity
  8
DTM_AXIS
100
AcDbLine
 62
7
  6
CONTINUOUS
 10
212.8418795759
 20
92.2607461434
 11
212.4002582645
 21
92.645296167
  0
LINE
  5
332
100
AcDbEntity
  8
DTM_AXIS
100
AcDbLine
 62
7
  6
CONTINUOUS
 10
209.4440725417
 20
95.2194502219
 11
209.0024512303
 21
95.6040002455
  0
LINE
  5
333
100
AcDbEntity
  8
DTM_AXIS
100
AcDbLine
 62
7
  6
CONTINUOUS
 10
208.311470197
 20
96.2056849148
 11
207.8698488856
 21
96.5902349383
  0
LINE
  5
334
100
AcDbEntity
  8
DTM_AXIS
100
AcDbLine
 62
7
  6
CONTINUOUS
 10
204.9136631628
 20
99.1643889933
 11
204.4720418514
 21
99.5489390168
  0
LINE
  5
335
100
AcDbEntity
  8
DTM_AXIS
100
AcDbLine
 62
7
  6
CONTINUOUS
 10
203.781060818
 20
100.1506236861
 11
203.3394395067
 21
100.5351737097
  0
LINE
  5
336
100
AcDbEntity
  8
DTM_AXIS
100
AcDbLine
 62
7
  6
CONTINUOUS
 10
200.3832537838
 20
103.1093277646
 11
199.9416324725
 21
103.4938777882
  0
LINE
  5
337
100
AcDbEntity
  8
DTM_AXIS
100
AcDbLine
 62
7
  6
CONTINUOUS
 10
199.2506514391
 20
104.0955624575
 11
198.8090301277
 21
104.480112481
  0
LINE
  5
338
100
AcDbEntity
  8
DTM_AXIS
100
AcDbLine
 62
7
  6
CONTINUOUS
 10
195.8528444049
 20
107.054266536
 11
195.4112230935
 21
107.4388165596
  0
LINE
  5
339
100
AcDbEntity
  8
DTM_AXIS
100
AcDbLine
 62
7
  6
CONTINUOUS
 10
194.7202420602
 20
108.0405012288
 11
194.2786207488
 21
108.4250512524
  0
LINE
  5
33A
100
AcDbEntity
  8
DTM_AXIS
100
AcDbLine
 62
7
  6
CONTINUOUS
 10
191.322435026
 20
110.9992053073
 11
190.8808137146
 21
111.3837553309
  0
LINE
  5
33B
100
AcDbEntity
  8
DTM_AXIS
100
AcDbLine
 62
7
  6
CONTINUOUS
 10
190.1898326812
 20
111.9854400002
 11
189.7482113699
 21
112.3699900237
  0
LINE
  5
33C
100
AcDbEntity
  8
DTM_AXIS
100
AcDbLine
 62
7
  6
CONTINUOUS
 10
186.792025647
 20
114.9441440787
 11
186.3504043357
 21
115.3286941023
  0
LINE
  5
33D
100
AcDbEntity
  8
DTM_AXIS
100
AcDbLine
 62
7
  6
CONTINUOUS
 10
185.6594233023
 20
115.9303787715
 11
185.2178019909
 21
116.3149287951
  0
LINE
  5
33E
100
AcDbEntity
  8
DTM_AXIS
100
AcDbLine
 62
7
  6
CONTINUOUS
 10
182.2616162681
 20
118.8890828501
 11
181.8199949567
 21
119.2736328736
  0
LINE
  5
33F
100
AcDbEntity
  8
DTM_AXIS
100
AcDbLine
 62
7
  6
CONTINUOUS
 10
181.1290139234
 20
119.8753175429
 11
180.687392612
 21
120.2598675665
  0
LINE
  5
340
100
AcDbEntity
  8
DTM_AXIS
100
AcDbLine
 62
7
  6
CONTINUOUS
 10
177.7312068892
 20
122.8340216214
 11
177.2895855778
 21
123.218571645
  0
LINE
  5
341
100
AcDbEntity
  8
DTM_AXIS
100
AcDbLine
 62
7
  6
CONTINUOUS
 10
178.4221879225
 20
122.2323369521
 11
178.8638092339
 21
121.8477869286
  0
LINE
  5
342
100
AcDbEntity
  8
DTM_AXIS
100
AcDbLine
 62
7
  6
CONTINUOUS
 10
179.5547902673
 20
121.2461022593
 11
179.9964115786
 21
120.8615522357
  0
LINE
  5
343
100
AcDbEntity
  8
DTM_AXIS
100
AcDbLine
 62
7
  6
CONTINUOUS
 10
182.9525973015
 20
118.2873981808
 11
183.3942186128
 21
117.9028481572
  0
LINE
  5
344
100
AcDbEntity
  8
DTM_AXIS
100
AcDbLine
 62
7
  6
CONTINUOUS
 10
184.0851996462
 20
117.3011634879
 11
184.5268209576
 21
116.9166134644
  0
LINE
  5
345
100
AcDbEntity
  8
DTM_AXIS
100
AcDbLine
 62
7
  6
CONTINUOUS
 10
187.4830066804
 20
114.3424594094
 11
187.9246279918
 21
113.9579093859
  0
LINE
  5
346
100
AcDbEntity
  8
DTM_AXIS
100
AcDbLine
 62
7
  6
CONTINUOUS
 10
188.6156090251
 20
113.3562247166
 11
189.0572303365
 21
112.971674693
  0
LINE
  5
347
100
AcDbEntity
  8
DTM_AXIS
100
AcDbLine
 62
7
  6
CONTINUOUS
 10
192.0134160593
 20
110.3975206381
 11
192.4550373707
 21
110.0129706145
  0
LINE
  5
348
100
AcDbEntity
  8
DTM_AXIS
100
AcDbLine
 62
7
  6
CONTINUOUS
 10
193.1460184041
 20
109.4112859452
 11
193.5876397154
 21
109.0267359217
  0
LINE
  5
349
100
AcDbEntity
  8
DTM_AXIS
100
AcDbLine
 62
7
  6
CONTINUOUS
 10
196.5438254383
 20
106.4525818667
 11
196.9854467496
 21
106.0680318431
  0
LINE
  5
34A
100
AcDbEntity
  8
DTM_AXIS
100
AcDbLine
 62
7
  6
CONTINUOUS
 10
197.676427783
 20
105.4663471739
 11
198.1180490944
 21
105.0817971503
  0
LINE
  5
34B
100
AcDbEntity
  8
DTM_AXIS
100
AcDbLine
 62
7
  6
CONTINUOUS
 10
201.0742348172
 20
102.5076430954
 11
201.5158561286
 21
102.1230930718
  0
LINE
  5
34C
100
AcDbEntity
  8
DTM_AXIS
100
AcDbLine
 62
7
  6
CONTINUOUS
 10
202.2068371619
 20
101.5214084025
 11
202.6484584733
 21
101.136858379
  0
LINE
  5
34D
100
AcDbEntity
  8
DTM_AXIS
100
AcDbLine
 62
7
  6
CONTINUOUS
 10
205.6046441961
 20
98.562704324
 11
206.0462655075
 21
98.1781543004
  0
LINE
  5
34E
100
AcDbEntity
  8
DTM_AXIS
100
AcDbLine
 62
7
  6
CONTINUOUS
 10
206.7372465409
 20
97.5764696312
 11
207.1788678522
 21
97.1919196076
  0
LINE
  5
34F
100
AcDbEntity
  8
DTM_AXIS
100
AcDbLine
 62
7
  6
CONTINUOUS
 10
210.1350535751
 20
94.6177655527
 11
210.5766748864
 21
94.2332155291
  0
LINE
  5
350
100
AcDbEntity
  8
DTM_AXIS
100
AcDbLine
 62
7
  6
CONTINUOUS
 10
211.2676559198
 20
93.6315308598
 11
211.7092772312
 21
93.2469808362
  0
LINE
  5
351
100
AcDbEntity
  8
DTM_AXIS
100
AcDbLine
 62
7
  6
CONTINUOUS
 10
214.665462954
 20
90.6728267813
 11
215.1070842654
 21
90.2882767577
  0
LINE
  5
352
100
AcDbEntity
  8
DTM_AXIS
100
AcDbLine
 62
7
  6
CONTINUOUS
 10
215.7980652987
 20
89.6865920885
 11
216.2396866101
 21
89.3020420649
  0
LINE
  5
353
100
AcDbEntity
  8
DTM_AXIS
100
AcDbLine
 62
7
  6
CONTINUOUS
 10
219.1958723329
 20
86.7278880099
 11
219.6374936443
 21
86.3433379864
  0
LINE
  5
354
100
AcDbEntity
  8
DTM_AXIS
100
AcDbLine
 62
7
  6
CONTINUOUS
 10
220.3284746777
 20
85.7416533171
 11
220.770095989
 21
85.3571032935
  0
LINE
  5
355
100
AcDbEntity
  8
DTM_AXIS
100
AcDbLine
 62
7
  6
CONTINUOUS
 10
223.7262817119
 20
82.7829492386
 11
224.1679030232
 21
82.398399215
  0
LINE
  5
356
100
AcDbEntity
  8
DTM_AXIS
100
AcDbLine
 62
7
  6
CONTINUOUS
 10
224.8588840566
 20
81.7967145457
 11
225.300505368
 21
81.4121645222
  0
LINE
  5
357
100
AcDbEntity
  8
DTM_AXIS
100
AcDbLine
 62
7
  6
CONTINUOUS
 10
228.2566910908
 20
78.8380104672
 11
228.6983124022
 21
78.4534604437
  0
LINE
  5
358
100
AcDbEntity
  8
DTM_AXIS
100
AcDbLine
 62
7
  6
CONTINUOUS
 10
229.3892934356
 20
77.8517757744
 11
229.8309147469
 21
77.4672257508
  0
LINE
  5
359
100
AcDbEntity
  8
DTM_AXIS
100
AcDbLine
 62
7
  6
CONTINUOUS
 10
232.7871004698
 20
74.8930716959
 11
233.2287217811
 21
74.5085216723
  0
LINE
  5
35A
100
AcDbEntity
  8
DTM_AXIS
100
AcDbLine
 62
7
  6
CONTINUOUS
 10
233.9197028145
 20
73.906837003
 11
234.3613241258
 21
73.5222869795
  0
LINE
  5
35B
100
AcDbEntity
  8
DTM_AXIS
100
AcDbLine
 62
7
  6
CONTINUOUS
 10
237.3175098487
 20
70.9481329245
 11
237.7591311601
 21
70.563582901
  0
LINE
  5
35C
100
AcDbEntity
  8
DTM_AXIS
100
AcDbLine
 62
7
  6
CONTINUOUS
 10
238.4501121934
 20
69.9618982317
 11
238.8917335048
 21
69.5773482081
  0
LINE
  5
35D
100
AcDbEntity
  8
DTM_AXIS
100
AcDbLine
 62
7
  6
CONTINUOUS
 10
241.8479192276
 20
67.0031941532
 11
242.289540539
 21
66.6186441296
  0
LINE
  5
35E
100
AcDbEntity
  8
DTM_AXIS
100
AcDbLine
 62
7
  6
CONTINUOUS
 10
242.9805215724
 20
66.0169594603
 11
243.4221428837
 21
65.6324094368
  0
LINE
  5
35F
100
AcDbEntity
  8
0
100
AcDbLine
 62
7
  6
CONTINUOUS
 10
248.2741924216
 20
64.3780060353
 11
247.9478326302
 21
64.6621899328
  0
LINE
  5
360
100
AcDbEntity
  8
DTM_AXIS
100
AcDbLine
 62
7
  6
CONTINUOUS
 10
245.2024045466
 20
67.0528228282
 11
244.550025596
 21
67.6208940113
  0
LINE
  5
361
100
AcDbEntity
  8
DTM_AXIS
100
AcDbLine
 62
7
  6
CONTINUOUS
 10
244.0698022018
 20
68.0390575211
 11
243.4174232513
 21
68.6071287042
  0
LINE
  5
362
100
AcDbEntity
  8
DTM_AXIS
100
AcDbLine
 62
7
  6
CONTINUOUS
 10
239.5393928229
 20
71.9839962924
 11
238.8870138723
 21
72.5520674755
  0
LINE
  5
363
100
AcDbEntity
  8
DTM_AXIS
100
AcDbLine
 62
7
  6
CONTINUOUS
 10
236.1415857887
 20
74.942700371
 11
235.4892068381
 21
75.510771554
  0
LINE
  5
364
100
AcDbEntity
  8
DTM_AXIS
100
AcDbLine
 62
7
  6
CONTINUOUS
 10
235.0089834439
 20
75.9289350638
 11
234.3566044934
 21
76.4970062469
  0
LINE
  5
365
100
AcDbEntity
  8
DTM_AXIS
100
AcDbLine
 62
7
  6
CONTINUOUS
 10
230.478574065
 20
79.8738738352
 11
229.8261951144
 21
80.4419450182
  0
LINE
  5
366
100
AcDbEntity
  8
DTM_AXIS
100
AcDbLine
 62
7
  6
CONTINUOUS
 10
227.0807670308
 20
82.8325779137
 11
226.4283880802
 21
83.4006490967
  0
LINE
  5
367
100
AcDbEntity
  8
DTM_AXIS
100
AcDbLine
 62
7
  6
CONTINUOUS
 10
225.9481646861
 20
83.8188126065
 11
225.2957857355
 21
84.3868837896
  0
LINE
  5
368
100
AcDbEntity
  8
DTM_AXIS
100
AcDbLine
 62
7
  6
CONTINUOUS
 10
221.4177553071
 20
87.7637513779
 11
220.7653763566
 21
88.3318225609
  0
LINE
  5
369
100
AcDbEntity
  8
DTM_AXIS
100
AcDbLine
 62
7
  6
CONTINUOUS
 10
218.0199482729
 20
90.7224554564
 11
217.3675693224
 21
91.2905266395
  0
LINE
  5
36A
100
AcDbEntity
  8
DTM_AXIS
100
AcDbLine
 62
7
  6
CONTINUOUS
 10
216.8873459282
 20
91.7086901492
 11
216.2349669776
 21
92.2767613323
  0
LINE
  5
36B
100
AcDbEntity
  8
DTM_AXIS
100
AcDbLine
 62
7
  6
CONTINUOUS
 10
212.3569365493
 20
95.6536289206
 11
211.7045575987
 21
96.2217001036
  0
LINE
  5
36C
100
AcDbEntity
  8
DTM_AXIS
100
AcDbLine
 62
7
  6
CONTINUOUS
 10
208.9591295151
 20
98.6123329991
 11
208.3067505645
 21
99.1804041822
  0
LINE
  5
36D
100
AcDbEntity
  8
DTM_AXIS
100
AcDbLine
 62
7
  6
CONTINUOUS
 10
207.8265271703
 20
99.5985676919
 11
207.1741482198
 21
100.166638875
  0
LINE
  5
36E
100
AcDbEntity
  8
DTM_AXIS
100
AcDbLine
 62
7
  6
CONTINUOUS
 10
203.2961177914
 20
103.5435064633
 11
202.6437388408
 21
104.1115776464
  0
LINE
  5
36F
100
AcDbEntity
  8
DTM_AXIS
100
AcDbLine
 62
7
  6
CONTINUOUS
 10
199.8983107572
 20
106.5022105418
 11
199.2459318066
 21
107.0702817249
  0
LINE
  5
370
100
AcDbEntity
  8
DTM_AXIS
100
AcDbLine
 62
7
  6
CONTINUOUS
 10
198.7657084125
 20
107.4884452346
 11
198.1133294619
 21
108.0565164177
  0
LINE
  5
371
100
AcDbEntity
  8
DTM_AXIS
100
AcDbLine
 62
7
  6
CONTINUOUS
 10
194.2352990335
 20
111.433384006
 11
193.582920083
 21
112.0014551891
  0
LINE
  5
372
100
AcDbEntity
  8
DTM_AXIS
100
AcDbLine
 62
7
  6
CONTINUOUS
 10
190.8374919993
 20
114.3920880845
 11
190.1851130488
 21
114.9601592676
  0
LINE
  5
373
100
AcDbEntity
  8
DTM_AXIS
100
AcDbLine
 62
7
  6
CONTINUOUS
 10
189.7048896546
 20
115.3783227773
 11
189.052510704
 21
115.9463939604
  0
LINE
  5
374
100
AcDbEntity
  8
DTM_AXIS
100
AcDbLine
 62
7
  6
CONTINUOUS
 10
185.1744802757
 20
119.3232615487
 11
184.5221013251
 21
119.8913327318
  0
LINE
  5
375
100
AcDbEntity
  8
DTM_AXIS
100
AcDbLine
 62
7
  6
CONTINUOUS
 10
181.7766732414
 20
122.2819656272
 11
181.1242942909
 21
122.8500368103
  0
LINE
  5
376
100
AcDbEntity
  8
0
100
AcDbLine
 62
7
  6
CONTINUOUS
 10
180.6440708967
 20
123.2682003201
 11
180.1477355955
 21
123.7003935745
  0
LINE
  5
377
100
AcDbEntity
  8
DTM_AXIS
100
AcDbLine
 62
7
  6
CONTINUOUS
 10
182.2568966356
 20
121.8638021175
 11
182.9092755862
 21
121.2957309344
  0
LINE
  5
378
100
AcDbEntity
  8
DTM_AXIS
100
AcDbLine
 62
7
  6
CONTINUOUS
 10
185.6547036698
 20
118.9050980389
 11
186.3070826204
 21
118.3370268559
  0
LINE
  5
379
100
AcDbEntity
  8
DTM_AXIS
100
AcDbLine
 62
7
  6
CONTINUOUS
 10
186.7873060146
 20
117.9188633461
 11
187.4396849651
 21
117.350792163
  0
LINE
  5
37A
100
AcDbEntity
  8
DTM_AXIS
100
AcDbLine
 62
7
  6
CONTINUOUS
 10
191.3177153935
 20
113.9739245747
 11
191.9700943441
 21
113.4058533917
  0
LINE
  5
37B
100
AcDbEntity
  8
DTM_AXIS
100
AcDbLine
 62
7
  6
CONTINUOUS
 10
194.7155224277
 20
111.0152204962
 11
195.3679013783
 21
110.4471493132
  0
LINE
  5
37C
100
AcDbEntity
  8
DTM_AXIS
100
AcDbLine
 62
7
  6
CONTINUOUS
 10
195.8481247724
 20
110.0289858034
 11
196.500503723
 21
109.4609146203
  0
LINE
  5
37D
100
AcDbEntity
  8
DTM_AXIS
100
AcDbLine
 62
7
  6
CONTINUOUS
 10
200.3785341514
 20
106.084047032
 11
201.0309131019
 21
105.515975849
  0
LINE
  5
37E
100
AcDbEntity
  8
DTM_AXIS
100
AcDbLine
 62
7
  6
CONTINUOUS
 10
203.7763411856
 20
103.1253429535
 11
204.4287201361
 21
102.5572717704
  0
LINE
  5
37F
100
AcDbEntity
  8
DTM_AXIS
100
AcDbLine
 62
7
  6
CONTINUOUS
 10
204.9089435303
 20
102.1391082607
 11
205.5613224809
 21
101.5710370776
  0
LINE
  5
380
100
AcDbEntity
  8
DTM_AXIS
100
AcDbLine
 62
7
  6
CONTINUOUS
 10
209.4393529092
 20
98.1941694893
 11
210.0917318598
 21
97.6260983062
  0
LINE
  5
381
100
AcDbEntity
  8
DTM_AXIS
100
AcDbLine
 62
7
  6
CONTINUOUS
 10
212.8371599434
 20
95.2354654108
 11
213.489538894
 21
94.6673942277
  0
LINE
  5
382
100
AcDbEntity
  8
DTM_AXIS
100
AcDbLine
 62
7
  6
CONTINUOUS
 10
213.9697622882
 20
94.249230718
 11
214.6221412387
 21
93.6811595349
  0
LINE
  5
383
100
AcDbEntity
  8
DTM_AXIS
100
AcDbLine
 62
7
  6
CONTINUOUS
 10
218.5001716671
 20
90.3042919466
 11
219.1525506177
 21
89.7362207635
  0
LINE
  5
384
100
AcDbEntity
  8
DTM_AXIS
100
AcDbLine
 62
7
  6
CONTINUOUS
 10
221.8979787013
 20
87.3455878681
 11
222.5503576519
 21
86.777516685
  0
LINE
  5
385
100
AcDbEntity
  8
DTM_AXIS
100
AcDbLine
 62
7
  6
CONTINUOUS
 10
223.030581046
 20
86.3593531753
 11
223.6829599966
 21
85.7912819922
  0
LINE
  5
386
100
AcDbEntity
  8
DTM_AXIS
100
AcDbLine
 62
7
  6
CONTINUOUS
 10
227.560990425
 20
82.4144144039
 11
228.2133693755
 21
81.8463432208
  0
LINE
  5
387
100
AcDbEntity
  8
DTM_AXIS
100
AcDbLine
 62
7
  6
CONTINUOUS
 10
230.9587974592
 20
79.4557103254
 11
231.6111764097
 21
78.8876391423
  0
LINE
  5
388
100
AcDbEntity
  8
DTM_AXIS
100
AcDbLine
 62
7
  6
CONTINUOUS
 10
232.0913998039
 20
78.4694756325
 11
232.7437787545
 21
77.9014044495
  0
LINE
  5
389
100
AcDbEntity
  8
DTM_AXIS
100
AcDbLine
 62
7
  6
CONTINUOUS
 10
236.6218091828
 20
74.5245368612
 11
237.2741881334
 21
73.9564656781
  0
LINE
  5
38A
100
AcDbEntity
  8
DTM_AXIS
100
AcDbLine
 62
7
  6
CONTINUOUS
 10
240.019616217
 20
71.5658327827
 11
240.6719951676
 21
70.9977615996
  0
LINE
  5
38B
100
AcDbEntity
  8
DTM_AXIS
100
AcDbLine
 62
7
  6
CONTINUOUS
 10
241.1522185618
 20
70.5795980898
 11
241.8045975123
 21
70.0115269068
  0
LINE
  5
38C
100
AcDbEntity
  8
DTM_AXIS
100
AcDbLine
 62
7
  6
CONTINUOUS
 10
245.6826279407
 20
66.6346593185
 11
246.3350068913
 21
66.0665881354
  0
LINE
  5
38D
100
AcDbEntity
  8
DTM_AXIS
100
AcDbLine
 62
7
  6
CONTINUOUS
 10
238.4067904719
 20
72.970232038
 11
237.7544115213
 21
73.5383032211
  0
LINE
  5
38E
100
AcDbEntity
  8
DTM_AXIS
100
AcDbLine
 62
7
  6
CONTINUOUS
 10
224.8155623351
 20
84.8050483521
 11
224.1631833845
 21
85.3731195352
  0
LINE
  5
38F
100
AcDbEntity
  8
DTM_AXIS
100
AcDbLine
 62
7
  6
CONTINUOUS
 10
220.2851529561
 20
88.7499871234
 11
219.6327740056
 21
89.3180583065
  0
LINE
  5
390
100
AcDbEntity
  8
DTM_AXIS
100
AcDbLine
 62
7
  6
CONTINUOUS
 10
215.7547435772
 20
92.6949258948
 11
215.1023646266
 21
93.2629970779
  0
LINE
  5
391
100
AcDbEntity
  8
DTM_AXIS
100
AcDbLine
 62
7
  6
CONTINUOUS
 10
202.1635154404
 20
104.5297422089
 11
201.5111364898
 21
105.0978133919
  0
LINE
  5
392
100
AcDbEntity
  8
DTM_AXIS
100
AcDbLine
 62
7
  6
CONTINUOUS
 10
197.6331060614
 20
108.4746809802
 11
196.9807271109
 21
109.0427521633
  0
LINE
  5
393
100
AcDbEntity
  8
DTM_AXIS
100
AcDbLine
 62
7
  6
CONTINUOUS
 10
188.5722873036
 20
116.3645585229
 11
187.919908353
 21
116.932629706
  0
LINE
  5
394
100
AcDbEntity
  8
DTM_AXIS
100
AcDbLine
 62
7
  6
CONTINUOUS
 10
183.3894989741
 20
120.8775684774
 11
184.0418779246
 21
120.3094972943
  0
LINE
  5
395
100
AcDbEntity
  8
DTM_AXIS
100
AcDbLine
 62
7
  6
CONTINUOUS
 10
192.4503177319
 20
112.9876909347
 11
193.1026966825
 21
112.4196197516
  0
LINE
  5
396
100
AcDbEntity
  8
DTM_AXIS
100
AcDbLine
 62
7
  6
CONTINUOUS
 10
206.0415458687
 20
101.1528746206
 11
206.6939248193
 21
100.5848034375
  0
LINE
  5
397
100
AcDbEntity
  8
DTM_AXIS
100
AcDbLine
 62
7
  6
CONTINUOUS
 10
210.5719552477
 20
97.2079358492
 11
211.2243341982
 21
96.6398646662
  0
LINE
  5
398
100
AcDbEntity
  8
DTM_AXIS
100
AcDbLine
 62
7
  6
CONTINUOUS
 10
228.6935927634
 20
81.4281807638
 11
229.345971714
 21
80.8601095807
  0
LINE
  5
399
100
AcDbEntity
  8
DTM_AXIS
100
AcDbLine
 62
7
  6
CONTINUOUS
 10
233.2240021424
 20
77.4832419925
 11
233.8763810929
 21
76.9151708094
  0
LINE
  5
39A
100
AcDbEntity
  8
DTM_AXIS
100
AcDbLine
 62
7
  6
CONTINUOUS
 10
242.2848209002
 20
69.5933644497
 11
242.9371998508
 21
69.0252932667
  0
LINE
  5
39B
100
AcDbEntity
  8
DTM_AXIS
100
AcDbLine
 62
7
  6
CONTINUOUS
 10
246.8152302792
 20
65.6484256784
 11
247.4676092297
 21
65.0803544953
  0
LINE
  5
39C
100
AcDbEntity
  8
DTM_AXIS
100
AcDbLine
 62
7
  6
CONTINUOUS
 10
206.6939248193
 20
100.5848034375
 11
206.6213493707
 21
112.740098133
  0
LINE
  5
39D
100
AcDbEntity
  8
DTM_AXIS
100
AcDbLine
 62
7
  6
CONTINUOUS
 10
207.1765323182
 20
97.5829712331
 11
207.1788678522
 21
97.1919196076
  0
LINE
  5
39E
100
AcDbEntity
  8
DTM_AXIS
100
AcDbLine
 62
7
  6
CONTINUOUS
 10
207.8265271703
 20
99.5985676919
 11
207.7539517154
 21
111.7538634402
  0
LINE
  5
39F
100
AcDbEntity
  8
DTM_AXIS
100
AcDbLine
 62
7
  6
CONTINUOUS
 10
208.309134663
 20
96.5967365402
 11
208.311470197
 21
96.2056849148
  0
LINE
  5
3A0
100
AcDbEntity
  8
DTM_AXIS
100
AcDbLine
 62
7
  6
CONTINUOUS
 10
209.4417370077
 20
95.6105018474
 11
209.4440725417
 21
95.2194502219
  0
LINE
  5
3A1
100
AcDbEntity
  8
DTM_AXIS
100
AcDbLine
 62
7
  6
CONTINUOUS
 10
209.4393529092
 20
98.1941694893
 11
209.3667774543
 21
110.3494652376
  0
LINE
  5
3A2
100
AcDbEntity
  8
DTM_AXIS
100
AcDbLine
 62
7
  6
CONTINUOUS
 10
210.5743393524
 20
94.6242671546
 11
210.5766748864
 21
94.2332155291
  0
LINE
  5
3A3
100
AcDbEntity
  8
DTM_AXIS
100
AcDbLine
 62
7
  6
CONTINUOUS
 10
210.5719552477
 20
97.2079358492
 11
210.499379799
 21
109.3632305447
  0
LINE
  5
3A4
100
AcDbEntity
  8
DTM_AXIS
100
AcDbLine
 62
7
  6
CONTINUOUS
 10
211.2243341982
 20
96.6398646662
 11
211.1517587496
 21
108.7951593617
  0
LINE
  5
3A5
100
AcDbEntity
  8
DTM_AXIS
100
AcDbLine
 62
7
  6
CONTINUOUS
 10
211.7069416972
 20
93.6380324617
 11
211.7092772312
 21
93.2469808362
  0
LINE
  5
3A6
100
AcDbEntity
  8
DTM_AXIS
100
AcDbLine
 62
7
  6
CONTINUOUS
 10
207.1703973178
 20
100.1666023843
 11
207.1015727648
 21
112.3219346233
  0
LINE
  5
3A7
100
AcDbEntity
  8
0
100
AcDbLine
 62
7
  6
CONTINUOUS
 10
207.7483779949
 20
153.0158255654
 11
207.8198138218
 21
140.3993076033
  0
LINE
  5
3A8
100
AcDbEntity
  8
DTM_AXIS
100
AcDbLine
 62
7
  6
CONTINUOUS
 10
208.3029996626
 20
99.1803676915
 11
208.2341751096
 21
111.3356999304
  0
LINE
  5
3A9
100
AcDbEntity
  8
DTM_AXIS
100
AcDbLine
 62
7
  6
CONTINUOUS
 10
208.9553786131
 20
98.6122965084
 11
208.8865540601
 21
110.7676287473
  0
LINE
  5
3AA
100
AcDbEntity
  8
DTM_AXIS
100
AcDbLine
 62
7
  6
CONTINUOUS
 10
210.0879809579
 20
97.6260618155
 11
210.0191564049
 21
109.7813940545
  0
LINE
  5
3AB
100
AcDbEntity
  8
DTM_AXIS
100
AcDbLine
 62
7
  6
CONTINUOUS
 10
211.7008066968
 20
96.2216636129
 11
211.6319821438
 21
108.3769958519
  0
LINE
  5
3AC
100
AcDbEntity
  8
DTM_AXIS
100
AcDbLine
 62
7
  6
CONTINUOUS
 10
213.5328606093
 20
91.6590614741
 11
216.8835950263
 21
91.7086536585
  0
LINE
  5
3AD
100
AcDbEntity
  8
DTM_AXIS
100
AcDbLine
 62
7
  6
CONTINUOUS
 10
212.4002582645
 20
92.645296167
 11
215.7509926815
 21
92.6948883513
  0
LINE
  5
3AE
100
AcDbEntity
  8
DTM_AXIS
100
AcDbLine
 62
7
  6
CONTINUOUS
 10
214.6183903368
 20
93.6811230442
 11
211.2676559198
 21
93.6315308598
  0
LINE
  5
3AF
100
AcDbEntity
  8
DTM_AXIS
100
AcDbLine
 62
7
  6
CONTINUOUS
 10
213.4857879921
 20
94.667357737
 11
210.1350535751
 21
94.6177655527
  0
LINE
  5
3B0
100
AcDbEntity
  8
DTM_AXIS
100
AcDbLine
 62
7
  6
CONTINUOUS
 10
209.0024512303
 20
95.6040002455
 11
212.3531856473
 21
95.6535924299
  0
LINE
  5
3B1
100
AcDbEntity
  8
DTM_AXIS
100
AcDbLine
 62
7
  6
CONTINUOUS
 10
207.8698488856
 20
96.5902349383
 11
211.2205833026
 21
96.6398271227
  0
LINE
  5
3B2
100
AcDbEntity
  8
0
100
AcDbLine
 62
7
  6
CONTINUOUS
 10
280.2080816789
 20
97.2078792685
 11
279.4958459764
 21
97.2009502726
  0
LINE
  5
3B3
100
AcDbEntity
  8
DTM_AXIS
100
AcDbLine
 62
7
  6
CONTINUOUS
 10
229.2759072311
 20
92.5948553199
 11
229.7536196595
 21
92.5972407665
  0
LINE
  5
3B4
100
AcDbEntity
  8
DTM_AXIS
100
AcDbLine
 62
7
  6
CONTINUOUS
 10
228.1431751092
 20
93.5810893647
 11
228.6210173148
 21
93.5834754593
  0
LINE
  5
3B5
100
AcDbEntity
  8
DTM_AXIS
100
AcDbLine
 62
7
  6
CONTINUOUS
 10
227.0105727645
 20
94.5673240576
 11
227.48841497
 21
94.5697101522
  0
LINE
  5
3B6
100
AcDbEntity
  8
DTM_AXIS
100
AcDbLine
 62
7
  6
CONTINUOUS
 10
225.8781001969
 20
95.5535593984
 11
226.3558126253
 21
95.555944845
  0
LINE
  5
3B7
100
AcDbEntity
  8
DTM_AXIS
100
AcDbLine
 62
7
  6
CONTINUOUS
 10
224.7454978522
 20
96.5397940913
 11
225.2232102806
 21
96.5421795378
  0
LINE
  5
3B8
100
AcDbEntity
  8
DTM_AXIS
100
AcDbLine
 62
7
  6
CONTINUOUS
 10
216.2312160757
 20
92.2767248416
 11
212.8418795759
 21
92.2607461434
  0
LINE
  5
3B9
100
AcDbEntity
  8
DTM_AXIS
100
AcDbLine
 62
7
  6
CONTINUOUS
 10
211.7092772312
 20
93.2469808362
 11
215.098613731
 21
93.2629595344
  0
LINE
  5
3BA
100
AcDbEntity
  8
DTM_AXIS
100
AcDbLine
 62
7
  6
CONTINUOUS
 10
210.5766748864
 20
94.2332155291
 11
213.9660113862
 21
94.2491942273
  0
LINE
  5
3BB
100
AcDbEntity
  8
DTM_AXIS
100
AcDbLine
 62
7
  6
CONTINUOUS
 10
212.8334090415
 20
95.2354289201
 11
209.4440725417
 21
95.2194502219
  0
LINE
  5
3BC
100
AcDbEntity
  8
DTM_AXIS
100
AcDbLine
 62
7
  6
CONTINUOUS
 10
211.7008066968
 20
96.2216636129
 11
208.311470197
 21
96.2056849148
  0
LINE
  5
3BD
100
AcDbEntity
  8
DTM_AXIS
100
AcDbLine
 62
7
  6
CONTINUOUS
 10
207.1788678522
 20
97.1919196076
 11
210.568204352
 21
97.2078983058
  0
LINE
  5
3BE
100
AcDbEntity
  8
DTM_AXIS
100
AcDbLine
 62
7
  6
CONTINUOUS
 10
212.3569365493
 20
95.6536289206
 11
212.2843610943
 21
107.8089246688
  0
LINE
  5
3BF
100
AcDbEntity
  8
DTM_AXIS
100
AcDbLine
 62
7
  6
CONTINUOUS
 10
212.8395440419
 20
92.6517977689
 11
212.8418795759
 21
92.2607461434
  0
LINE
  5
3C0
100
AcDbEntity
  8
DTM_AXIS
100
AcDbLine
 62
7
  6
CONTINUOUS
 10
213.9721463866
 20
91.665563076
 11
213.9744819206
 21
91.2745114506
  0
LINE
  5
3C1
100
AcDbEntity
  8
DTM_AXIS
100
AcDbLine
 62
7
  6
CONTINUOUS
 10
213.9697622882
 20
94.249230718
 11
213.8971868332
 21
106.4045264662
  0
LINE
  5
3C2
100
AcDbEntity
  8
DTM_AXIS
100
AcDbLine
 62
7
  6
CONTINUOUS
 10
215.1047487314
 20
90.6793283832
 11
215.1070842654
 21
90.2882767577
  0
LINE
  5
3C3
100
AcDbEntity
  8
DTM_AXIS
100
AcDbLine
 62
7
  6
CONTINUOUS
 10
215.1023646266
 20
93.2629970779
 11
215.029789178
 21
105.4182917734
  0
LINE
  5
3C4
100
AcDbEntity
  8
DTM_AXIS
100
AcDbLine
 62
7
  6
CONTINUOUS
 10
215.7547435772
 20
92.6949258948
 11
215.6821681285
 21
104.8502205903
  0
LINE
  5
3C5
100
AcDbEntity
  8
DTM_AXIS
100
AcDbLine
 62
7
  6
CONTINUOUS
 10
216.2373510761
 20
89.6930936904
 11
216.2396866101
 21
89.3020420649
  0
LINE
  5
3C6
100
AcDbEntity
  8
DTM_AXIS
100
AcDbLine
 62
7
  6
CONTINUOUS
 10
216.8873459282
 20
91.7086901492
 11
216.8147704733
 21
103.8639858975
  0
LINE
  5
3C7
100
AcDbEntity
  8
DTM_AXIS
100
AcDbLine
 62
7
  6
CONTINUOUS
 10
217.3699534208
 20
88.7068589975
 11
217.3722889548
 21
88.315807372
  0
LINE
  5
3C8
100
AcDbEntity
  8
0
100
AcDbLine
 62
7
  6
CONTINUOUS
 10
212.0649974735
 20
159.4668833363
 11
212.0816248528
 21
156.5302668077
  0
LINE
  5
3C9
100
AcDbEntity
  8
DTM_AXIS
100
AcDbLine
 62
7
  6
CONTINUOUS
 10
212.8334090415
 20
95.2354289201
 11
212.7645844885
 21
107.3907611591
  0
LINE
  5
3CA
100
AcDbEntity
  8
DTM_AXIS
100
AcDbLine
 62
7
  6
CONTINUOUS
 10
213.4857879921
 20
94.667357737
 11
213.4169634391
 21
106.822689976
  0
LINE
  5
3CB
100
AcDbEntity
  8
DTM_AXIS
100
AcDbLine
 62
7
  6
CONTINUOUS
 10
214.6183903368
 20
93.6811230442
 11
214.5495657838
 21
105.8364552832
  0
LINE
  5
3CC
100
AcDbEntity
  8
DTM_AXIS
100
AcDbLine
 62
7
  6
CONTINUOUS
 10
216.2312160757
 20
92.2767248416
 11
216.1623915227
 21
104.4320570806
  0
LINE
  5
3CD
100
AcDbEntity
  8
DTM_AXIS
100
AcDbLine
 62
7
  6
CONTINUOUS
 10
217.3638184205
 20
91.2904901487
 11
217.2949938674
 21
103.4458223877
  0
LINE
  5
3CE
100
AcDbEntity
  8
DTM_AXIS
100
AcDbLine
 62
7
  6
CONTINUOUS
 10
210.0879809579
 20
97.6260618155
 11
206.7372465409
 21
97.5764696312
  0
LINE
  5
3CF
100
AcDbEntity
  8
DTM_AXIS
100
AcDbLine
 62
7
  6
CONTINUOUS
 10
208.9553786131
 20
98.6122965084
 11
205.6046441961
 21
98.562704324
  0
LINE
  5
3D0
100
AcDbEntity
  8
DTM_AXIS
100
AcDbLine
 62
7
  6
CONTINUOUS
 10
204.4720418514
 20
99.5489390168
 11
207.8227762684
 21
99.5985312012
  0
LINE
  5
3D1
100
AcDbEntity
  8
DTM_AXIS
100
AcDbLine
 62
7
  6
CONTINUOUS
 10
203.3394395067
 20
100.5351737097
 11
206.6901739237
 21
100.5847658941
  0
LINE
  5
3D2
100
AcDbEntity
  8
DTM_AXIS
100
AcDbLine
 62
7
  6
CONTINUOUS
 10
205.5575715789
 20
101.5710005869
 11
202.2068371619
 21
101.5214084025
  0
LINE
  5
3D3
100
AcDbEntity
  8
DTM_AXIS
100
AcDbLine
 62
7
  6
CONTINUOUS
 10
204.4249692342
 20
102.5572352797
 11
201.0742348172
 21
102.5076430954
  0
LINE
  5
3D4
100
AcDbEntity
  8
DTM_AXIS
100
AcDbLine
 62
7
  6
CONTINUOUS
 10
223.6127657303
 20
97.5260281361
 11
224.0906079358
 21
97.5284142307
  0
LINE
  5
3D5
100
AcDbEntity
  8
DTM_AXIS
100
AcDbLine
 62
7
  6
CONTINUOUS
 10
222.4801633855
 20
98.5122628289
 11
222.9580055911
 21
98.5146489235
  0
LINE
  5
3D6
100
AcDbEntity
  8
DTM_AXIS
100
AcDbLine
 62
7
  6
CONTINUOUS
 10
221.347690818
 20
99.4984981698
 11
221.8254032464
 21
99.5008836164
  0
LINE
  5
3D7
100
AcDbEntity
  8
DTM_AXIS
100
AcDbLine
 62
7
  6
CONTINUOUS
 10
220.2150884733
 20
100.4847328626
 11
220.6928009016
 21
100.4871183092
  0
LINE
  5
3D8
100
AcDbEntity
  8
DTM_AXIS
100
AcDbLine
 62
7
  6
CONTINUOUS
 10
219.0823563513
 20
101.4709669074
 11
219.5601985569
 21
101.473353002
  0
LINE
  5
3D9
100
AcDbEntity
  8
DTM_AXIS
100
AcDbLine
 62
7
  6
CONTINUOUS
 10
217.9497540066
 20
102.4572016003
 11
218.4275962122
 21
102.4595876949
  0
LINE
  5
3DA
100
AcDbEntity
  8
DTM_AXIS
100
AcDbLine
 62
7
  6
CONTINUOUS
 10
206.0462655075
 20
98.1781543004
 11
209.4356020073
 21
98.1941329986
  0
LINE
  5
3DB
100
AcDbEntity
  8
DTM_AXIS
100
AcDbLine
 62
7
  6
CONTINUOUS
 10
208.3029996626
 20
99.1803676915
 11
204.9136631628
 21
99.1643889933
  0
LINE
  5
3DC
100
AcDbEntity
  8
DTM_AXIS
100
AcDbLine
 62
7
  6
CONTINUOUS
 10
207.1703973178
 20
100.1666023843
 11
203.781060818
 21
100.1506236861
  0
LINE
  5
3DD
100
AcDbEntity
  8
DTM_AXIS
100
AcDbLine
 62
7
  6
CONTINUOUS
 10
202.6484584733
 20
101.136858379
 11
206.0377949731
 21
101.1528370771
  0
LINE
  5
3DE
100
AcDbEntity
  8
DTM_AXIS
100
AcDbLine
 62
7
  6
CONTINUOUS
 10
201.5158561286
 20
102.1230930718
 11
204.9051926284
 21
102.13907177
  0
LINE
  5
3DF
100
AcDbEntity
  8
DTM_AXIS
100
AcDbLine
 62
7
  6
CONTINUOUS
 10
247.3950337811
 20
77.2356491908
 11
246.7426548305
 21
77.8037203739
  0
LINE
  5
3E0
100
AcDbEntity
  8
DTM_AXIS
100
AcDbLine
 62
7
  6
CONTINUOUS
 10
246.2624314363
 20
78.2218838837
 11
245.6100524858
 21
78.7899550667
  0
LINE
  5
3E1
100
AcDbEntity
  8
DTM_AXIS
100
AcDbLine
 62
7
  6
CONTINUOUS
 10
242.8646244021
 20
81.1805879622
 11
242.2122454516
 21
81.7486591453
  0
LINE
  5
3E2
100
AcDbEntity
  8
DTM_AXIS
100
AcDbLine
 62
7
  6
CONTINUOUS
 10
241.7320220574
 20
82.166822655
 11
241.0796431068
 21
82.7348938381
  0
LINE
  5
3E3
100
AcDbEntity
  8
DTM_AXIS
100
AcDbLine
 62
7
  6
CONTINUOUS
 10
240.5994197127
 20
83.1530573479
 11
239.9470407621
 21
83.7211285309
  0
LINE
  5
3E4
100
AcDbEntity
  8
DTM_AXIS
100
AcDbLine
 62
7
  6
CONTINUOUS
 10
237.2016126785
 20
86.1117614264
 11
236.5492337279
 21
86.6798326095
  0
LINE
  5
3E5
100
AcDbEntity
  8
DTM_AXIS
100
AcDbLine
 62
7
  6
CONTINUOUS
 10
233.8038056443
 20
89.0704655049
 11
233.1514266937
 21
89.638536688
  0
LINE
  5
3E6
100
AcDbEntity
  8
DTM_AXIS
100
AcDbLine
 62
7
  6
CONTINUOUS
 10
232.6712032995
 20
90.0567001977
 11
232.018824349
 21
90.6247713808
  0
LINE
  5
3E7
100
AcDbEntity
  8
DTM_AXIS
100
AcDbLine
 62
7
  6
CONTINUOUS
 10
231.5386009548
 20
91.0429348906
 11
230.8862220042
 21
91.6110060736
  0
LINE
  5
3E8
100
AcDbEntity
  8
DTM_AXIS
100
AcDbLine
 62
7
  6
CONTINUOUS
 10
229.2733962653
 20
93.0154042763
 11
228.6210173148
 21
93.5834754593
  0
LINE
  5
3E9
100
AcDbEntity
  8
DTM_AXIS
100
AcDbLine
 62
7
  6
CONTINUOUS
 10
228.1407939206
 20
94.0016389691
 11
227.48841497
 21
94.5697101522
  0
LINE
  5
3EA
100
AcDbEntity
  8
DTM_AXIS
100
AcDbLine
 62
7
  6
CONTINUOUS
 10
223.6103845417
 20
97.9465777404
 11
222.9580055911
 21
98.5146489235
  0
LINE
  5
3EB
100
AcDbEntity
  8
DTM_AXIS
100
AcDbLine
 62
7
  6
CONTINUOUS
 10
222.4777821969
 20
98.9328124333
 11
221.8254032464
 21
99.5008836164
  0
LINE
  5
3EC
100
AcDbEntity
  8
DTM_AXIS
100
AcDbLine
 62
7
  6
CONTINUOUS
 10
219.0799751627
 20
101.8915165118
 11
218.4275962122
 21
102.4595876949
  0
LINE
  5
3ED
100
AcDbEntity
  8
DTM_AXIS
100
AcDbLine
 62
7
  6
CONTINUOUS
 10
214.5495657838
 20
105.8364552832
 11
213.8971868332
 21
106.4045264662
  0
LINE
  5
3EE
100
AcDbEntity
  8
DTM_AXIS
100
AcDbLine
 62
7
  6
CONTINUOUS
 10
213.4169634391
 20
106.822689976
 11
212.7645844885
 21
107.3907611591
  0
LINE
  5
3EF
100
AcDbEntity
  8
DTM_AXIS
100
AcDbLine
 62
7
  6
CONTINUOUS
 10
211.1517587496
 20
108.7951593617
 11
210.499379799
 21
109.3632305447
  0
LINE
  5
3F0
100
AcDbEntity
  8
DTM_AXIS
100
AcDbLine
 62
7
  6
CONTINUOUS
 10
210.0191564049
 20
109.7813940545
 11
209.3667774543
 21
110.3494652376
  0
LINE
  5
3F1
100
AcDbEntity
  8
DTM_AXIS
100
AcDbLine
 62
7
  6
CONTINUOUS
 10
206.6213493707
 20
112.740098133
 11
205.9689704201
 21
113.3081693161
  0
LINE
  5
3F2
100
AcDbEntity
  8
DTM_AXIS
100
AcDbLine
 62
7
  6
CONTINUOUS
 10
205.4887470259
 20
113.7263328259
 11
204.8363680754
 21
114.2944040089
  0
LINE
  5
3F3
100
AcDbEntity
  8
DTM_AXIS
100
AcDbLine
 62
7
  6
CONTINUOUS
 10
204.3561446812
 20
114.7125675187
 11
203.7037657306
 21
115.2806387018
  0
LINE
  5
3F4
100
AcDbEntity
  8
DTM_AXIS
100
AcDbLine
 62
7
  6
CONTINUOUS
 10
200.958337647
 20
117.6712715972
 11
200.3059586964
 21
118.2393427803
  0
LINE
  5
3F5
100
AcDbEntity
  8
DTM_AXIS
100
AcDbLine
 62
7
  6
CONTINUOUS
 10
196.427928268
 20
121.6162103686
 11
195.7755493175
 21
122.1842815516
  0
LINE
  5
3F6
100
AcDbEntity
  8
DTM_AXIS
100
AcDbLine
 62
7
  6
CONTINUOUS
 10
195.2953259233
 20
122.6024450614
 11
194.6429469727
 21
123.1705162445
  0
LINE
  5
3F7
100
AcDbEntity
  8
DTM_AXIS
100
AcDbLine
 62
7
  6
CONTINUOUS
 10
193.0301212338
 20
124.5749144471
 11
192.3777422833
 21
125.1429856302
  0
LINE
  5
3F8
100
AcDbEntity
  8
DTM_AXIS
100
AcDbLine
 62
7
  6
CONTINUOUS
 10
191.8975188891
 20
125.5611491399
 11
191.2451399385
 21
126.129220323
  0
LINE
  5
3F9
100
AcDbEntity
  8
DTM_AXIS
100
AcDbLine
 62
7
  6
CONTINUOUS
 10
187.3671095102
 20
129.5060879113
 11
186.7147305596
 21
130.0741590944
  0
LINE
  5
3FA
100
AcDbEntity
  8
DTM_AXIS
100
AcDbLine
 62
7
  6
CONTINUOUS
 10
186.2345071654
 20
130.4923226041
 11
185.5821282149
 21
131.0603937872
  0
LINE
  5
3FB
100
AcDbEntity
  8
DTM_AXIS
100
AcDbLine
 62
7
  6
CONTINUOUS
 10
182.8367001312
 20
133.4510266826
 11
182.1843211807
 21
134.0190978657
  0
LINE
  5
3FC
100
AcDbEntity
  8
0
100
AcDbLine
 62
7
  6
CONTINUOUS
 10
180.0751601406
 20
135.8556893227
 11
180.5714954418
 21
135.4234960683
  0
LINE
  5
3FD
100
AcDbEntity
  8
DTM_AXIS
100
AcDbLine
 62
7
  6
CONTINUOUS
 10
181.0517188359
 20
135.0053325586
 11
181.7040977865
 21
134.4372613755
  0
LINE
  5
3FE
100
AcDbEntity
  8
DTM_AXIS
100
AcDbLine
 62
7
  6
CONTINUOUS
 10
183.3169235254
 20
133.0328631729
 11
183.969302476
 21
132.4647919898
  0
LINE
  5
3FF
100
AcDbEntity
  8
DTM_AXIS
100
AcDbLine
 62
7
  6
CONTINUOUS
 10
184.4495258701
 20
132.04662848
 11
185.1019048207
 21
131.478557297
  0
LINE
  5
400
100
AcDbEntity
  8
DTM_AXIS
100
AcDbLine
 62
7
  6
CONTINUOUS
 10
187.8473329043
 20
129.0879244015
 11
188.4997118549
 21
128.5198532184
  0
LINE
  5
401
100
AcDbEntity
  8
DTM_AXIS
100
AcDbLine
 62
7
  6
CONTINUOUS
 10
188.9799352491
 20
128.1016897087
 11
189.6323141996
 21
127.5336185256
  0
LINE
  5
402
100
AcDbEntity
  8
DTM_AXIS
100
AcDbLine
 62
7
  6
CONTINUOUS
 10
190.1125375938
 20
127.1154550158
 11
190.7649165444
 21
126.5473838328
  0
LINE
  5
403
100
AcDbEntity
  8
DTM_AXIS
100
AcDbLine
 62
7
  6
CONTINUOUS
 10
193.510344628
 20
124.1567509373
 11
194.1627235786
 21
123.5886797543
  0
LINE
  5
404
100
AcDbEntity
  8
DTM_AXIS
100
AcDbLine
 62
7
  6
CONTINUOUS
 10
196.9081516622
 20
121.1980468588
 11
197.5605306128
 21
120.6299756757
  0
LINE
  5
405
100
AcDbEntity
  8
DTM_AXIS
100
AcDbLine
 62
7
  6
CONTINUOUS
 10
198.0407540069
 20
120.211812166
 11
198.6931329575
 21
119.6437409829
  0
LINE
  5
406
100
AcDbEntity
  8
DTM_AXIS
100
AcDbLine
 62
7
  6
CONTINUOUS
 10
199.1733563517
 20
119.2255774731
 11
199.8257353022
 21
118.6575062901
  0
LINE
  5
407
100
AcDbEntity
  8
DTM_AXIS
100
AcDbLine
 62
7
  6
CONTINUOUS
 10
201.4385610412
 20
117.2531080875
 11
202.0909399917
 21
116.6850369044
  0
LINE
  5
408
100
AcDbEntity
  8
DTM_AXIS
100
AcDbLine
 62
7
  6
CONTINUOUS
 10
202.5711633859
 20
116.2668733946
 11
203.2235423365
 21
115.6988022115
  0
LINE
  5
409
100
AcDbEntity
  8
DTM_AXIS
100
AcDbLine
 62
7
  6
CONTINUOUS
 10
207.1015727648
 20
112.3219346233
 11
207.7539517154
 21
111.7538634402
  0
LINE
  5
40A
100
AcDbEntity
  8
DTM_AXIS
100
AcDbLine
 62
7
  6
CONTINUOUS
 10
208.2341751096
 20
111.3356999304
 11
208.8865540601
 21
110.7676287473
  0
LINE
  5
40B
100
AcDbEntity
  8
DTM_AXIS
100
AcDbLine
 62
7
  6
CONTINUOUS
 10
211.6319821438
 20
108.3769958519
 11
212.2843610943
 21
107.8089246688
  0
LINE
  5
40C
100
AcDbEntity
  8
DTM_AXIS
100
AcDbLine
 62
7
  6
CONTINUOUS
 10
215.029789178
 20
105.4182917734
 11
215.6821681285
 21
104.8502205903
  0
LINE
  5
40D
100
AcDbEntity
  8
DTM_AXIS
100
AcDbLine
 62
7
  6
CONTINUOUS
 10
216.1623915227
 20
104.4320570806
 11
216.8147704733
 21
103.8639858975
  0
LINE
  5
40E
100
AcDbEntity
  8
DTM_AXIS
100
AcDbLine
 62
7
  6
CONTINUOUS
 10
217.2949938674
 20
103.4458223877
 11
217.947372818
 21
102.8777512046
  0
LINE
  5
40F
100
AcDbEntity
  8
DTM_AXIS
100
AcDbLine
 62
7
  6
CONTINUOUS
 10
219.5601985569
 20
101.473353002
 11
220.2125775075
 21
100.905281819
  0
LINE
  5
410
100
AcDbEntity
  8
DTM_AXIS
100
AcDbLine
 62
7
  6
CONTINUOUS
 10
220.6928009016
 20
100.4871183092
 11
221.3451798522
 21
99.9190471261
  0
LINE
  5
411
100
AcDbEntity
  8
DTM_AXIS
100
AcDbLine
 62
7
  6
CONTINUOUS
 10
224.0906079358
 20
97.5284142307
 11
224.7429868864
 21
96.9603430476
  0
LINE
  5
412
100
AcDbEntity
  8
DTM_AXIS
100
AcDbLine
 62
7
  6
CONTINUOUS
 10
225.2232102806
 20
96.5421795378
 11
225.8755892311
 21
95.9741083548
  0
LINE
  5
413
100
AcDbEntity
  8
DTM_AXIS
100
AcDbLine
 62
7
  6
CONTINUOUS
 10
226.3558126253
 20
95.555944845
 11
227.0081915759
 21
94.9878736619
  0
LINE
  5
414
100
AcDbEntity
  8
DTM_AXIS
100
AcDbLine
 62
7
  6
CONTINUOUS
 10
229.7536196595
 20
92.5972407665
 11
230.4059986101
 21
92.0291695834
  0
LINE
  5
415
100
AcDbEntity
  8
DTM_AXIS
100
AcDbLine
 62
7
  6
CONTINUOUS
 10
234.2840290384
 20
88.6523019951
 11
234.936407989
 21
88.0842308121
  0
LINE
  5
416
100
AcDbEntity
  8
DTM_AXIS
100
AcDbLine
 62
7
  6
CONTINUOUS
 10
235.4166313832
 20
87.6660673023
 11
236.0690103337
 21
87.0979961192
  0
LINE
  5
417
100
AcDbEntity
  8
DTM_AXIS
100
AcDbLine
 62
7
  6
CONTINUOUS
 10
237.6818360726
 20
85.6935979166
 11
238.3342150232
 21
85.1255267335
  0
LINE
  5
418
100
AcDbEntity
  8
DTM_AXIS
100
AcDbLine
 62
7
  6
CONTINUOUS
 10
238.8144384174
 20
84.7073632238
 11
239.4668173679
 21
84.1392920407
  0
LINE
  5
419
100
AcDbEntity
  8
DTM_AXIS
100
AcDbLine
 62
7
  6
CONTINUOUS
 10
243.3448477963
 20
80.7624244524
 11
243.9972267469
 21
80.1943532693
  0
LINE
  5
41A
100
AcDbEntity
  8
DTM_AXIS
100
AcDbLine
 62
7
  6
CONTINUOUS
 10
244.477450141
 20
79.7761897596
 11
245.1298290916
 21
79.2081185765
  0
LINE
  5
41B
100
AcDbEntity
  8
0
100
AcDbLine
 62
7
  6
CONTINUOUS
 10
247.8752571752
 20
76.8174856811
 11
248.2016169667
 21
76.5333017836
  0
LINE
  5
41C
100
AcDbEntity
  8
0
100
AcDbLine
 62
7
  6
CONTINUOUS
 10
181.035390034
 20
135.8653004526
 11
249.1618468601
 21
76.5429129134
  0
LINE
  5
41D
100
AcDbEntity
  8
0
100
AcDbLine
 62
7
  6
CONTINUOUS
 10
181.0312117654
 20
136.5650975147
 11
249.1576685915
 21
77.2427099755
  0
LINE
  5
41E
100
AcDbEntity
  8
DTM_AXIS
100
AcDbLine
 62
7
  6
CONTINUOUS
 10
218.5025557656
 20
87.7206243047
 11
218.5048912996
 21
87.3295726792
  0
LINE
  5
41F
100
AcDbEntity
  8
DTM_AXIS
100
AcDbLine
 62
7
  6
CONTINUOUS
 10
218.5001716671
 20
90.3042919466
 11
218.4275962122
 21
102.4595876949
  0
LINE
  5
420
100
AcDbEntity
  8
DTM_AXIS
100
AcDbLine
 62
7
  6
CONTINUOUS
 10
219.6351581103
 20
86.7343896118
 11
219.6374936443
 21
86.3433379864
  0
LINE
  5
421
100
AcDbEntity
  8
DTM_AXIS
100
AcDbLine
 62
7
  6
CONTINUOUS
 10
219.6327740056
 20
89.3180583065
 11
219.5601985569
 21
101.473353002
  0
LINE
  5
422
100
AcDbEntity
  8
DTM_AXIS
100
AcDbLine
 62
7
  6
CONTINUOUS
 10
220.2851529561
 20
88.7499871234
 11
220.2125775075
 21
100.905281819
  0
LINE
  5
423
100
AcDbEntity
  8
DTM_AXIS
100
AcDbLine
 62
7
  6
CONTINUOUS
 10
220.767760455
 20
85.748154919
 11
220.770095989
 21
85.3571032935
  0
LINE
  5
424
100
AcDbEntity
  8
DTM_AXIS
100
AcDbLine
 62
7
  6
CONTINUOUS
 10
221.4177553071
 20
87.7637513779
 11
221.3451798522
 21
99.9190471261
  0
LINE
  5
425
100
AcDbEntity
  8
DTM_AXIS
100
AcDbLine
 62
7
  6
CONTINUOUS
 10
221.9003627998
 20
84.7619202262
 11
221.9026983338
 21
84.3708686007
  0
LINE
  5
426
100
AcDbEntity
  8
DTM_AXIS
100
AcDbLine
 62
7
  6
CONTINUOUS
 10
223.0329651445
 20
83.7756855333
 11
223.0353006785
 21
83.3846339079
  0
LINE
  5
427
100
AcDbEntity
  8
DTM_AXIS
100
AcDbLine
 62
7
  6
CONTINUOUS
 10
223.030581046
 20
86.3593531753
 11
222.9580055911
 21
98.5146489235
  0
LINE
  5
428
100
AcDbEntity
  8
DTM_AXIS
100
AcDbLine
 62
7
  6
CONTINUOUS
 10
218.016197371
 20
90.7224189657
 11
217.947372818
 21
102.8777512046
  0
LINE
  5
429
100
AcDbEntity
  8
DTM_AXIS
100
AcDbLine
 62
7
  6
CONTINUOUS
 10
219.1487997158
 20
89.7361842728
 11
219.0799751627
 21
101.8915165118
  0
LINE
  5
42A
100
AcDbEntity
  8
0
100
AcDbLine
 62
7
  6
CONTINUOUS
 10
219.4778410392
 20
167.7985119429
 11
219.4953490412
 21
164.7063657164
  0
LINE
  5
42B
100
AcDbEntity
  8
DTM_AXIS
100
AcDbLine
 62
7
  6
CONTINUOUS
 10
220.7616254547
 20
88.3317860702
 11
220.6928009016
 21
100.4871183092
  0
LINE
  5
42C
100
AcDbEntity
  8
DTM_AXIS
100
AcDbLine
 62
7
  6
CONTINUOUS
 10
221.8942277994
 20
87.3455513774
 11
221.8254032464
 21
99.5008836164
  0
LINE
  5
42D
100
AcDbEntity
  8
DTM_AXIS
100
AcDbLine
 62
7
  6
CONTINUOUS
 10
222.54660675
 20
86.7774801943
 11
222.4777821969
 21
98.9328124333
  0
LINE
  5
42E
100
AcDbEntity
  8
0
100
AcDbLine
 62
7
  6
CONTINUOUS
 10
222.8241347652
 20
171.5480126658
 11
222.8282988479
 21
170.8125802332
  0
LINE
  5
42F
100
AcDbEntity
  8
0
100
AcDbLine
 62
7
  6
CONTINUOUS
 10
287.8608332415
 20
108.4846451179
 11
287.6042978653
 21
108.4761244037
  0
LINE
  5
430
100
AcDbEntity
  8
DTM_AXIS
100
AcDbLine
 62
7
  6
CONTINUOUS
 10
199.9416324725
 20
103.4938777882
 11
203.2923668895
 21
103.5434699726
  0
LINE
  5
431
100
AcDbEntity
  8
DTM_AXIS
100
AcDbLine
 62
7
  6
CONTINUOUS
 10
198.8090301277
 20
104.480112481
 11
202.1597645447
 21
104.5297046654
  0
LINE
  5
432
100
AcDbEntity
  8
DTM_AXIS
100
AcDbLine
 62
7
  6
CONTINUOUS
 10
201.0271622
 20
105.5159393583
 11
197.676427783
 21
105.4663471739
  0
LINE
  5
433
100
AcDbEntity
  8
DTM_AXIS
100
AcDbLine
 62
7
  6
CONTINUOUS
 10
199.8945598553
 20
106.5021740511
 11
196.5438254383
 21
106.4525818667
  0
LINE
  5
434
100
AcDbEntity
  8
DTM_AXIS
100
AcDbLine
 62
7
  6
CONTINUOUS
 10
195.4112230935
 20
107.4388165596
 11
198.7619575105
 21
107.4884087439
  0
LINE
  5
435
100
AcDbEntity
  8
0
100
AcDbLine
 62
7
  6
CONTINUOUS
 10
287.6218058673
 20
105.3839781772
 11
286.7974121129
 21
105.37595805
  0
LINE
  5
436
100
AcDbEntity
  8
DTM_AXIS
100
AcDbLine
 62
7
  6
CONTINUOUS
 10
216.8172814391
 20
103.4434369411
 11
217.2949938674
 21
103.4458223877
  0
LINE
  5
437
100
AcDbEntity
  8
DTM_AXIS
100
AcDbLine
 62
7
  6
CONTINUOUS
 10
215.6846790943
 20
104.429671634
 11
216.1623915227
 21
104.4320570806
  0
LINE
  5
438
100
AcDbEntity
  8
DTM_AXIS
100
AcDbLine
 62
7
  6
CONTINUOUS
 10
214.5519469724
 20
105.4159056788
 11
215.029789178
 21
105.4182917734
  0
LINE
  5
439
100
AcDbEntity
  8
DTM_AXIS
100
AcDbLine
 62
7
  6
CONTINUOUS
 10
213.4193446277
 20
106.4021403716
 11
213.8971868332
 21
106.4045264662
  0
LINE
  5
43A
100
AcDbEntity
  8
DTM_AXIS
100
AcDbLine
 62
7
  6
CONTINUOUS
 10
212.2868720601
 20
107.3883757125
 11
212.7645844885
 21
107.3907611591
  0
LINE
  5
43B
100
AcDbEntity
  8
DTM_AXIS
100
AcDbLine
 62
7
  6
CONTINUOUS
 10
211.1542697154
 20
108.3746104053
 11
211.6319821438
 21
108.3769958519
  0
LINE
  5
43C
100
AcDbEntity
  8
DTM_AXIS
100
AcDbLine
 62
7
  6
CONTINUOUS
 10
203.7725902836
 20
103.1253064628
 11
200.3832537838
 21
103.1093277646
  0
LINE
  5
43D
100
AcDbEntity
  8
DTM_AXIS
100
AcDbLine
 62
7
  6
CONTINUOUS
 10
202.6399879389
 20
104.1115411557
 11
199.2506514391
 21
104.0955624575
  0
LINE
  5
43E
100
AcDbEntity
  8
DTM_AXIS
100
AcDbLine
 62
7
  6
CONTINUOUS
 10
198.1180490944
 20
105.0817971503
 11
201.5073855942
 21
105.0977758485
  0
LINE
  5
43F
100
AcDbEntity
  8
DTM_AXIS
100
AcDbLine
 62
7
  6
CONTINUOUS
 10
196.9854467496
 20
106.0680318431
 11
200.3747832494
 21
106.0840105413
  0
LINE
  5
440
100
AcDbEntity
  8
DTM_AXIS
100
AcDbLine
 62
7
  6
CONTINUOUS
 10
199.2421809047
 20
107.0702452342
 11
195.8528444049
 21
107.054266536
  0
LINE
  5
441
100
AcDbEntity
  8
DTM_AXIS
100
AcDbLine
 62
7
  6
CONTINUOUS
 10
198.10957856
 20
108.056479927
 11
194.7202420602
 21
108.0405012288
  0
LINE
  5
442
100
AcDbEntity
  8
0
100
AcDbLine
 62
7
  6
CONTINUOUS
 10
183.8694914257
 20
139.3152180651
 11
251.9959482518
 21
79.9928305259
  0
LINE
  5
443
100
AcDbEntity
  8
0
100
AcDbLine
 62
7
  6
CONTINUOUS
 10
185.7101982589
 20
139.3331254096
 11
253.8366550851
 21
80.0107378704
  0
LINE
  5
444
100
AcDbEntity
  8
0
100
AcDbLine
 62
7
  6
CONTINUOUS
 10
185.6992656903
 20
141.2639625578
 11
253.8257225164
 21
81.9415750187
  0
LINE
  5
445
100
AcDbEntity
  8
DTM_AXIS
100
AcDbLine
 62
7
  6
CONTINUOUS
 10
224.1655674892
 20
82.7894508405
 11
224.1679030232
 21
82.398399215
  0
LINE
  5
446
100
AcDbEntity
  8
DTM_AXIS
100
AcDbLine
 62
7
  6
CONTINUOUS
 10
224.1631833845
 20
85.3731195352
 11
224.0906079358
 21
97.5284142307
  0
LINE
  5
447
100
AcDbEntity
  8
DTM_AXIS
100
AcDbLine
 62
7
  6
CONTINUOUS
 10
224.8155623351
 20
84.8050483521
 11
224.7429868864
 21
96.9603430476
  0
LINE
  5
448
100
AcDbEntity
  8
DTM_AXIS
100
AcDbLine
 62
7
  6
CONTINUOUS
 10
225.298169834
 20
81.8032161477
 11
225.300505368
 21
81.4121645222
  0
LINE
  5
449
100
AcDbEntity
  8
DTM_AXIS
100
AcDbLine
 62
7
  6
CONTINUOUS
 10
225.9481646861
 20
83.8188126065
 11
225.8755892311
 21
95.9741083548
  0
LINE
  5
44A
100
AcDbEntity
  8
DTM_AXIS
100
AcDbLine
 62
7
  6
CONTINUOUS
 10
226.4307721787
 20
80.8169814548
 11
226.4331077127
 21
80.4259298293
  0
LINE
  5
44B
100
AcDbEntity
  8
DTM_AXIS
100
AcDbLine
 62
7
  6
CONTINUOUS
 10
227.5633745234
 20
79.830746762
 11
227.5657100574
 21
79.4396951365
  0
LINE
  5
44C
100
AcDbEntity
  8
DTM_AXIS
100
AcDbLine
 62
7
  6
CONTINUOUS
 10
227.560990425
 20
82.4144144039
 11
227.48841497
 21
94.5697101522
  0
LINE
  5
44D
100
AcDbEntity
  8
DTM_AXIS
100
AcDbLine
 62
7
  6
CONTINUOUS
 10
228.6959768682
 20
78.8445120691
 11
228.6983124022
 21
78.4534604437
  0
LINE
  5
44E
100
AcDbEntity
  8
DTM_AXIS
100
AcDbLine
 62
7
  6
CONTINUOUS
 10
228.6935927634
 20
81.4281807638
 11
228.6210173148
 21
93.5834754593
  0
LINE
  5
44F
100
AcDbEntity
  8
DTM_AXIS
100
AcDbLine
 62
7
  6
CONTINUOUS
 10
223.6792090947
 20
85.7912455015
 11
223.6103845417
 21
97.9465777404
  0
LINE
  5
450
100
AcDbEntity
  8
DTM_AXIS
100
AcDbLine
 62
7
  6
CONTINUOUS
 10
225.2920348336
 20
84.3868472989
 11
225.2232102806
 21
96.5421795378
  0
LINE
  5
451
100
AcDbEntity
  8
DTM_AXIS
100
AcDbLine
 62
7
  6
CONTINUOUS
 10
226.4246371783
 20
83.400612606
 11
226.3558126253
 21
95.555944845
  0
LINE
  5
452
100
AcDbEntity
  8
DTM_AXIS
100
AcDbLine
 62
7
  6
CONTINUOUS
 10
227.0770161289
 20
82.832541423
 11
227.0081915759
 21
94.9878736619
  0
LINE
  5
453
100
AcDbEntity
  8
DTM_AXIS
100
AcDbLine
 62
7
  6
CONTINUOUS
 10
228.2096184736
 20
81.8463067301
 11
228.1407939206
 21
94.0016389691
  0
LINE
  5
454
100
AcDbEntity
  8
DTM_AXIS
100
AcDbLine
 62
7
  6
CONTINUOUS
 10
194.2786207488
 20
108.4250512524
 11
197.6293551658
 21
108.4746434368
  0
LINE
  5
455
100
AcDbEntity
  8
DTM_AXIS
100
AcDbLine
 62
7
  6
CONTINUOUS
 10
196.4967528211
 20
109.4608781296
 11
193.1460184041
 21
109.4112859452
  0
LINE
  5
456
100
AcDbEntity
  8
DTM_AXIS
100
AcDbLine
 62
7
  6
CONTINUOUS
 10
195.3641504763
 20
110.4471128224
 11
192.0134160593
 21
110.3975206381
  0
LINE
  5
457
100
AcDbEntity
  8
DTM_AXIS
100
AcDbLine
 62
7
  6
CONTINUOUS
 10
190.8808137146
 20
111.3837553309
 11
194.2315481316
 21
111.4333475153
  0
LINE
  5
458
100
AcDbEntity
  8
DTM_AXIS
100
AcDbLine
 62
7
  6
CONTINUOUS
 10
189.7482113699
 20
112.3699900237
 11
193.0989457869
 21
112.4195822081
  0
LINE
  5
459
100
AcDbEntity
  8
DTM_AXIS
100
AcDbLine
 62
7
  6
CONTINUOUS
 10
191.9663434421
 20
113.405816901
 11
188.6156090251
 21
113.3562247166
  0
LINE
  5
45A
100
AcDbEntity
  8
DTM_AXIS
100
AcDbLine
 62
7
  6
CONTINUOUS
 10
210.0215375935
 20
109.3608444501
 11
210.499379799
 21
109.3632305447
  0
LINE
  5
45B
100
AcDbEntity
  8
DTM_AXIS
100
AcDbLine
 62
7
  6
CONTINUOUS
 10
208.8889352487
 20
110.347079143
 11
209.3667774543
 21
110.3494652376
  0
LINE
  5
45C
100
AcDbEntity
  8
DTM_AXIS
100
AcDbLine
 62
7
  6
CONTINUOUS
 10
207.7564626812
 20
111.3333144839
 11
208.2341751096
 21
111.3356999304
  0
LINE
  5
45D
100
AcDbEntity
  8
DTM_AXIS
100
AcDbLine
 62
7
  6
CONTINUOUS
 10
206.6238603364
 20
112.3195491767
 11
207.1015727648
 21
112.3219346233
  0
LINE
  5
45E
100
AcDbEntity
  8
DTM_AXIS
100
AcDbLine
 62
7
  6
CONTINUOUS
 10
205.4911282145
 20
113.3057832215
 11
205.9689704201
 21
113.3081693161
  0
LINE
  5
45F
100
AcDbEntity
  8
DTM_AXIS
100
AcDbLine
 62
7
  6
CONTINUOUS
 10
204.3585258698
 20
114.2920179143
 11
204.8363680754
 21
114.2944040089
  0
LINE
  5
460
100
AcDbEntity
  8
DTM_AXIS
100
AcDbLine
 62
7
  6
CONTINUOUS
 10
193.5876397154
 20
109.0267359217
 11
196.9769762152
 21
109.0427146198
  0
LINE
  5
461
100
AcDbEntity
  8
DTM_AXIS
100
AcDbLine
 62
7
  6
CONTINUOUS
 10
192.4550373707
 20
110.0129706145
 11
195.8443738705
 21
110.0289493127
  0
LINE
  5
462
100
AcDbEntity
  8
DTM_AXIS
100
AcDbLine
 62
7
  6
CONTINUOUS
 10
194.7117715258
 20
111.0151840055
 11
191.322435026
 21
110.9992053073
  0
LINE
  5
463
100
AcDbEntity
  8
DTM_AXIS
100
AcDbLine
 62
7
  6
CONTINUOUS
 10
193.579169181
 20
112.0014186984
 11
190.1898326812
 21
111.9854400002
  0
LINE
  5
464
100
AcDbEntity
  8
DTM_AXIS
100
AcDbLine
 62
7
  6
CONTINUOUS
 10
189.0572303365
 20
112.971674693
 11
192.4465668363
 21
112.9876533912
  0
LINE
  5
465
100
AcDbEntity
  8
DTM_AXIS
100
AcDbLine
 62
7
  6
CONTINUOUS
 10
187.9246279918
 20
113.9579093859
 11
191.3139644916
 21
113.973888084
  0
LINE
  5
466
100
AcDbEntity
  8
0
100
AcDbLine
 62
7
  6
CONTINUOUS
 10
188.9613213108
 20
141.2956975156
 11
257.0877781369
 21
81.9733099764
  0
LINE
  5
467
100
AcDbEntity
  8
0
100
AcDbLine
 62
7
  6
CONTINUOUS
 10
188.9501304925
 20
143.2721449902
 11
257.0765873186
 21
83.949757451
  0
LINE
  5
468
100
AcDbEntity
  8
DTM_AXIS
100
AcDbLine
 62
7
  6
CONTINUOUS
 10
229.345971714
 20
80.8601095807
 11
229.2733962653
 21
93.0154042763
  0
LINE
  5
469
100
AcDbEntity
  8
DTM_AXIS
100
AcDbLine
 62
7
  6
CONTINUOUS
 10
229.8285792129
 20
77.8582773763
 11
229.8309147469
 21
77.4672257508
  0
LINE
  5
46A
100
AcDbEntity
  8
DTM_AXIS
100
AcDbLine
 62
7
  6
CONTINUOUS
 10
230.478574065
 20
79.8738738352
 11
230.4059986101
 21
92.0291695834
  0
LINE
  5
46B
100
AcDbEntity
  8
DTM_AXIS
100
AcDbLine
 62
7
  6
CONTINUOUS
 10
230.9611815576
 20
76.8720426835
 11
230.9635170916
 21
76.480991058
  0
LINE
  5
46C
100
AcDbEntity
  8
DTM_AXIS
100
AcDbLine
 62
7
  6
CONTINUOUS
 10
232.0937839024
 20
75.8858079906
 11
232.0961194364
 21
75.4947563651
  0
LINE
  5
46D
100
AcDbEntity
  8
DTM_AXIS
100
AcDbLine
 62
7
  6
CONTINUOUS
 10
232.0913998039
 20
78.4694756325
 11
232.018824349
 21
90.6247713808
  0
LINE
  5
46E
100
AcDbEntity
  8
DTM_AXIS
100
AcDbLine
 62
7
  6
CONTINUOUS
 10
233.2263862471
 20
74.8995732978
 11
233.2287217811
 21
74.5085216723
  0
LINE
  5
46F
100
AcDbEntity
  8
DTM_AXIS
100
AcDbLine
 62
7
  6
CONTINUOUS
 10
233.2240021424
 20
77.4832419925
 11
233.1514266937
 21
89.638536688
  0
LINE
  5
470
100
AcDbEntity
  8
DTM_AXIS
100
AcDbLine
 62
7
  6
CONTINUOUS
 10
233.8763810929
 20
76.9151708094
 11
233.8038056443
 21
89.0704655049
  0
LINE
  5
471
100
AcDbEntity
  8
DTM_AXIS
100
AcDbLine
 62
7
  6
CONTINUOUS
 10
234.3589885918
 20
73.9133386049
 11
234.3613241258
 21
73.5222869795
  0
LINE
  5
472
100
AcDbEntity
  8
DTM_AXIS
100
AcDbLine
 62
7
  6
CONTINUOUS
 10
229.8224442125
 20
80.4419085275
 11
229.7536196595
 21
92.5972407665
  0
LINE
  5
473
100
AcDbEntity
  8
DTM_AXIS
100
AcDbLine
 62
7
  6
CONTINUOUS
 10
230.9550465573
 20
79.4556738347
 11
230.8862220042
 21
91.6110060736
  0
LINE
  5
474
100
AcDbEntity
  8
DTM_AXIS
100
AcDbLine
 62
7
  6
CONTINUOUS
 10
231.6074255078
 20
78.8876026516
 11
231.5386009548
 21
91.0429348906
  0
LINE
  5
475
100
AcDbEntity
  8
DTM_AXIS
100
AcDbLine
 62
7
  6
CONTINUOUS
 10
232.7400278526
 20
77.9013679588
 11
232.6712032995
 21
90.0567001977
  0
LINE
  5
476
100
AcDbEntity
  8
DTM_AXIS
100
AcDbLine
 62
7
  6
CONTINUOUS
 10
234.3528535915
 20
76.4969697562
 11
234.2840290384
 21
88.6523019951
  0
LINE
  5
477
100
AcDbEntity
  8
DTM_AXIS
100
AcDbLine
 62
7
  6
CONTINUOUS
 10
190.8337410974
 20
114.3920515938
 11
187.4830066804
 21
114.3424594094
  0
LINE
  5
478
100
AcDbEntity
  8
DTM_AXIS
100
AcDbLine
 62
7
  6
CONTINUOUS
 10
186.3504043357
 20
115.3286941023
 11
189.7011387527
 21
115.3782862866
  0
LINE
  5
479
100
AcDbEntity
  8
DTM_AXIS
100
AcDbLine
 62
7
  6
CONTINUOUS
 10
185.2178019909
 20
116.3149287951
 11
188.5685364079
 21
116.3645209795
  0
LINE
  5
47A
100
AcDbEntity
  8
DTM_AXIS
100
AcDbLine
 62
7
  6
CONTINUOUS
 10
187.4359340632
 20
117.3507556723
 11
184.0851996462
 21
117.3011634879
  0
LINE
  5
47B
100
AcDbEntity
  8
DTM_AXIS
100
AcDbLine
 62
7
  6
CONTINUOUS
 10
186.3033317185
 20
118.3369903652
 11
182.9525973015
 21
118.2873981808
  0
LINE
  5
47C
100
AcDbEntity
  8
DTM_AXIS
100
AcDbLine
 62
7
  6
CONTINUOUS
 10
181.8199949567
 20
119.2736328736
 11
185.1707293737
 21
119.323225058
  0
LINE
  5
47D
100
AcDbEntity
  8
0
100
AcDbLine
 62
7
  6
CONTINUOUS
 10
168.3891164312
 20
115.1127130572
 11
165.2768035268
 21
115.0824348737
  0
LINE
  5
47E
100
AcDbEntity
  8
DTM_AXIS
100
AcDbLine
 62
7
  6
CONTINUOUS
 10
203.2260533022
 20
115.2782532552
 11
203.7037657306
 21
115.2806387018
  0
LINE
  5
47F
100
AcDbEntity
  8
DTM_AXIS
100
AcDbLine
 62
7
  6
CONTINUOUS
 10
202.0934509575
 20
116.2644879481
 11
202.5711633859
 21
116.2668733946
  0
LINE
  5
480
100
AcDbEntity
  8
DTM_AXIS
100
AcDbLine
 62
7
  6
CONTINUOUS
 10
200.9607188356
 20
117.2507219929
 11
201.4385610412
 21
117.2531080875
  0
LINE
  5
481
100
AcDbEntity
  8
DTM_AXIS
100
AcDbLine
 62
7
  6
CONTINUOUS
 10
199.8281164908
 20
118.2369566857
 11
200.3059586964
 21
118.2393427803
  0
LINE
  5
482
100
AcDbEntity
  8
DTM_AXIS
100
AcDbLine
 62
7
  6
CONTINUOUS
 10
198.6956439233
 20
119.2231920266
 11
199.1733563517
 21
119.2255774731
  0
LINE
  5
483
100
AcDbEntity
  8
DTM_AXIS
100
AcDbLine
 62
7
  6
CONTINUOUS
 10
190.1813621468
 20
114.9601227769
 11
186.792025647
 21
114.9441440787
  0
LINE
  5
484
100
AcDbEntity
  8
DTM_AXIS
100
AcDbLine
 62
7
  6
CONTINUOUS
 10
189.0487598021
 20
115.9463574697
 11
185.6594233023
 21
115.9303787715
  0
LINE
  5
485
100
AcDbEntity
  8
DTM_AXIS
100
AcDbLine
 62
7
  6
CONTINUOUS
 10
184.5268209576
 20
116.9166134644
 11
187.9161574574
 21
116.9325921626
  0
LINE
  5
486
100
AcDbEntity
  8
DTM_AXIS
100
AcDbLine
 62
7
  6
CONTINUOUS
 10
183.3942186128
 20
117.9028481572
 11
186.7835551126
 21
117.9188268554
  0
LINE
  5
487
100
AcDbEntity
  8
DTM_AXIS
100
AcDbLine
 62
7
  6
CONTINUOUS
 10
185.6509527679
 20
118.9050615482
 11
182.2616162681
 21
118.8890828501
  0
LINE
  5
488
100
AcDbEntity
  8
DTM_AXIS
100
AcDbLine
 62
7
  6
CONTINUOUS
 10
184.5183504232
 20
119.8912962411
 11
181.1290139234
 21
119.8753175429
  0
LINE
  5
489
100
AcDbEntity
  8
0
100
AcDbLine
 62
7
  6
CONTINUOUS
 10
196.5269949419
 20
143.3458566314
 11
264.653451768
 21
84.0234690922
  0
LINE
  5
48A
100
AcDbEntity
  8
0
100
AcDbLine
 62
7
  6
CONTINUOUS
 10
201.7906046871
 20
140.3406523504
 11
269.9170615132
 21
81.0182648112
  0
LINE
  5
48B
100
AcDbEntity
  8
DTM_AXIS
100
AcDbLine
 62
7
  6
CONTINUOUS
 10
235.0089834439
 20
75.9289350638
 11
234.936407989
 21
88.0842308121
  0
LINE
  5
48C
100
AcDbEntity
  8
DTM_AXIS
100
AcDbLine
 62
7
  6
CONTINUOUS
 10
235.4915909366
 20
72.9271039121
 11
235.4939264706
 21
72.5360522866
  0
LINE
  5
48D
100
AcDbEntity
  8
DTM_AXIS
100
AcDbLine
 62
7
  6
CONTINUOUS
 10
236.6241932813
 20
71.9408692193
 11
236.6265288153
 21
71.5498175938
  0
LINE
  5
48E
100
AcDbEntity
  8
DTM_AXIS
100
AcDbLine
 62
7
  6
CONTINUOUS
 10
236.6218091828
 20
74.5245368612
 11
236.5492337279
 21
86.6798326095
  0
LINE
  5
48F
100
AcDbEntity
  8
DTM_AXIS
100
AcDbLine
 62
7
  6
CONTINUOUS
 10
237.756795626
 20
70.9546345264
 11
237.7591311601
 21
70.563582901
  0
LINE
  5
490
100
AcDbEntity
  8
DTM_AXIS
100
AcDbLine
 62
7
  6
CONTINUOUS
 10
237.7544115213
 20
73.5383032211
 11
237.6818360726
 21
85.6935979166
  0
LINE
  5
491
100
AcDbEntity
  8
DTM_AXIS
100
AcDbLine
 62
7
  6
CONTINUOUS
 10
238.4067904719
 20
72.970232038
 11
238.3342150232
 21
85.1255267335
  0
LINE
  5
492
100
AcDbEntity
  8
DTM_AXIS
100
AcDbLine
 62
7
  6
CONTINUOUS
 10
238.8893979708
 20
69.9683998336
 11
238.8917335048
 21
69.5773482081
  0
LINE
  5
493
100
AcDbEntity
  8
DTM_AXIS
100
AcDbLine
 62
7
  6
CONTINUOUS
 10
239.5393928229
 20
71.9839962924
 11
239.4668173679
 21
84.1392920407
  0
LINE
  5
494
100
AcDbEntity
  8
DTM_AXIS
100
AcDbLine
 62
7
  6
CONTINUOUS
 10
240.0220003155
 20
68.9821651407
 11
240.0243358495
 21
68.5911135153
  0
LINE
  5
495
100
AcDbEntity
  8
DTM_AXIS
100
AcDbLine
 62
7
  6
CONTINUOUS
 10
235.4854559362
 20
75.5107350633
 11
235.4166313832
 21
87.6660673023
  0
LINE
  5
496
100
AcDbEntity
  8
DTM_AXIS
100
AcDbLine
 62
7
  6
CONTINUOUS
 10
236.1378348868
 20
74.9426638803
 11
236.0690103337
 21
87.0979961192
  0
LINE
  5
497
100
AcDbEntity
  8
0
100
AcDbLine
 62
7
  6
CONTINUOUS
 10
236.5064418145
 20
57.4030598775
 11
236.5155732573
 21
55.790325518
  0
LINE
  5
498
100
AcDbEntity
  8
DTM_AXIS
100
AcDbLine
 62
7
  6
CONTINUOUS
 10
237.2704372315
 20
73.9564291874
 11
237.2016126785
 21
86.1117614264
  0
LINE
  5
499
100
AcDbEntity
  8
DTM_AXIS
100
AcDbLine
 62
7
  6
CONTINUOUS
 10
238.8832629704
 20
72.5520309848
 11
238.8144384174
 21
84.7073632238
  0
LINE
  5
49A
100
AcDbEntity
  8
DTM_AXIS
100
AcDbLine
 62
7
  6
CONTINUOUS
 10
240.0158653151
 20
71.565796292
 11
239.9470407621
 21
83.7211285309
  0
LINE
  5
49B
100
AcDbEntity
  8
DTM_AXIS
100
AcDbLine
 62
7
  6
CONTINUOUS
 10
180.687392612
 20
120.2598675665
 11
184.038127029
 21
120.3094597508
  0
LINE
  5
49C
100
AcDbEntity
  8
DTM_AXIS
100
AcDbLine
 62
7
  6
CONTINUOUS
 10
182.9055246843
 20
121.2956944437
 11
179.5547902673
 21
121.2461022593
  0
LINE
  5
49D
100
AcDbEntity
  8
DTM_AXIS
100
AcDbLine
 62
7
  6
CONTINUOUS
 10
181.7729223395
 20
122.2819291365
 11
178.4221879225
 21
122.2323369521
  0
LINE
  5
49E
100
AcDbEntity
  8
DTM_AXIS
100
AcDbLine
 62
7
  6
CONTINUOUS
 10
177.2895855778
 20
123.218571645
 11
180.6403199948
 21
123.2681638294
  0
LINE
  5
49F
100
AcDbEntity
  8
0
100
AcDbLine
 62
7
  6
CONTINUOUS
 10
176.013116408
 20
120.6899440357
 11
172.8988520754
 21
120.6596468677
  0
LINE
  5
4A0
100
AcDbEntity
  8
0
100
AcDbLine
 62
7
  6
CONTINUOUS
 10
175.995383152
 20
123.6599973505
 11
180.1477355955
 21
123.7003935745
  0
LINE
  5
4A1
100
AcDbEntity
  8
DTM_AXIS
100
AcDbLine
 62
7
  6
CONTINUOUS
 10
197.5630415786
 20
120.2094267194
 11
198.0407540069
 21
120.211812166
  0
LINE
  5
4A2
100
AcDbEntity
  8
DTM_AXIS
100
AcDbLine
 62
7
  6
CONTINUOUS
 10
196.4303094566
 20
121.1956607642
 11
196.9081516622
 21
121.1980468588
  0
LINE
  5
4A3
100
AcDbEntity
  8
DTM_AXIS
100
AcDbLine
 62
7
  6
CONTINUOUS
 10
195.2977071119
 20
122.181895457
 11
195.7755493175
 21
122.1842815516
  0
LINE
  5
4A4
100
AcDbEntity
  8
DTM_AXIS
100
AcDbLine
 62
7
  6
CONTINUOUS
 10
194.1652345444
 20
123.1681307979
 11
194.6429469727
 21
123.1705162445
  0
LINE
  5
4A5
100
AcDbEntity
  8
DTM_AXIS
100
AcDbLine
 62
7
  6
CONTINUOUS
 10
193.0326321996
 20
124.1543654908
 11
193.510344628
 21
124.1567509373
  0
LINE
  5
4A6
100
AcDbEntity
  8
DTM_AXIS
100
AcDbLine
 62
7
  6
CONTINUOUS
 10
191.8999000777
 20
125.1405995356
 11
192.3777422833
 21
125.1429856302
  0
LINE
  5
4A7
100
AcDbEntity
  8
DTM_AXIS
100
AcDbLine
 62
7
  6
CONTINUOUS
 10
179.9964115786
 20
120.8615522357
 11
183.3857480784
 21
120.8775309339
  0
LINE
  5
4A8
100
AcDbEntity
  8
DTM_AXIS
100
AcDbLine
 62
7
  6
CONTINUOUS
 10
178.8638092339
 20
121.8477869286
 11
182.2531457337
 21
121.8637656267
  0
LINE
  5
4A9
100
AcDbEntity
  8
DTM_AXIS
100
AcDbLine
 62
7
  6
CONTINUOUS
 10
181.120543389
 20
122.8500003196
 11
177.7312068892
 21
122.8340216214
  0
LINE
  5
4AA
100
AcDbEntity
  8
0
100
AcDbLine
 62
7
  6
CONTINUOUS
 10
207.8198138218
 20
140.3993076033
 11
275.9462706479
 21
81.0769200641
  0
LINE
  5
4AB
100
AcDbEntity
  8
DTM_AXIS
100
AcDbLine
 62
7
  6
CONTINUOUS
 10
241.1546026602
 20
67.9959304479
 11
241.1569381943
 21
67.6048788224
  0
LINE
  5
4AC
100
AcDbEntity
  8
DTM_AXIS
100
AcDbLine
 62
7
  6
CONTINUOUS
 10
241.1522185618
 20
70.5795980898
 11
241.0796431068
 21
82.7348938381
  0
LINE
  5
4AD
100
AcDbEntity
  8
DTM_AXIS
100
AcDbLine
 62
7
  6
CONTINUOUS
 10
242.287205005
 20
67.0096957551
 11
242.289540539
 21
66.6186441296
  0
LINE
  5
4AE
100
AcDbEntity
  8
DTM_AXIS
100
AcDbLine
 62
7
  6
CONTINUOUS
 10
242.2848209002
 20
69.5933644497
 11
242.2122454516
 21
81.7486591453
  0
LINE
  5
4AF
100
AcDbEntity
  8
DTM_AXIS
100
AcDbLine
 62
7
  6
CONTINUOUS
 10
242.9371998508
 20
69.0252932667
 11
242.8646244021
 21
81.1805879622
  0
LINE
  5
4B0
100
AcDbEntity
  8
DTM_AXIS
100
AcDbLine
 62
7
  6
CONTINUOUS
 10
243.4198073497
 20
66.0234610622
 11
243.4221428837
 21
65.6324094368
  0
LINE
  5
4B1
100
AcDbEntity
  8
DTM_AXIS
100
AcDbLine
 62
7
  6
CONTINUOUS
 10
244.0698022018
 20
68.0390575211
 11
243.9972267469
 21
80.1943532693
  0
LINE
  5
4B2
100
AcDbEntity
  8
0
100
AcDbLine
 62
7
  6
CONTINUOUS
 10
244.1218399781
 20
64.3376098113
 11
244.1395732341
 21
61.3675564965
  0
LINE
  5
4B3
100
AcDbEntity
  8
DTM_AXIS
100
AcDbLine
 62
7
  6
CONTINUOUS
 10
244.5524096944
 20
65.0372263694
 11
244.5547452285
 21
64.6461747439
  0
LINE
  5
4B4
100
AcDbEntity
  8
DTM_AXIS
100
AcDbLine
 62
7
  6
CONTINUOUS
 10
245.6826279407
 20
66.6346593185
 11
245.6100524858
 21
78.7899550667
  0
LINE
  5
4B5
100
AcDbEntity
  8
DTM_AXIS
100
AcDbLine
 62
7
  6
CONTINUOUS
 10
240.6682442657
 20
70.9977251089
 11
240.5994197127
 21
83.1530573479
  0
LINE
  5
4B6
100
AcDbEntity
  8
DTM_AXIS
100
AcDbLine
 62
7
  6
CONTINUOUS
 10
241.8008466104
 20
70.0114904161
 11
241.7320220574
 21
82.166822655
  0
LINE
  5
4B7
100
AcDbEntity
  8
DTM_AXIS
100
AcDbLine
 62
7
  6
CONTINUOUS
 10
243.4136723493
 20
68.6070922135
 11
243.3448477963
 21
80.7624244524
  0
LINE
  5
4B8
100
AcDbEntity
  8
DTM_AXIS
100
AcDbLine
 62
7
  6
CONTINUOUS
 10
244.5462746941
 20
67.6208575206
 11
244.477450141
 21
79.7761897596
  0
LINE
  5
4B9
100
AcDbEntity
  8
DTM_AXIS
100
AcDbLine
 62
7
  6
CONTINUOUS
 10
245.1986536446
 20
67.0527863375
 11
245.1298290916
 21
79.2081185765
  0
LINE
  5
4BA
100
AcDbEntity
  8
DTM_AXIS
100
AcDbLine
 62
7
  6
CONTINUOUS
 10
190.767297733
 20
126.1268342284
 11
191.2451399385
 21
126.129220323
  0
LINE
  5
4BB
100
AcDbEntity
  8
DTM_AXIS
100
AcDbLine
 62
7
  6
CONTINUOUS
 10
189.6348251654
 20
127.1130695693
 11
190.1125375938
 21
127.1154550158
  0
LINE
  5
4BC
100
AcDbEntity
  8
DTM_AXIS
100
AcDbLine
 62
7
  6
CONTINUOUS
 10
188.5022228207
 20
128.0993042621
 11
188.9799352491
 21
128.1016897087
  0
LINE
  5
4BD
100
AcDbEntity
  8
DTM_AXIS
100
AcDbLine
 62
7
  6
CONTINUOUS
 10
187.3694906988
 20
129.0855383069
 11
187.8473329043
 21
129.0879244015
  0
LINE
  5
4BE
100
AcDbEntity
  8
DTM_AXIS
100
AcDbLine
 62
7
  6
CONTINUOUS
 10
186.236888354
 20
130.0717729998
 11
186.7147305596
 21
130.0741590944
  0
LINE
  5
4BF
100
AcDbEntity
  8
DTM_AXIS
100
AcDbLine
 62
7
  6
CONTINUOUS
 10
185.1044157865
 20
131.0580083406
 11
185.5821282149
 21
131.0603937872
  0
LINE
  5
4C0
100
AcDbEntity
  8
0
100
AcDbLine
 62
7
  6
CONTINUOUS
 10
207.7483779949
 20
153.0158255654
 11
275.874834821
 21
93.6934380262
  0
LINE
  5
4C1
100
AcDbEntity
  8
DTM_AXIS
100
AcDbLine
 62
7
  6
CONTINUOUS
 10
246.8152302792
 20
65.6484256784
 11
246.7426548305
 21
77.8037203739
  0
LINE
  5
4C2
100
AcDbEntity
  8
DTM_AXIS
100
AcDbLine
 62
7
  6
CONTINUOUS
 10
247.4676092297
 20
65.0803544953
 11
247.3950337811
 21
77.2356491908
  0
LINE
  5
4C3
100
AcDbEntity
  8
0
100
AcDbLine
 62
7
  6
CONTINUOUS
 10
248.2016169667
 20
76.5333017836
 11
248.2741924216
 21
64.3780060353
  0
LINE
  5
4C4
100
AcDbEntity
  8
0
100
AcDbLine
 62
7
  6
CONTINUOUS
 10
249.1576685915
 20
77.2427099755
 11
249.1618468601
 21
76.5429129134
  0
LINE
  5
4C5
100
AcDbEntity
  8
DTM_AXIS
100
AcDbLine
 62
7
  6
CONTINUOUS
 10
246.3312559894
 20
66.0665516447
 11
246.2624314363
 21
78.2218838837
  0
LINE
  5
4C6
100
AcDbEntity
  8
DTM_AXIS
100
AcDbLine
 62
7
  6
CONTINUOUS
 10
247.9440817283
 20
64.6621534421
 11
247.8752571752
 21
76.8174856811
  0
LINE
  5
4C7
100
AcDbEntity
  8
0
100
AcDbLine
 62
7
  6
CONTINUOUS
 10
181.035390034
 20
135.8653004526
 11
180.0751601406
 21
135.8556893227
  0
LINE
  5
4C8
100
AcDbEntity
  8
DTM_AXIS
100
AcDbLine
 62
7
  6
CONTINUOUS
 10
183.9718134418
 20
132.0442430335
 11
184.4495258701
 21
132.04662848
  0
LINE
  5
4C9
100
AcDbEntity
  8
DTM_AXIS
100
AcDbLine
 62
7
  6
CONTINUOUS
 10
182.8390813198
 20
133.0304770783
 11
183.3169235254
 21
133.0328631729
  0
LINE
  5
4CA
100
AcDbEntity
  8
DTM_AXIS
100
AcDbLine
 62
7
  6
CONTINUOUS
 10
181.7064789751
 20
134.0167117711
 11
182.1843211807
 21
134.0190978657
  0
LINE
  5
4CB
100
AcDbEntity
  8
DTM_AXIS
100
AcDbLine
 62
7
  6
CONTINUOUS
 10
180.5740064076
 20
135.002947112
 11
181.0517188359
 21
135.0053325586
  0
LINE
  5
4CC
100
AcDbEntity
  8
0
100
AcDbLine
 62
7
  6
CONTINUOUS
 10
211.3693891503
 20
156.5233378118
 11
279.4958459764
 21
97.2009502726
  0
LINE
  5
4CD
100
AcDbEntity
  8
0
100
AcDbLine
 62
7
  6
CONTINUOUS
 10
212.0816248528
 20
156.5302668077
 11
280.2080816789
 21
97.2078792685
  0
LINE
  5
4CE
100
AcDbEntity
  8
0
100
AcDbLine
 62
7
  6
CONTINUOUS
 10
216.8258496857
 20
171.2929507998
 11
216.7054620924
 21
171.4884870656
  0
LINE
  5
4CF
100
AcDbEntity
  8
0
100
AcDbLine
 62
7
  6
CONTINUOUS
 10
253.8257225164
 20
81.9415750187
 11
253.8366550851
 21
80.0107378704
  0
LINE
  5
4D0
100
AcDbEntity
  8
0
100
AcDbLine
 62
7
  6
CONTINUOUS
 10
257.0765873186
 20
83.949757451
 11
257.0877781369
 21
81.9733099764
  0
LINE
  5
4D1
100
AcDbEntity
  8
0
100
AcDbLine
 62
7
  6
CONTINUOUS
 10
185.7101982589
 20
139.3331254096
 11
183.8694914257
 21
139.3152180651
  0
LINE
  5
4D2
100
AcDbEntity
  8
0
100
AcDbLine
 62
7
  6
CONTINUOUS
 10
207.8198138218
 20
140.3993076033
 11
201.7906046871
 21
140.3406523504
  0
LINE
  5
4D3
100
AcDbEntity
  8
0
100
AcDbLine
 62
7
  6
CONTINUOUS
 10
188.9613213108
 20
141.2956975156
 11
185.6992656903
 21
141.2639625578
  0
LINE
  5
4D4
100
AcDbEntity
  8
0
100
AcDbLine
 62
7
  6
CONTINUOUS
 10
212.0649974735
 20
159.4668833363
 11
280.1914542996
 21
100.1444957972
  0
LINE
  5
4D5
100
AcDbEntity
  8
0
100
AcDbLine
 62
7
  6
CONTINUOUS
 10
214.8716753937
 20
162.2695339132
 11
282.9981322198
 21
102.947146374
  0
LINE
  5
4D6
100
AcDbEntity
  8
0
100
AcDbLine
 62
7
  6
CONTINUOUS
 10
196.5269949419
 20
143.3458566314
 11
188.9501304925
 21
143.2721449902
  0
LINE
  5
4D7
100
AcDbEntity
  8
0
100
AcDbLine
 62
7
  6
CONTINUOUS
 10
199.4697766597
 20
148.3248619166
 11
191.4090539609
 21
148.2464430531
  0
LINE
  5
4D8
100
AcDbEntity
  8
0
100
AcDbLine
 62
7
  6
CONTINUOUS
 10
218.6709552868
 20
164.6983455892
 11
286.7974121129
 21
105.37595805
  0
LINE
  5
4D9
100
AcDbEntity
  8
0
100
AcDbLine
 62
7
  6
CONTINUOUS
 10
219.4953490412
 20
164.7063657164
 11
287.6218058673
 21
105.3839781772
  0
LINE
  5
4DA
100
AcDbEntity
  8
0
100
AcDbLine
 62
7
  6
CONTINUOUS
 10
219.4778410392
 20
167.7985119429
 11
287.6042978653
 21
108.4761244037
  0
LINE
  5
4DB
100
AcDbEntity
  8
0
100
AcDbLine
 62
7
  6
CONTINUOUS
 10
219.7343764154
 20
167.8070326571
 11
287.8608332415
 21
108.4846451179
  0
LINE
  5
4DC
100
AcDbEntity
  8
0
100
AcDbLine
 62
7
  6
CONTINUOUS
 10
216.8258496857
 20
171.2929507998
 11
217.2301347086
 21
170.9409120482
  0
LINE
  5
4DD
100
AcDbEntity
  8
0
100
AcDbLine
 62
7
  6
CONTINUOUS
 10
216.7054620924
 20
171.4884870656
 11
217.4013614057
 21
170.882519712
  0
LINE
  5
4DE
100
AcDbEntity
  8
0
100
AcDbLine
 62
7
  6
CONTINUOUS
 10
222.8282988479
 20
170.8125802332
 11
290.954755674
 21
111.4901926941
  0
LINE
  5
4DF
100
AcDbEntity
  8
0
100
AcDbLine
 62
7
  6
CONTINUOUS
 10
290.9505915913
 20
112.2256251267
 11
222.8241347652
 21
171.5480126658
  0
LINE
  5
4E0
100
AcDbEntity
  8
0
100
AcDbLine
 62
7
  6
CONTINUOUS
 10
212.0816248528
 20
156.5302668077
 11
211.3693891503
 21
156.5233378118
  0
LINE
  5
4E1
100
AcDbEntity
  8
0
100
AcDbLine
 62
7
  6
CONTINUOUS
 10
275.874834821
 20
93.6934380262
 11
275.9462706479
 21
81.0769200641
  0
LINE
  5
4E2
100
AcDbEntity
  8
0
100
AcDbLine
 62
7
  6
CONTINUOUS
 10
280.1914542996
 20
100.1444957972
 11
280.2080816789
 21
97.2078792685
  0
LINE
  5
4E3
100
AcDbEntity
  8
0
100
AcDbLine
 62
7
  6
CONTINUOUS
 10
219.4953490412
 20
164.7063657164
 11
218.6709552868
 21
164.6983455892
  0
LINE
  5
4E4
100
AcDbEntity
  8
0
100
AcDbLine
 62
7
  6
CONTINUOUS
 10
219.7343764154
 20
167.8070326571
 11
219.4778410392
 21
167.7985119429
  0
LINE
  5
4E5
100
AcDbEntity
  8
0
100
AcDbLine
 62
7
  6
CONTINUOUS
 10
287.6042978653
 20
108.4761244037
 11
287.6218058673
 21
105.3839781772
  0
LINE
  5
4E6
100
AcDbEntity
  8
0
100
AcDbLine
 62
7
  6
CONTINUOUS
 10
290.9505915913
 20
112.2256251267
 11
290.954755674
 21
111.4901926941
  0
LINE
  5
4E7
100
AcDbEntity
  8
0
100
AcDbLine
 62
7
  6
CONTINUOUS
 10
222.8241347652
 20
171.5480126658
 11
218.5325809587
 21
171.5062622193
  0
LINE
  5
4E8
100
AcDbEntity
  8
0
100
AcDbLine
 62
7
  6
CONTINUOUS
 10
216.7054620924
 20
171.4884870656
 11
212.0327116647
 21
171.4430281419
  0
LINE
  5
4E9
100
AcDbEntity
  8
0
100
AcDbLine
 62
7
  6
CONTINUOUS
 10
27.4392642241
 20
71.7901942043
 11
28.6746192485
 21
68.5621726946
  0
LINE
  5
4EA
100
AcDbEntity
  8
0
100
AcDbLine
 62
7
  6
CONTINUOUS
 10
27.4392642241
 20
78.4118556574
 11
27.4392642241
 21
71.7901942043
  0
LINE
  5
4EB
100
AcDbEntity
  8
0
100
AcDbLine
 62
7
  6
CONTINUOUS
 10
27.4392642241
 20
66.2323851483
 11
27.4392642241
 21
58.03223013
  0
LINE
  5
4EC
100
AcDbEntity
  8
0
100
AcDbLine
 62
7
  6
CONTINUOUS
 10
33.6784855366
 20
58.03223013
 11
27.4392642241
 21
58.03223013
  0
LINE
  5
4ED
100
AcDbEntity
  8
0
100
AcDbLine
 62
7
  6
CONTINUOUS
 10
33.6784855366
 20
61.2635420583
 11
33.6784855366
 21
58.03223013
  0
LINE
  5
4EE
100
AcDbEntity
  8
0
100
AcDbLine
 62
7
  6
CONTINUOUS
 10
40.1725466289
 20
94.0420769997
 11
40.174291526
 21
88.3904973454
  0
LINE
  5
4EF
100
AcDbEntity
  8
0
100
AcDbLine
 62
7
  6
CONTINUOUS
 10
49.0246993068
 20
69.0576828847
 11
42.7815659864
 21
69.0576828847
  0
LINE
  5
4F0
100
AcDbEntity
  8
DTM_AXIS
100
AcDbLine
 62
8
  6
HIDDEN
 10
57.3395203669
 20
75.0085683847
 11
50.5836453306
 21
75.0085683847
  0
LINE
  5
4F1
100
AcDbEntity
  8
0
100
AcDbLine
 62
7
  6
CONTINUOUS
 10
49.0228620005
 20
75.0085683847
 11
57.347039761
 21
75.0085683847
  0
LINE
  5
4F2
100
AcDbEntity
  8
0
100
AcDbLine
 62
7
  6
CONTINUOUS
 10
49.0228620005
 20
75.0085683847
 11
49.0246993068
 21
69.0576828847
  0
LINE
  5
4F3
100
AcDbEntity
  8
DTM_AXIS
100
AcDbLine
 62
8
  6
HIDDEN
 10
50.5788827646
 20
90.4341320689
 11
50.5836453306
 21
75.0085683847
  0
LINE
  5
4F4
100
AcDbEntity
  8
DTM_AXIS
100
AcDbLine
 62
8
  6
HIDDEN
 10
53.9578234446
 20
99.3623250669
 11
53.9605799797
 21
90.4341320689
  0
LINE
  5
4F5
100
AcDbEntity
  8
0
100
AcDbLine
 62
7
  6
CONTINUOUS
 10
57.3395203669
 20
99.3632736877
 11
57.347039761
 21
75.0085683847
  0
LINE
  5
4F6
100
AcDbEntity
  8
DTM_AXIS
100
AcDbLine
 62
8
  6
HIDDEN
 10
57.3470397603
 20
75.008570494
 11
57.3395203669
 21
99.3632736877
  0
LINE
  5
4F7
100
AcDbEntity
  8
0
100
AcDbLine
 62
7
  6
CONTINUOUS
 10
59.2640534054
 20
100.7659474885
 11
59.2644863073
 21
99.3638136718
  0
LINE
  5
4F8
100
AcDbEntity
  8
DTM_AXIS
100
AcDbLine
 62
8
  6
HIDDEN
 10
57.3395203669
 20
75.0085683847
 11
57.3395203669
 21
99.3632736877
  0
LINE
  5
4F9
100
AcDbEntity
  8
DTM_AXIS
100
AcDbLine
 62
8
  6
HIDDEN
 10
53.9605799797
 20
90.4341320689
 11
50.5788827646
 21
90.4341320689
  0
LINE
  5
4FA
100
AcDbEntity
  8
0
100
AcDbLine
 62
7
  6
CONTINUOUS
 10
68.6748697174
 20
110.0891977914
 11
68.6748697174
 21
106.2205277452
  0
LINE
  5
4FB
100
AcDbEntity
  8
0
100
AcDbLine
 62
7
  6
CONTINUOUS
 10
75.2142786955
 20
114.0492537441
 11
75.2142786955
 21
110.0891977914
  0
LINE
  5
4FC
100
AcDbEntity
  8
0
100
AcDbLine
 62
7
  6
CONTINUOUS
 10
67.5589231541
 20
119.8885002467
 11
45.0742595128
 21
103.5000130012
  0
LINE
  5
4FD
100
AcDbEntity
  8
0
100
AcDbLine
 62
7
  6
CONTINUOUS
 10
59.2644863073
 20
99.3638136718
 11
57.3395203669
 21
99.3632736877
  0
LINE
  5
4FE
100
AcDbEntity
  8
DTM_AXIS
100
AcDbLine
 62
8
  6
HIDDEN
 10
53.9578234446
 20
99.3623250669
 11
57.3395203669
 21
99.3632736877
  0
LINE
  5
4FF
100
AcDbEntity
  8
0
100
AcDbLine
 62
7
  6
CONTINUOUS
 10
68.6748697174
 20
106.2205277452
 11
64.9848238714
 21
106.2205277452
  0
LINE
  5
500
100
AcDbEntity
  8
0
100
AcDbLine
 62
7
  6
CONTINUOUS
 10
113.0074460453
 20
107.9256943797
 11
100.9207531945
 21
107.9256943797
  0
LINE
  5
501
100
AcDbEntity
  8
0
100
AcDbLine
 62
7
  6
CONTINUOUS
 10
75.2142786955
 20
110.0891977914
 11
68.6748697174
 21
110.0891977914
  0
LINE
  5
502
100
AcDbEntity
  8
0
100
AcDbLine
 62
7
  6
CONTINUOUS
 10
90.4035400605
 20
114.0492537441
 11
75.2142786955
 21
114.0492537441
  0
LINE
  5
503
100
AcDbEntity
  8
0
100
AcDbLine
 62
7
  6
CONTINUOUS
 10
121.80488276
 20
170.0400716403
 11
103.5591891537
 21
136.9754255818
  0
LINE
  5
504
100
AcDbEntity
  8
0
100
AcDbLine
 62
7
  6
CONTINUOUS
 10
96.3590912453
 20
123.9673962441
 11
80.1998442797
 21
123.9673962441
  0
LINE
  5
505
100
AcDbEntity
  8
0
100
AcDbLine
 62
7
  6
CONTINUOUS
 10
34.6994527147
 20
80.9329569862
 11
27.4392642241
 21
78.4118556574
  0
LINE
  5
506
100
AcDbEntity
  8
0
100
AcDbLine
 62
7
  6
CONTINUOUS
 10
102.6022242953
 20
133.281758864
 11
102.6022242953
 21
129.9182817441
  0
LINE
  5
507
100
AcDbEntity
  8
0
100
AcDbLine
 62
7
  6
CONTINUOUS
 10
113.0074460453
 20
133.204442083
 11
113.0074460453
 21
107.9256943797
  0
LINE
  5
508
100
AcDbEntity
  8
0
100
AcDbLine
 62
7
  6
CONTINUOUS
 10
134.8351031373
 20
170.0400716403
 11
134.7927332338
 21
169.9291105768
  0
LINE
  5
509
100
AcDbEntity
  8
0
100
AcDbLine
 62
7
  6
CONTINUOUS
 10
27.5556745773
 20
66.2727716726
 11
27.4392642241
 21
66.2323851483
  0
LINE
  5
50A
100
AcDbEntity
  8
0
100
AcDbLine
 62
7
  6
CONTINUOUS
 10
121.7336717497
 20
140.1612099236
 11
120.3058602439
 21
140.1612099236
  0
LINE
  5
50B
100
AcDbEntity
  8
0
100
AcDbLine
 62
7
  6
CONTINUOUS
 10
121.7336717497
 20
146.0450828394
 11
121.7336717497
 21
140.1612099236
  0
LINE
  5
50C
100
AcDbEntity
  8
0
100
AcDbLine
 62
7
  6
CONTINUOUS
 10
136.6878684695
 20
156.3976263918
 11
135.0352148834
 21
156.3976263918
  0
LINE
  5
50D
100
AcDbEntity
  8
0
100
AcDbLine
 62
7
  6
CONTINUOUS
 10
137.2022106547
 20
162.6051933903
 11
136.6878684695
 21
162.5931222138
  0
LINE
  5
50E
100
AcDbEntity
  8
0
100
AcDbLine
 62
7
  6
CONTINUOUS
 10
136.6878684695
 20
162.5931222138
 11
136.6878684695
 21
156.3976263918
  0
LINE
  5
50F
100
AcDbEntity
  8
0
100
AcDbLine
 62
7
  6
CONTINUOUS
 10
143.4383364226
 20
170.0400716403
 11
143.4383364226
 21
168.566542179
  0
LINE
  5
510
100
AcDbEntity
  8
0
100
AcDbLine
 62
7
  6
CONTINUOUS
 10
143.4383364226
 20
170.0400716403
 11
134.8351031373
 21
170.0400716403
  0
LINE
  5
511
100
AcDbEntity
  8
0
100
AcDbLine
 62
7
  6
CONTINUOUS
 10
131.1722969475
 20
170.0400716403
 11
121.80488276
 21
170.0400716403
  0
LINE
  5
512
100
AcDbEntity
  8
0
100
AcDbLine
 62
7
  6
CONTINUOUS
 10
131.4114040538
 20
169.645965728
 11
131.1722969475
 21
170.0400716403
  0
ARC
  5
513
100
AcDbEntity
  8
DTM_AXIS
100
AcDbCircle
 62
8
  6
HIDDEN
 10
33.1577513116
 20
71.7183028071
 40
10.4677211678
100
AcDbArc
 50
272.8514509074
 51
274.9640996078
  0
ARC
  5
514
100
AcDbEntity
  8
DTM_AXIS
100
AcDbCircle
 62
8
  6
HIDDEN
 10
36.7690653377
 20
69.3874978795
 40
6.0215398348
100
AcDbArc
 50
354.4053583312
 51
356.8601937177
  0
SPLINE
  5
515
100
AcDbEntity
  8
0
100
AcDbSpline
 62
7
  6
CONTINUOUS
 70
0
 71
3
 72
16
 73
12
 74
0
 42
0.0000001
 43
0.0000001
 44
0.0000000001
 40
0.0
 40
0.0
 40
0.0
 40
0.0
 40
0.145637679
 40
0.2749840644
 40
0.3963625934
 40
0.5132370034
 40
0.6281345599
 40
0.7438188932
 40
0.8644100645
 40
0.9291161176
 40
1.0
 40
1.0
 40
1.0
 40
1.0
 10
236.5064418145
 20
57.4030598775
 30
0.0
 10
236.8209918281
 20
57.421846856
 30
0.0
 10
237.414046833
 20
57.5112860818
 30
0.0
 10
238.2246602649
 20
57.8022602141
 30
0.0
 10
238.9306586618
 20
58.173823233
 30
0.0
 10
239.5513900251
 20
58.6237785008
 30
0.0
 10
240.0925364362
 20
59.1499734606
 30
0.0
 10
240.543706892
 20
59.765872247
 30
0.0
 10
240.8279376513
 20
60.357250255
 30
0.0
 10
240.980793666
 20
60.8914981112
 30
0.0
 10
241.0177625214
 20
61.1840764115
 30
0.0
 10
241.0253089015
 20
61.3372593285
 30
0.0
  0
SPLINE
  5
516
100
AcDbEntity
  8
0
100
AcDbSpline
 62
7
  6
CONTINUOUS
 70
0
 71
3
 72
16
 73
12
 74
0
 42
0.0000001
 43
0.0000001
 44
0.0000000001
 40
0.0
 40
0.0
 40
0.0
 40
0.0
 40
0.145637679
 40
0.2749840644
 40
0.3963625934
 40
0.5132370034
 40
0.6281345599
 40
0.7438188932
 40
0.8644100645
 40
0.9291161176
 40
1.0
 40
1.0
 40
1.0
 40
1.0
 10
168.3799849884
 20
116.7254474166
 30
0.0
 10
168.694535002
 20
116.7442343951
 30
0.0
 10
169.2875900069
 20
116.833673621
 30
0.0
 10
170.0982034388
 20
117.1246477532
 30
0.0
 10
170.8042018357
 20
117.4962107722
 30
0.0
 10
171.424933199
 20
117.94616604
 30
0.0
 10
171.9660796101
 20
118.4723609997
 30
0.0
 10
172.4172500659
 20
119.0882597862
 30
0.0
 10
172.7014808252
 20
119.6796377942
 30
0.0
 10
172.8543368399
 20
120.2138856504
 30
0.0
 10
172.8913056953
 20
120.5064639507
 30
0.0
 10
172.8988520754
 20
120.6596468677
 30
0.0
  0
SPLINE
  5
517
100
AcDbEntity
  8
DTM_AXIS
100
AcDbSpline
 62
7
  6
CONTINUOUS
 70
0
 71
3
 72
16
 73
12
 74
0
 42
0.0000001
 43
0.0000001
 44
0.0000000001
 40
0.0
 40
0.0
 40
0.0
 40
0.0
 40
0.0708838824
 40
0.1355899355
 40
0.2561811068
 40
0.3718654401
 40
0.4867629966
 40
0.6036374066
 40
0.7250159356
 40
0.854362321
 40
1.0
 40
1.0
 40
1.0
 40
1.0
 10
174.1902703571
 20
119.5351202248
 30
0.0
 10
174.182723977
 20
119.3819373078
 30
0.0
 10
174.1457551216
 20
119.0893590075
 30
0.0
 10
173.9928991069
 20
118.5551111513
 30
0.0
 10
173.7086683476
 20
117.9637331434
 30
0.0
 10
173.2574978918
 20
117.3478343569
 30
0.0
 10
172.7163514807
 20
116.8216393971
 30
0.0
 10
172.0956201175
 20
116.3716841294
 30
0.0
 10
171.3896217205
 20
116.0001211104
 30
0.0
 10
170.5790082887
 20
115.7091469781
 30
0.0
 10
169.9859532837
 20
115.6197077523
 30
0.0
 10
169.6714032701
 20
115.6009207738
 30
0.0
  0
SPLINE
  5
518
100
AcDbEntity
  8
DTM_AXIS
100
AcDbSpline
 62
7
  6
CONTINUOUS
 70
0
 71
3
 72
16
 73
12
 74
0
 42
0.0000001
 43
0.0000001
 44
0.0000000001
 40
0.0
 40
0.0
 40
0.0
 40
0.0
 40
0.0708838824
 40
0.1355899355
 40
0.2561811068
 40
0.3718654401
 40
0.4867629966
 40
0.6036374066
 40
0.7250159356
 40
0.854362321
 40
1.0
 40
1.0
 40
1.0
 40
1.0
 10
174.2129301349
 20
119.5153887991
 30
0.0
 10
174.2053837548
 20
119.3622058821
 30
0.0
 10
174.1684148994
 20
119.0696275818
 30
0.0
 10
174.0155588848
 20
118.5353797256
 30
0.0
 10
173.7313281255
 20
117.9440017176
 30
0.0
 10
173.2801576696
 20
117.3281029311
 30
0.0
 10
172.7390112585
 20
116.8019079714
 30
0.0
 10
172.1182798953
 20
116.3519527036
 30
0.0
 10
171.4122814984
 20
115.9803896847
 30
0.0
 10
170.6016680665
 20
115.6894155524
 30
0.0
 10
170.0086130616
 20
115.5999763266
 30
0.0
 10
169.6940630479
 20
115.581189348
 30
0.0
  0
SPLINE
  5
519
100
AcDbEntity
  8
DTM_AXIS
100
AcDbSpline
 62
7
  6
CONTINUOUS
 70
0
 71
3
 72
16
 73
12
 74
0
 42
0.0000001
 43
0.0000001
 44
0.0000000001
 40
0.0
 40
0.0
 40
0.0
 40
0.0
 40
0.0708838824
 40
0.1355899355
 40
0.2561811068
 40
0.3718654401
 40
0.4867629966
 40
0.6036374066
 40
0.7250159356
 40
0.854362321
 40
1.0
 40
1.0
 40
1.0
 40
1.0
 10
176.4554750466
 20
117.5626508392
 30
0.0
 10
176.4479286665
 20
117.4094679222
 30
0.0
 10
176.4109598111
 20
117.1168896218
 30
0.0
 10
176.2581037964
 20
116.5826417656
 30
0.0
 10
175.9738730371
 20
115.9912637577
 30
0.0
 10
175.5227025813
 20
115.3753649712
 30
0.0
 10
174.9815561702
 20
114.8491700115
 30
0.0
 10
174.3608248069
 20
114.3992147437
 30
0.0
 10
173.65482641
 20
114.0276517247
 30
0.0
 10
172.8442129781
 20
113.7366775925
 30
0.0
 10
172.2511579732
 20
113.6472383666
 30
0.0
 10
171.9366079596
 20
113.6284513881
 30
0.0
  0
SPLINE
  5
51A
100
AcDbEntity
  8
DTM_AXIS
100
AcDbSpline
 62
7
  6
CONTINUOUS
 70
0
 71
3
 72
16
 73
12
 74
0
 42
0.0000001
 43
0.0000001
 44
0.0000000001
 40
0.0
 40
0.0
 40
0.0
 40
0.0
 40
0.0708838824
 40
0.1355899355
 40
0.2561811068
 40
0.3718654401
 40
0.4867629966
 40
0.6036374066
 40
0.7250159356
 40
0.854362321
 40
1.0
 40
1.0
 40
1.0
 40
1.0
 10
178.7433395139
 20
115.5704500278
 30
0.0
 10
178.7357931338
 20
115.4172671107
 30
0.0
 10
178.6988242784
 20
115.1246888104
 30
0.0
 10
178.5459682637
 20
114.5904409542
 30
0.0
 10
178.2617375044
 20
113.9990629463
 30
0.0
 10
177.8105670486
 20
113.3831641598
 30
0.0
 10
177.2694206375
 20
112.8569692001
 30
0.0
 10
176.6486892742
 20
112.4070139323
 30
0.0
 10
175.9426908773
 20
112.0354509133
 30
0.0
 10
175.1320774455
 20
111.7444767811
 30
0.0
 10
174.5390224405
 20
111.6550375552
 30
0.0
 10
174.2244724269
 20
111.6362505767
 30
0.0
  0
SPLINE
  5
51B
100
AcDbEntity
  8
DTM_AXIS
100
AcDbSpline
 62
7
  6
CONTINUOUS
 70
0
 71
3
 72
16
 73
12
 74
0
 42
0.0000001
 43
0.0000001
 44
0.0000000001
 40
0.0
 40
0.0
 40
0.0
 40
0.0
 40
0.0708838824
 40
0.1355899355
 40
0.2561811068
 40
0.3718654401
 40
0.4867629966
 40
0.6036374066
 40
0.7250159356
 40
0.854362321
 40
1.0
 40
1.0
 40
1.0
 40
1.0
 10
180.9858844255
 20
113.6177120678
 30
0.0
 10
180.9783380454
 20
113.4645291508
 30
0.0
 10
180.94136919
 20
113.1719508505
 30
0.0
 10
180.7885131753
 20
112.6377029943
 30
0.0
 10
180.504282416
 20
112.0463249863
 30
0.0
 10
180.0531119602
 20
111.4304261998
 30
0.0
 10
179.5119655491
 20
110.9042312401
 30
0.0
 10
178.8912341859
 20
110.4542759723
 30
0.0
 10
178.1852357889
 20
110.0827129534
 30
0.0
 10
177.3746223571
 20
109.7917388211
 30
0.0
 10
176.7815673521
 20
109.7022995953
 30
0.0
 10
176.4670173385
 20
109.6835126167
 30
0.0
  0
SPLINE
  5
51C
100
AcDbEntity
  8
DTM_AXIS
100
AcDbSpline
 62
7
  6
CONTINUOUS
 70
0
 71
3
 72
16
 73
12
 74
0
 42
0.0000001
 43
0.0000001
 44
0.0000000001
 40
0.0
 40
0.0
 40
0.0
 40
0.0
 40
0.0708838824
 40
0.1355899355
 40
0.2561811068
 40
0.3718654401
 40
0.4867629966
 40
0.6036374066
 40
0.7250159356
 40
0.854362321
 40
1.0
 40
1.0
 40
1.0
 40
1.0
 10
176.4781348244
 20
117.5429194134
 30
0.0
 10
176.4705884443
 20
117.3897364964
 30
0.0
 10
176.4336195889
 20
117.0971581961
 30
0.0
 10
176.2807635743
 20
116.5629103399
 30
0.0
 10
175.9965328149
 20
115.971532332
 30
0.0
 10
175.5453623591
 20
115.3556335455
 30
0.0
 10
175.004215948
 20
114.8294385857
 30
0.0
 10
174.3834845848
 20
114.3794833179
 30
0.0
 10
173.6774861878
 20
114.007920299
 30
0.0
 10
172.866872756
 20
113.7169461667
 30
0.0
 10
172.273817751
 20
113.6275069409
 30
0.0
 10
171.9592677374
 20
113.6087199624
 30
0.0
  0
SPLINE
  5
51D
100
AcDbEntity
  8
DTM_AXIS
100
AcDbSpline
 62
7
  6
CONTINUOUS
 70
0
 71
3
 72
16
 73
12
 74
0
 42
0.0000001
 43
0.0000001
 44
0.0000000001
 40
0.0
 40
0.0
 40
0.0
 40
0.0
 40
0.0708838824
 40
0.1355899355
 40
0.2561811068
 40
0.3718654401
 40
0.4867629966
 40
0.6036374066
 40
0.7250159356
 40
0.854362321
 40
1.0
 40
1.0
 40
1.0
 40
1.0
 10
178.720679736
 20
115.5901814535
 30
0.0
 10
178.7131333559
 20
115.4369985365
 30
0.0
 10
178.6761645005
 20
115.1444202362
 30
0.0
 10
178.5233084859
 20
114.61017238
 30
0.0
 10
178.2390777265
 20
114.018794372
 30
0.0
 10
177.7879072707
 20
113.4028955855
 30
0.0
 10
177.2467608596
 20
112.8767006258
 30
0.0
 10
176.6260294964
 20
112.426745358
 30
0.0
 10
175.9200310994
 20
112.055182339
 30
0.0
 10
175.1094176676
 20
111.7642082068
 30
0.0
 10
174.5163626626
 20
111.6747689809
 30
0.0
 10
174.201812649
 20
111.6559820024
 30
0.0
  0
SPLINE
  5
51E
100
AcDbEntity
  8
DTM_AXIS
100
AcDbSpline
 62
7
  6
CONTINUOUS
 70
0
 71
3
 72
16
 73
12
 74
0
 42
0.0000001
 43
0.0000001
 44
0.0000000001
 40
0.0
 40
0.0
 40
0.0
 40
0.0
 40
0.0708838824
 40
0.1355899355
 40
0.2561811068
 40
0.3718654401
 40
0.4867629966
 40
0.6036374066
 40
0.7250159356
 40
0.854362321
 40
1.0
 40
1.0
 40
1.0
 40
1.0
 10
187.8041582717
 20
107.680572485
 30
0.0
 10
187.7966118916
 20
107.527389568
 30
0.0
 10
187.7596430362
 20
107.2348112677
 30
0.0
 10
187.6067870216
 20
106.7005634115
 30
0.0
 10
187.3225562623
 20
106.1091854036
 30
0.0
 10
186.8713858064
 20
105.4932866171
 30
0.0
 10
186.3302393954
 20
104.9670916573
 30
0.0
 10
185.7095080321
 20
104.5171363896
 30
0.0
 10
185.0035096352
 20
104.1455733706
 30
0.0
 10
184.1928962033
 20
103.8545992383
 30
0.0
 10
183.5998411984
 20
103.7651600125
 30
0.0
 10
183.2852911847
 20
103.746373034
 30
0.0
  0
SPLINE
  5
51F
100
AcDbEntity
  8
DTM_AXIS
100
AcDbSpline
 62
7
  6
CONTINUOUS
 70
0
 71
3
 72
16
 73
12
 74
0
 42
0.0000001
 43
0.0000001
 44
0.0000000001
 40
0.0
 40
0.0
 40
0.0
 40
0.0
 40
0.0708838824
 40
0.1355899355
 40
0.2561811068
 40
0.3718654401
 40
0.4867629966
 40
0.6036374066
 40
0.7250159356
 40
0.854362321
 40
1.0
 40
1.0
 40
1.0
 40
1.0
 10
190.0467031834
 20
105.7278345251
 30
0.0
 10
190.0391568033
 20
105.5746516081
 30
0.0
 10
190.0021879479
 20
105.2820733078
 30
0.0
 10
189.8493319332
 20
104.7478254516
 30
0.0
 10
189.5651011739
 20
104.1564474436
 30
0.0
 10
189.1139307181
 20
103.5405486571
 30
0.0
 10
188.572784307
 20
103.0143536974
 30
0.0
 10
187.9520529437
 20
102.5643984296
 30
0.0
 10
187.2460545468
 20
102.1928354106
 30
0.0
 10
186.435441115
 20
101.9018612784
 30
0.0
 10
185.84238611
 20
101.8124220526
 30
0.0
 10
185.5278360964
 20
101.793635074
 30
0.0
  0
SPLINE
  5
520
100
AcDbEntity
  8
DTM_AXIS
100
AcDbSpline
 62
7
  6
CONTINUOUS
 70
0
 71
3
 72
16
 73
12
 74
0
 42
0.0000001
 43
0.0000001
 44
0.0000000001
 40
0.0
 40
0.0
 40
0.0
 40
0.0
 40
0.0708838824
 40
0.1355899355
 40
0.2561811068
 40
0.3718654401
 40
0.4867629966
 40
0.6036374066
 40
0.7250159356
 40
0.854362321
 40
1.0
 40
1.0
 40
1.0
 40
1.0
 10
185.5389535823
 20
109.6530418707
 30
0.0
 10
185.5314072022
 20
109.4998589537
 30
0.0
 10
185.4944383468
 20
109.2072806534
 30
0.0
 10
185.3415823321
 20
108.6730327972
 30
0.0
 10
185.0573515728
 20
108.0816547892
 30
0.0
 10
184.606181117
 20
107.4657560028
 30
0.0
 10
184.0650347059
 20
106.939561043
 30
0.0
 10
183.4443033426
 20
106.4896057752
 30
0.0
 10
182.7383049457
 20
106.1180427563
 30
0.0
 10
181.9276915139
 20
105.827068624
 30
0.0
 10
181.3346365089
 20
105.7376293982
 30
0.0
 10
181.0200864953
 20
105.7188424197
 30
0.0
  0
SPLINE
  5
521
100
AcDbEntity
  8
DTM_AXIS
100
AcDbSpline
 62
7
  6
CONTINUOUS
 70
0
 71
3
 72
16
 73
12
 74
0
 42
0.0000001
 43
0.0000001
 44
0.0000000001
 40
0.0
 40
0.0
 40
0.0
 40
0.0
 40
0.0708838824
 40
0.1355899355
 40
0.2561811068
 40
0.3718654401
 40
0.4867629966
 40
0.6036374066
 40
0.7250159356
 40
0.854362321
 40
1.0
 40
1.0
 40
1.0
 40
1.0
 10
187.7814984939
 20
107.7003039108
 30
0.0
 10
187.7739521138
 20
107.5471209938
 30
0.0
 10
187.7369832584
 20
107.2545426935
 30
0.0
 10
187.5841272437
 20
106.7202948373
 30
0.0
 10
187.2998964844
 20
106.1289168293
 30
0.0
 10
186.8487260286
 20
105.5130180428
 30
0.0
 10
186.3075796175
 20
104.9868230831
 30
0.0
 10
185.6868482543
 20
104.5368678153
 30
0.0
 10
184.9808498573
 20
104.1653047963
 30
0.0
 10
184.1702364255
 20
103.8743306641
 30
0.0
 10
183.5771814205
 20
103.7848914382
 30
0.0
 10
183.2626314069
 20
103.7661044597
 30
0.0
  0
SPLINE
  5
522
100
AcDbEntity
  8
DTM_AXIS
100
AcDbSpline
 62
7
  6
CONTINUOUS
 70
0
 71
3
 72
16
 73
12
 74
0
 42
0.0000001
 43
0.0000001
 44
0.0000000001
 40
0.0
 40
0.0
 40
0.0
 40
0.0
 40
0.0708838824
 40
0.1355899355
 40
0.2561811068
 40
0.3718654401
 40
0.4867629966
 40
0.6036374066
 40
0.7250159356
 40
0.854362321
 40
1.0
 40
1.0
 40
1.0
 40
1.0
 10
181.0085442033
 20
113.5979806421
 30
0.0
 10
181.0009978232
 20
113.4447977251
 30
0.0
 10
180.9640289678
 20
113.1522194248
 30
0.0
 10
180.8111729532
 20
112.6179715685
 30
0.0
 10
180.5269421939
 20
112.0265935606
 30
0.0
 10
180.075771738
 20
111.4106947741
 30
0.0
 10
179.5346253269
 20
110.8844998144
 30
0.0
 10
178.9138939637
 20
110.4345445466
 30
0.0
 10
178.2078955668
 20
110.0629815276
 30
0.0
 10
177.3972821349
 20
109.7720073954
 30
0.0
 10
176.80422713
 20
109.6825681695
 30
0.0
 10
176.4896771163
 20
109.663781191
 30
0.0
  0
SPLINE
  5
523
100
AcDbEntity
  8
DTM_AXIS
100
AcDbSpline
 62
7
  6
CONTINUOUS
 70
0
 71
3
 72
16
 73
12
 74
0
 42
0.0000001
 43
0.0000001
 44
0.0000000001
 40
0.0
 40
0.0
 40
0.0
 40
0.0
 40
0.0708838824
 40
0.1355899355
 40
0.2561811068
 40
0.3718654401
 40
0.4867629966
 40
0.6036374066
 40
0.7250159356
 40
0.854362321
 40
1.0
 40
1.0
 40
1.0
 40
1.0
 10
183.251089115
 20
111.6452426821
 30
0.0
 10
183.2435427349
 20
111.4920597651
 30
0.0
 10
183.2065738795
 20
111.1994814648
 30
0.0
 10
183.0537178648
 20
110.6652336086
 30
0.0
 10
182.7694871055
 20
110.0738556007
 30
0.0
 10
182.3183166497
 20
109.4579568142
 30
0.0
 10
181.7771702386
 20
108.9317618544
 30
0.0
 10
181.1564388753
 20
108.4818065866
 30
0.0
 10
180.4504404784
 20
108.1102435677
 30
0.0
 10
179.6398270465
 20
107.8192694354
 30
0.0
 10
179.0467720416
 20
107.7298302096
 30
0.0
 10
178.732222028
 20
107.7110432311
 30
0.0
  0
SPLINE
  5
524
100
AcDbEntity
  8
DTM_AXIS
100
AcDbSpline
 62
7
  6
CONTINUOUS
 70
0
 71
3
 72
16
 73
12
 74
0
 42
0.0000001
 43
0.0000001
 44
0.0000000001
 40
0.0
 40
0.0
 40
0.0
 40
0.0
 40
0.0708838824
 40
0.1355899355
 40
0.2561811068
 40
0.3718654401
 40
0.4867629966
 40
0.6036374066
 40
0.7250159356
 40
0.854362321
 40
1.0
 40
1.0
 40
1.0
 40
1.0
 10
183.2737488928
 20
111.6255112564
 30
0.0
 10
183.2662025127
 20
111.4723283394
 30
0.0
 10
183.2292336573
 20
111.1797500391
 30
0.0
 10
183.0763776427
 20
110.6455021829
 30
0.0
 10
182.7921468833
 20
110.0541241749
 30
0.0
 10
182.3409764275
 20
109.4382253884
 30
0.0
 10
181.7998300164
 20
108.9120304287
 30
0.0
 10
181.1790986532
 20
108.4620751609
 30
0.0
 10
180.4731002562
 20
108.0905121419
 30
0.0
 10
179.6624868244
 20
107.7995380097
 30
0.0
 10
179.0694318194
 20
107.7100987839
 30
0.0
 10
178.7548818058
 20
107.6913118053
 30
0.0
  0
SPLINE
  5
525
100
AcDbEntity
  8
DTM_AXIS
100
AcDbSpline
 62
7
  6
CONTINUOUS
 70
0
 71
3
 72
16
 73
12
 74
0
 42
0.0000001
 43
0.0000001
 44
0.0000000001
 40
0.0
 40
0.0
 40
0.0
 40
0.0
 40
0.0708838824
 40
0.1355899355
 40
0.2561811068
 40
0.3718654401
 40
0.4867629966
 40
0.6036374066
 40
0.7250159356
 40
0.854362321
 40
1.0
 40
1.0
 40
1.0
 40
1.0
 10
185.5162938044
 20
109.6727732965
 30
0.0
 10
185.5087474243
 20
109.5195903794
 30
0.0
 10
185.4717785689
 20
109.2270120791
 30
0.0
 10
185.3189225543
 20
108.6927642229
 30
0.0
 10
185.0346917949
 20
108.101386215
 30
0.0
 10
184.5835213391
 20
107.4854874285
 30
0.0
 10
184.042374928
 20
106.9592924688
 30
0.0
 10
183.4216435648
 20
106.509337201
 30
0.0
 10
182.7156451679
 20
106.137774182
 30
0.0
 10
181.905031736
 20
105.8468000498
 30
0.0
 10
181.311976731
 20
105.7573608239
 30
0.0
 10
180.9974267174
 20
105.7385738454
 30
0.0
  0
SPLINE
  5
526
100
AcDbEntity
  8
DTM_AXIS
100
AcDbSpline
 62
7
  6
CONTINUOUS
 70
0
 71
3
 72
16
 73
12
 74
0
 42
0.0000001
 43
0.0000001
 44
0.0000000001
 40
0.0
 40
0.0
 40
0.0
 40
0.0
 40
0.0708838824
 40
0.1355899355
 40
0.2561811068
 40
0.3718654401
 40
0.4867629966
 40
0.6036374066
 40
0.7250159356
 40
0.854362321
 40
1.0
 40
1.0
 40
1.0
 40
1.0
 10
205.9257957875
 20
91.9008173996
 30
0.0
 10
205.9182494074
 20
91.7476344826
 30
0.0
 10
205.881280552
 20
91.4550561823
 30
0.0
 10
205.7284245373
 20
90.9208083261
 30
0.0
 10
205.444193778
 20
90.3294303182
 30
0.0
 10
204.9930233222
 20
89.7135315317
 30
0.0
 10
204.4518769111
 20
89.1873365719
 30
0.0
 10
203.8311455479
 20
88.7373813041
 30
0.0
 10
203.1251471509
 20
88.3658182852
 30
0.0
 10
202.3145337191
 20
88.0748441529
 30
0.0
 10
201.7214787141
 20
87.9854049271
 30
0.0
 10
201.4069287005
 20
87.9666179486
 30
0.0
  0
SPLINE
  5
527
100
AcDbEntity
  8
DTM_AXIS
100
AcDbSpline
 62
7
  6
CONTINUOUS
 70
0
 71
3
 72
16
 73
12
 74
0
 42
0.0000001
 43
0.0000001
 44
0.0000000001
 40
0.0
 40
0.0
 40
0.0
 40
0.0
 40
0.0708838824
 40
0.1355899355
 40
0.2561811068
 40
0.3718654401
 40
0.4867629966
 40
0.6036374066
 40
0.7250159356
 40
0.854362321
 40
1.0
 40
1.0
 40
1.0
 40
1.0
 10
208.1683406991
 20
89.9480794397
 30
0.0
 10
208.160794319
 20
89.7948965227
 30
0.0
 10
208.1238254636
 20
89.5023182224
 30
0.0
 10
207.970969449
 20
88.9680703662
 30
0.0
 10
207.6867386896
 20
88.3766923582
 30
0.0
 10
207.2355682338
 20
87.7607935717
 30
0.0
 10
206.6944218227
 20
87.234598612
 30
0.0
 10
206.0736904595
 20
86.7846433442
 30
0.0
 10
205.3676920625
 20
86.4130803252
 30
0.0
 10
204.5570786307
 20
86.122106193
 30
0.0
 10
203.9640236257
 20
86.0326669671
 30
0.0
 10
203.6494736121
 20
86.0138799886
 30
0.0
  0
SPLINE
  5
528
100
AcDbEntity
  8
DTM_AXIS
100
AcDbSpline
 62
7
  6
CONTINUOUS
 70
0
 71
3
 72
16
 73
12
 74
0
 42
0.0000001
 43
0.0000001
 44
0.0000000001
 40
0.0
 40
0.0
 40
0.0
 40
0.0
 40
0.0708838824
 40
0.1355899355
 40
0.2561811068
 40
0.3718654401
 40
0.4867629966
 40
0.6036374066
 40
0.7250159356
 40
0.854362321
 40
1.0
 40
1.0
 40
1.0
 40
1.0
 10
203.660591098
 20
93.8732867853
 30
0.0
 10
203.6530447179
 20
93.7201038683
 30
0.0
 10
203.6160758625
 20
93.427525568
 30
0.0
 10
203.4632198479
 20
92.8932777118
 30
0.0
 10
203.1789890885
 20
92.3018997038
 30
0.0
 10
202.7278186327
 20
91.6860009173
 30
0.0
 10
202.1866722216
 20
91.1598059576
 30
0.0
 10
201.5659408584
 20
90.7098506898
 30
0.0
 10
200.8599424614
 20
90.3382876708
 30
0.0
 10
200.0493290296
 20
90.0473135386
 30
0.0
 10
199.4562740246
 20
89.9578743128
 30
0.0
 10
199.141724011
 20
89.9390873342
 30
0.0
  0
SPLINE
  5
529
100
AcDbEntity
  8
DTM_AXIS
100
AcDbSpline
 62
7
  6
CONTINUOUS
 70
0
 71
3
 72
16
 73
12
 74
0
 42
0.0000001
 43
0.0000001
 44
0.0000000001
 40
0.0
 40
0.0
 40
0.0
 40
0.0
 40
0.0708838824
 40
0.1355899355
 40
0.2561811068
 40
0.3718654401
 40
0.4867629966
 40
0.6036374066
 40
0.7250159356
 40
0.854362321
 40
1.0
 40
1.0
 40
1.0
 40
1.0
 10
205.9031360096
 20
91.9205488254
 30
0.0
 10
205.8955896295
 20
91.7673659084
 30
0.0
 10
205.8586207741
 20
91.474787608
 30
0.0
 10
205.7057647595
 20
90.9405397518
 30
0.0
 10
205.4215340002
 20
90.3491617439
 30
0.0
 10
204.9703635443
 20
89.7332629574
 30
0.0
 10
204.4292171332
 20
89.2070679977
 30
0.0
 10
203.80848577
 20
88.7571127299
 30
0.0
 10
203.1024873731
 20
88.3855497109
 30
0.0
 10
202.2918739412
 20
88.0945755787
 30
0.0
 10
201.6988189363
 20
88.0051363528
 30
0.0
 10
201.3842689226
 20
87.9863493743
 30
0.0
  0
SPLINE
  5
52A
100
AcDbEntity
  8
DTM_AXIS
100
AcDbSpline
 62
7
  6
CONTINUOUS
 70
0
 71
3
 72
16
 73
12
 74
0
 42
0.0000001
 43
0.0000001
 44
0.0000000001
 40
0.0
 40
0.0
 40
0.0
 40
0.0
 40
0.0708838824
 40
0.1355899355
 40
0.2561811068
 40
0.3718654401
 40
0.4867629966
 40
0.6036374066
 40
0.7250159356
 40
0.854362321
 40
1.0
 40
1.0
 40
1.0
 40
1.0
 10
199.1301817191
 20
97.8182255567
 30
0.0
 10
199.122635339
 20
97.6650426396
 30
0.0
 10
199.0856664836
 20
97.3724643393
 30
0.0
 10
198.9328104689
 20
96.8382164831
 30
0.0
 10
198.6485797096
 20
96.2468384752
 30
0.0
 10
198.1974092538
 20
95.6309396887
 30
0.0
 10
197.6562628427
 20
95.104744729
 30
0.0
 10
197.0355314795
 20
94.6547894612
 30
0.0
 10
196.3295330825
 20
94.2832264422
 30
0.0
 10
195.5189196507
 20
93.99225231
 30
0.0
 10
194.9258646457
 20
93.9028130841
 30
0.0
 10
194.6113146321
 20
93.8840261056
 30
0.0
  0
SPLINE
  5
52B
100
AcDbEntity
  8
DTM_AXIS
100
AcDbSpline
 62
7
  6
CONTINUOUS
 70
0
 71
3
 72
16
 73
12
 74
0
 42
0.0000001
 43
0.0000001
 44
0.0000000001
 40
0.0
 40
0.0
 40
0.0
 40
0.0
 40
0.0708838824
 40
0.1355899355
 40
0.2561811068
 40
0.3718654401
 40
0.4867629966
 40
0.6036374066
 40
0.7250159356
 40
0.854362321
 40
1.0
 40
1.0
 40
1.0
 40
1.0
 10
201.3727266307
 20
95.8654875967
 30
0.0
 10
201.3651802506
 20
95.7123046797
 30
0.0
 10
201.3282113952
 20
95.4197263794
 30
0.0
 10
201.1753553806
 20
94.8854785232
 30
0.0
 10
200.8911246212
 20
94.2941005152
 30
0.0
 10
200.4399541654
 20
93.6782017287
 30
0.0
 10
199.8988077543
 20
93.152006769
 30
0.0
 10
199.2780763911
 20
92.7020515012
 30
0.0
 10
198.5720779941
 20
92.3304884823
 30
0.0
 10
197.7614645623
 20
92.03951435
 30
0.0
 10
197.1684095573
 20
91.9500751242
 30
0.0
 10
196.8538595437
 20
91.9312881456
 30
0.0
  0
SPLINE
  5
52C
100
AcDbEntity
  8
DTM_AXIS
100
AcDbSpline
 62
7
  6
CONTINUOUS
 70
0
 71
3
 72
16
 73
12
 74
0
 42
0.0000001
 43
0.0000001
 44
0.0000000001
 40
0.0
 40
0.0
 40
0.0
 40
0.0
 40
0.0708838824
 40
0.1355899355
 40
0.2561811068
 40
0.3718654401
 40
0.4867629966
 40
0.6036374066
 40
0.7250159356
 40
0.854362321
 40
1.0
 40
1.0
 40
1.0
 40
1.0
 10
201.3953864086
 20
95.845756171
 30
0.0
 10
201.3878400285
 20
95.692573254
 30
0.0
 10
201.3508711731
 20
95.3999949537
 30
0.0
 10
201.1980151584
 20
94.8657470975
 30
0.0
 10
200.9137843991
 20
94.2743690895
 30
0.0
 10
200.4626139433
 20
93.658470303
 30
0.0
 10
199.9214675322
 20
93.1322753433
 30
0.0
 10
199.3007361689
 20
92.6823200755
 30
0.0
 10
198.594737772
 20
92.3107570565
 30
0.0
 10
197.7841243401
 20
92.0197829243
 30
0.0
 10
197.1910693352
 20
91.9303436984
 30
0.0
 10
196.8765193216
 20
91.9115567199
 30
0.0
  0
SPLINE
  5
52D
100
AcDbEntity
  8
DTM_AXIS
100
AcDbSpline
 62
7
  6
CONTINUOUS
 70
0
 71
3
 72
16
 73
12
 74
0
 42
0.0000001
 43
0.0000001
 44
0.0000000001
 40
0.0
 40
0.0
 40
0.0
 40
0.0
 40
0.0708838824
 40
0.1355899355
 40
0.2561811068
 40
0.3718654401
 40
0.4867629966
 40
0.6036374066
 40
0.7250159356
 40
0.854362321
 40
1.0
 40
1.0
 40
1.0
 40
1.0
 10
203.6379313202
 20
93.893018211
 30
0.0
 10
203.6303849401
 20
93.739835294
 30
0.0
 10
203.5934160847
 20
93.4472569937
 30
0.0
 10
203.44056007
 20
92.9130091375
 30
0.0
 10
203.1563293107
 20
92.3216311296
 30
0.0
 10
202.7051588549
 20
91.7057323431
 30
0.0
 10
202.1640124438
 20
91.1795373833
 30
0.0
 10
201.5432810805
 20
90.7295821155
 30
0.0
 10
200.8372826836
 20
90.3580190966
 30
0.0
 10
200.0266692518
 20
90.0670449643
 30
0.0
 10
199.4336142468
 20
89.9776057385
 30
0.0
 10
199.1190642332
 20
89.95881876
 30
0.0
  0
SPLINE
  5
52E
100
AcDbEntity
  8
DTM_AXIS
100
AcDbSpline
 62
7
  6
CONTINUOUS
 70
0
 71
3
 72
16
 73
12
 74
0
 42
0.0000001
 43
0.0000001
 44
0.0000000001
 40
0.0
 40
0.0
 40
0.0
 40
0.0
 40
0.0708838824
 40
0.1355899355
 40
0.2561811068
 40
0.3718654401
 40
0.4867629966
 40
0.6036374066
 40
0.7250159356
 40
0.854362321
 40
1.0
 40
1.0
 40
1.0
 40
1.0
 10
190.0693629612
 20
105.7081030994
 30
0.0
 10
190.0618165811
 20
105.5549201824
 30
0.0
 10
190.0248477257
 20
105.262341882
 30
0.0
 10
189.8719917111
 20
104.7280940258
 30
0.0
 10
189.5877609517
 20
104.1367160179
 30
0.0
 10
189.1365904959
 20
103.5208172314
 30
0.0
 10
188.5954440848
 20
102.9946222717
 30
0.0
 10
187.9747127216
 20
102.5446670039
 30
0.0
 10
187.2687143246
 20
102.1731039849
 30
0.0
 10
186.4581008928
 20
101.8821298527
 30
0.0
 10
185.8650458878
 20
101.7926906268
 30
0.0
 10
185.5504958742
 20
101.7739036483
 30
0.0
  0
SPLINE
  5
52F
100
AcDbEntity
  8
DTM_AXIS
100
AcDbSpline
 62
7
  6
CONTINUOUS
 70
0
 71
3
 72
16
 73
12
 74
0
 42
0.0000001
 43
0.0000001
 44
0.0000000001
 40
0.0
 40
0.0
 40
0.0
 40
0.0
 40
0.0708838824
 40
0.1355899355
 40
0.2561811068
 40
0.3718654401
 40
0.4867629966
 40
0.6036374066
 40
0.7250159356
 40
0.854362321
 40
1.0
 40
1.0
 40
1.0
 40
1.0
 10
192.3119078728
 20
103.7553651394
 30
0.0
 10
192.3043614927
 20
103.6021822224
 30
0.0
 10
192.2673926373
 20
103.3096039221
 30
0.0
 10
192.1145366227
 20
102.7753560659
 30
0.0
 10
191.8303058634
 20
102.183978058
 30
0.0
 10
191.3791354075
 20
101.5680792715
 30
0.0
 10
190.8379889964
 20
101.0418843117
 30
0.0
 10
190.2172576332
 20
100.5919290439
 30
0.0
 10
189.5112592363
 20
100.220366025
 30
0.0
 10
188.7006458044
 20
99.9293918927
 30
0.0
 10
188.1075907994
 20
99.8399526669
 30
0.0
 10
187.7930407858
 20
99.8211656884
 30
0.0
  0
SPLINE
  5
530
100
AcDbEntity
  8
DTM_AXIS
100
AcDbSpline
 62
7
  6
CONTINUOUS
 70
0
 71
3
 72
16
 73
12
 74
0
 42
0.0000001
 43
0.0000001
 44
0.0000000001
 40
0.0
 40
0.0
 40
0.0
 40
0.0
 40
0.0708838824
 40
0.1355899355
 40
0.2561811068
 40
0.3718654401
 40
0.4867629966
 40
0.6036374066
 40
0.7250159356
 40
0.854362321
 40
1.0
 40
1.0
 40
1.0
 40
1.0
 10
192.3345676507
 20
103.7356337137
 30
0.0
 10
192.3270212706
 20
103.5824507967
 30
0.0
 10
192.2900524152
 20
103.2898724964
 30
0.0
 10
192.1371964005
 20
102.7556246402
 30
0.0
 10
191.8529656412
 20
102.1642466322
 30
0.0
 10
191.4017951854
 20
101.5483478457
 30
0.0
 10
190.8606487743
 20
101.022152886
 30
0.0
 10
190.239917411
 20
100.5721976182
 30
0.0
 10
189.5339190141
 20
100.2006345992
 30
0.0
 10
188.7233055823
 20
99.909660467
 30
0.0
 10
188.1302505773
 20
99.8202212411
 30
0.0
 10
187.8157005637
 20
99.8014342626
 30
0.0
  0
SPLINE
  5
531
100
AcDbEntity
  8
DTM_AXIS
100
AcDbSpline
 62
7
  6
CONTINUOUS
 70
0
 71
3
 72
16
 73
12
 74
0
 42
0.0000001
 43
0.0000001
 44
0.0000000001
 40
0.0
 40
0.0
 40
0.0
 40
0.0
 40
0.0708838824
 40
0.1355899355
 40
0.2561811068
 40
0.3718654401
 40
0.4867629966
 40
0.6036374066
 40
0.7250159356
 40
0.854362321
 40
1.0
 40
1.0
 40
1.0
 40
1.0
 10
194.5771125623
 20
101.7828957537
 30
0.0
 10
194.5695661822
 20
101.6297128367
 30
0.0
 10
194.5325973268
 20
101.3371345364
 30
0.0
 10
194.3797413121
 20
100.8028866802
 30
0.0
 10
194.0955105528
 20
100.2115086723
 30
0.0
 10
193.644340097
 20
99.5956098858
 30
0.0
 10
193.1031936859
 20
99.069414926
 30
0.0
 10
192.4824623227
 20
98.6194596583
 30
0.0
 10
191.7764639257
 20
98.2478966393
 30
0.0
 10
190.9658504939
 20
97.956922507
 30
0.0
 10
190.3727954889
 20
97.8674832812
 30
0.0
 10
190.0582454753
 20
97.8486963027
 30
0.0
  0
SPLINE
  5
532
100
AcDbEntity
  8
DTM_AXIS
100
AcDbSpline
 62
7
  6
CONTINUOUS
 70
0
 71
3
 72
16
 73
12
 74
0
 42
0.0000001
 43
0.0000001
 44
0.0000000001
 40
0.0
 40
0.0
 40
0.0
 40
0.0
 40
0.0708838824
 40
0.1355899355
 40
0.2561811068
 40
0.3718654401
 40
0.4867629966
 40
0.6036374066
 40
0.7250159356
 40
0.854362321
 40
1.0
 40
1.0
 40
1.0
 40
1.0
 10
196.8649770296
 20
99.7906949423
 30
0.0
 10
196.8574306495
 20
99.6375120253
 30
0.0
 10
196.8204617941
 20
99.344933725
 30
0.0
 10
196.6676057795
 20
98.8106858688
 30
0.0
 10
196.3833750201
 20
98.2193078609
 30
0.0
 10
195.9322045643
 20
97.6034090744
 30
0.0
 10
195.3910581532
 20
97.0772141146
 30
0.0
 10
194.77032679
 20
96.6272588468
 30
0.0
 10
194.064328393
 20
96.2556958279
 30
0.0
 10
193.2537149612
 20
95.9647216956
 30
0.0
 10
192.6606599562
 20
95.8752824698
 30
0.0
 10
192.3461099426
 20
95.8564954913
 30
0.0
  0
SPLINE
  5
533
100
AcDbEntity
  8
DTM_AXIS
100
AcDbSpline
 62
7
  6
CONTINUOUS
 70
0
 71
3
 72
16
 73
12
 74
0
 42
0.0000001
 43
0.0000001
 44
0.0000000001
 40
0.0
 40
0.0
 40
0.0
 40
0.0
 40
0.0708838824
 40
0.1355899355
 40
0.2561811068
 40
0.3718654401
 40
0.4867629966
 40
0.6036374066
 40
0.7250159356
 40
0.854362321
 40
1.0
 40
1.0
 40
1.0
 40
1.0
 10
199.1075219412
 20
97.8379569824
 30
0.0
 10
199.0999755611
 20
97.6847740654
 30
0.0
 10
199.0630067057
 20
97.3921957651
 30
0.0
 10
198.9101506911
 20
96.8579479089
 30
0.0
 10
198.6259199318
 20
96.2665699009
 30
0.0
 10
198.1747494759
 20
95.6506711144
 30
0.0
 10
197.6336030648
 20
95.1244761547
 30
0.0
 10
197.0128717016
 20
94.6745208869
 30
0.0
 10
196.3068733047
 20
94.3029578679
 30
0.0
 10
195.4962598728
 20
94.0119837357
 30
0.0
 10
194.9032048679
 20
93.9225445098
 30
0.0
 10
194.5886548542
 20
93.9037575313
 30
0.0
  0
SPLINE
  5
534
100
AcDbEntity
  8
DTM_AXIS
100
AcDbSpline
 62
7
  6
CONTINUOUS
 70
0
 71
3
 72
16
 73
12
 74
0
 42
0.0000001
 43
0.0000001
 44
0.0000000001
 40
0.0
 40
0.0
 40
0.0
 40
0.0
 40
0.0708838824
 40
0.1355899355
 40
0.2561811068
 40
0.3718654401
 40
0.4867629966
 40
0.6036374066
 40
0.7250159356
 40
0.854362321
 40
1.0
 40
1.0
 40
1.0
 40
1.0
 10
194.5997723402
 20
101.763164328
 30
0.0
 10
194.5922259601
 20
101.609981411
 30
0.0
 10
194.5552571046
 20
101.3174031107
 30
0.0
 10
194.40240109
 20
100.7831552545
 30
0.0
 10
194.1181703307
 20
100.1917772465
 30
0.0
 10
193.6669998749
 20
99.57587846
 30
0.0
 10
193.1258534638
 20
99.0496835003
 30
0.0
 10
192.5051221005
 20
98.5997282325
 30
0.0
 10
191.7991237036
 20
98.2281652136
 30
0.0
 10
190.9885102717
 20
97.9371910813
 30
0.0
 10
190.3954552668
 20
97.8477518555
 30
0.0
 10
190.0809052532
 20
97.8289648769
 30
0.0
  0
SPLINE
  5
535
100
AcDbEntity
  8
DTM_AXIS
100
AcDbSpline
 62
7
  6
CONTINUOUS
 70
0
 71
3
 72
16
 73
12
 74
0
 42
0.0000001
 43
0.0000001
 44
0.0000000001
 40
0.0
 40
0.0
 40
0.0
 40
0.0
 40
0.0708838824
 40
0.1355899355
 40
0.2561811068
 40
0.3718654401
 40
0.4867629966
 40
0.6036374066
 40
0.7250159356
 40
0.854362321
 40
1.0
 40
1.0
 40
1.0
 40
1.0
 10
196.8423172518
 20
99.8104263681
 30
0.0
 10
196.8347708717
 20
99.6572434511
 30
0.0
 10
196.7978020163
 20
99.3646651507
 30
0.0
 10
196.6449460016
 20
98.8304172945
 30
0.0
 10
196.3607152423
 20
98.2390392866
 30
0.0
 10
195.9095447865
 20
97.6231405001
 30
0.0
 10
195.3683983754
 20
97.0969455404
 30
0.0
 10
194.7476670121
 20
96.6469902726
 30
0.0
 10
194.0416686152
 20
96.2754272536
 30
0.0
 10
193.2310551834
 20
95.9844531214
 30
0.0
 10
192.6380001784
 20
95.8950138955
 30
0.0
 10
192.3234501648
 20
95.876226917
 30
0.0
  0
SPLINE
  5
536
100
AcDbEntity
  8
DTM_AXIS
100
AcDbSpline
 62
7
  6
CONTINUOUS
 70
0
 71
3
 72
16
 73
12
 74
0
 42
0.0000001
 43
0.0000001
 44
0.0000000001
 40
0.0
 40
0.0
 40
0.0
 40
0.0
 40
0.0708838824
 40
0.1355899355
 40
0.2561811068
 40
0.3718654401
 40
0.4867629966
 40
0.6036374066
 40
0.7250159356
 40
0.854362321
 40
1.0
 40
1.0
 40
1.0
 40
1.0
 10
239.9038661295
 20
62.3137766145
 30
0.0
 10
239.8963197494
 20
62.1605936975
 30
0.0
 10
239.859350894
 20
61.8680153971
 30
0.0
 10
239.7064948794
 20
61.3337675409
 30
0.0
 10
239.42226412
 20
60.742389533
 30
0.0
 10
238.9710936642
 20
60.1264907465
 30
0.0
 10
238.4299472531
 20
59.6002957868
 30
0.0
 10
237.8092158899
 20
59.150340519
 30
0.0
 10
237.1032174929
 20
58.7787775
 30
0.0
 10
236.2926040611
 20
58.4878033678
 30
0.0
 10
235.6995490561
 20
58.3983641419
 30
0.0
 10
235.3849990425
 20
58.3795771634
 30
0.0
  0
SPLINE
  5
537
100
AcDbEntity
  8
DTM_AXIS
100
AcDbSpline
 62
7
  6
CONTINUOUS
 70
0
 71
3
 72
16
 73
12
 74
0
 42
0.0000001
 43
0.0000001
 44
0.0000000001
 40
0.0
 40
0.0
 40
0.0
 40
0.0
 40
0.0708838824
 40
0.1355899355
 40
0.2561811068
 40
0.3718654401
 40
0.4867629966
 40
0.6036374066
 40
0.7250159356
 40
0.854362321
 40
1.0
 40
1.0
 40
1.0
 40
1.0
 10
235.3734567506
 20
66.2587153858
 30
0.0
 10
235.3659103705
 20
66.1055324688
 30
0.0
 10
235.3289415151
 20
65.8129541685
 30
0.0
 10
235.1760855004
 20
65.2787063123
 30
0.0
 10
234.8918547411
 20
64.6873283043
 30
0.0
 10
234.4406842853
 20
64.0714295178
 30
0.0
 10
233.8995378742
 20
63.5452345581
 30
0.0
 10
233.2788065109
 20
63.0952792903
 30
0.0
 10
232.572808114
 20
62.7237162714
 30
0.0
 10
231.7621946822
 20
62.4327421391
 30
0.0
 10
231.1691396772
 20
62.3433029133
 30
0.0
 10
230.8545896636
 20
62.3245159347
 30
0.0
  0
SPLINE
  5
538
100
AcDbEntity
  8
DTM_AXIS
100
AcDbSpline
 62
7
  6
CONTINUOUS
 70
0
 71
3
 72
16
 73
12
 74
0
 42
0.0000001
 43
0.0000001
 44
0.0000000001
 40
0.0
 40
0.0
 40
0.0
 40
0.0
 40
0.0708838824
 40
0.1355899355
 40
0.2561811068
 40
0.3718654401
 40
0.4867629966
 40
0.6036374066
 40
0.7250159356
 40
0.854362321
 40
1.0
 40
1.0
 40
1.0
 40
1.0
 10
237.6160016622
 20
64.3059774259
 30
0.0
 10
237.6084552821
 20
64.1527945089
 30
0.0
 10
237.5714864267
 20
63.8602162085
 30
0.0
 10
237.418630412
 20
63.3259683523
 30
0.0
 10
237.1343996527
 20
62.7345903444
 30
0.0
 10
236.6832291969
 20
62.1186915579
 30
0.0
 10
236.1420827858
 20
61.5924965982
 30
0.0
 10
235.5213514226
 20
61.1425413304
 30
0.0
 10
234.8153530256
 20
60.7709783114
 30
0.0
 10
234.0047395938
 20
60.4800041792
 30
0.0
 10
233.4116845888
 20
60.3905649533
 30
0.0
 10
233.0971345752
 20
60.3717779748
 30
0.0
  0
SPLINE
  5
539
100
AcDbEntity
  8
DTM_AXIS
100
AcDbSpline
 62
7
  6
CONTINUOUS
 70
0
 71
3
 72
16
 73
12
 74
0
 42
0.0000001
 43
0.0000001
 44
0.0000000001
 40
0.0
 40
0.0
 40
0.0
 40
0.0
 40
0.0708838824
 40
0.1355899355
 40
0.2561811068
 40
0.3718654401
 40
0.4867629966
 40
0.6036374066
 40
0.7250159356
 40
0.854362321
 40
1.0
 40
1.0
 40
1.0
 40
1.0
 10
237.63866144
 20
64.2862460001
 30
0.0
 10
237.6311150599
 20
64.1330630831
 30
0.0
 10
237.5941462045
 20
63.8404847828
 30
0.0
 10
237.4412901899
 20
63.3062369266
 30
0.0
 10
237.1570594306
 20
62.7148589187
 30
0.0
 10
236.7058889747
 20
62.0989601322
 30
0.0
 10
236.1647425636
 20
61.5727651724
 30
0.0
 10
235.5440112004
 20
61.1228099046
 30
0.0
 10
234.8380128035
 20
60.7512468857
 30
0.0
 10
234.0273993716
 20
60.4602727534
 30
0.0
 10
233.4343443667
 20
60.3708335276
 30
0.0
 10
233.119794353
 20
60.3520465491
 30
0.0
  0
SPLINE
  5
53A
100
AcDbEntity
  8
DTM_AXIS
100
AcDbSpline
 62
7
  6
CONTINUOUS
 70
0
 71
3
 72
16
 73
12
 74
0
 42
0.0000001
 43
0.0000001
 44
0.0000000001
 40
0.0
 40
0.0
 40
0.0
 40
0.0
 40
0.0708838824
 40
0.1355899355
 40
0.2561811068
 40
0.3718654401
 40
0.4867629966
 40
0.6036374066
 40
0.7250159356
 40
0.854362321
 40
1.0
 40
1.0
 40
1.0
 40
1.0
 10
239.8812063517
 20
62.3335080402
 30
0.0
 10
239.8736599716
 20
62.1803251232
 30
0.0
 10
239.8366911162
 20
61.8877468229
 30
0.0
 10
239.6838351015
 20
61.3534989667
 30
0.0
 10
239.3996043422
 20
60.7621209587
 30
0.0
 10
238.9484338864
 20
60.1462221722
 30
0.0
 10
238.4072874753
 20
59.6200272125
 30
0.0
 10
237.786556112
 20
59.1700719447
 30
0.0
 10
237.0805577151
 20
58.7985089257
 30
0.0
 10
236.2699442832
 20
58.5075347935
 30
0.0
 10
235.6768892783
 20
58.4180955676
 30
0.0
 10
235.3623392647
 20
58.3993085891
 30
0.0
  0
SPLINE
  5
53B
100
AcDbEntity
  8
DTM_AXIS
100
AcDbSpline
 62
7
  6
CONTINUOUS
 70
0
 71
3
 72
16
 73
12
 74
0
 42
0.0000001
 43
0.0000001
 44
0.0000000001
 40
0.0
 40
0.0
 40
0.0
 40
0.0
 40
0.0708838824
 40
0.1355899355
 40
0.2561811068
 40
0.3718654401
 40
0.4867629966
 40
0.6036374066
 40
0.7250159356
 40
0.854362321
 40
1.0
 40
1.0
 40
1.0
 40
1.0
 10
226.3126379927
 20
74.1485929285
 30
0.0
 10
226.3050916126
 20
73.9954100115
 30
0.0
 10
226.2681227572
 20
73.7028317112
 30
0.0
 10
226.1152667426
 20
73.168583855
 30
0.0
 10
225.8310359832
 20
72.5772058471
 30
0.0
 10
225.3798655274
 20
71.9613070606
 30
0.0
 10
224.8387191163
 20
71.4351121008
 30
0.0
 10
224.2179877531
 20
70.985156833
 30
0.0
 10
223.5119893561
 20
70.6135938141
 30
0.0
 10
222.7013759243
 20
70.3226196818
 30
0.0
 10
222.1083209193
 20
70.233180456
 30
0.0
 10
221.7937709057
 20
70.2143934775
 30
0.0
  0
SPLINE
  5
53C
100
AcDbEntity
  8
DTM_AXIS
100
AcDbSpline
 62
7
  6
CONTINUOUS
 70
0
 71
3
 72
16
 73
12
 74
0
 42
0.0000001
 43
0.0000001
 44
0.0000000001
 40
0.0
 40
0.0
 40
0.0
 40
0.0
 40
0.0708838824
 40
0.1355899355
 40
0.2561811068
 40
0.3718654401
 40
0.4867629966
 40
0.6036374066
 40
0.7250159356
 40
0.854362321
 40
1.0
 40
1.0
 40
1.0
 40
1.0
 10
228.5551829043
 20
72.1958549686
 30
0.0
 10
228.5476365242
 20
72.0426720516
 30
0.0
 10
228.5106676688
 20
71.7500937513
 30
0.0
 10
228.3578116542
 20
71.2158458951
 30
0.0
 10
228.0735808948
 20
70.6244678871
 30
0.0
 10
227.622410439
 20
70.0085691006
 30
0.0
 10
227.0812640279
 20
69.4823741409
 30
0.0
 10
226.4605326647
 20
69.0324188731
 30
0.0
 10
225.7545342677
 20
68.6608558541
 30
0.0
 10
224.9439208359
 20
68.3698817219
 30
0.0
 10
224.3508658309
 20
68.280442496
 30
0.0
 10
224.0363158173
 20
68.2616555175
 30
0.0
  0
SPLINE
  5
53D
100
AcDbEntity
  8
DTM_AXIS
100
AcDbSpline
 62
7
  6
CONTINUOUS
 70
0
 71
3
 72
16
 73
12
 74
0
 42
0.0000001
 43
0.0000001
 44
0.0000000001
 40
0.0
 40
0.0
 40
0.0
 40
0.0
 40
0.0708838824
 40
0.1355899355
 40
0.2561811068
 40
0.3718654401
 40
0.4867629966
 40
0.6036374066
 40
0.7250159356
 40
0.854362321
 40
1.0
 40
1.0
 40
1.0
 40
1.0
 10
228.5778426822
 20
72.1761235428
 30
0.0
 10
228.5702963021
 20
72.0229406258
 30
0.0
 10
228.5333274467
 20
71.7303623255
 30
0.0
 10
228.380471432
 20
71.1961144693
 30
0.0
 10
228.0962406727
 20
70.6047364614
 30
0.0
 10
227.6450702169
 20
69.9888376749
 30
0.0
 10
227.1039238058
 20
69.4626427152
 30
0.0
 10
226.4831924425
 20
69.0126874474
 30
0.0
 10
225.7771940456
 20
68.6411244284
 30
0.0
 10
224.9665806138
 20
68.3501502961
 30
0.0
 10
224.3735256088
 20
68.2607110703
 30
0.0
 10
224.0589755952
 20
68.2419240918
 30
0.0
  0
SPLINE
  5
53E
100
AcDbEntity
  8
DTM_AXIS
100
AcDbSpline
 62
7
  6
CONTINUOUS
 70
0
 71
3
 72
16
 73
12
 74
0
 42
0.0000001
 43
0.0000001
 44
0.0000000001
 40
0.0
 40
0.0
 40
0.0
 40
0.0
 40
0.0708838824
 40
0.1355899355
 40
0.2561811068
 40
0.3718654401
 40
0.4867629966
 40
0.6036374066
 40
0.7250159356
 40
0.854362321
 40
1.0
 40
1.0
 40
1.0
 40
1.0
 10
230.8203875938
 20
70.2233855829
 30
0.0
 10
230.8128412137
 20
70.0702026659
 30
0.0
 10
230.7758723583
 20
69.7776243656
 30
0.0
 10
230.6230163436
 20
69.2433765094
 30
0.0
 10
230.3387855843
 20
68.6519985014
 30
0.0
 10
229.8876151285
 20
68.0360997149
 30
0.0
 10
229.3464687174
 20
67.5099047552
 30
0.0
 10
228.7257373542
 20
67.0599494874
 30
0.0
 10
228.0197389572
 20
66.6883864684
 30
0.0
 10
227.2091255254
 20
66.3974123362
 30
0.0
 10
226.6160705204
 20
66.3079731104
 30
0.0
 10
226.3015205068
 20
66.2891861318
 30
0.0
  0
SPLINE
  5
53F
100
AcDbEntity
  8
DTM_AXIS
100
AcDbSpline
 62
7
  6
CONTINUOUS
 70
0
 71
3
 72
16
 73
12
 74
0
 42
0.0000001
 43
0.0000001
 44
0.0000000001
 40
0.0
 40
0.0
 40
0.0
 40
0.0
 40
0.0708838824
 40
0.1355899355
 40
0.2561811068
 40
0.3718654401
 40
0.4867629966
 40
0.6036374066
 40
0.7250159356
 40
0.854362321
 40
1.0
 40
1.0
 40
1.0
 40
1.0
 10
233.1082520611
 20
68.2311847715
 30
0.0
 10
233.100705681
 20
68.0780018545
 30
0.0
 10
233.0637368256
 20
67.7854235542
 30
0.0
 10
232.910880811
 20
67.251175698
 30
0.0
 10
232.6266500516
 20
66.65979769
 30
0.0
 10
232.1754795958
 20
66.0438989035
 30
0.0
 10
231.6343331847
 20
65.5177039438
 30
0.0
 10
231.0136018215
 20
65.067748676
 30
0.0
 10
230.3076034245
 20
64.696185657
 30
0.0
 10
229.4969899927
 20
64.4052115248
 30
0.0
 10
228.9039349877
 20
64.3157722989
 30
0.0
 10
228.5893849741
 20
64.2969853204
 30
0.0
  0
SPLINE
  5
540
100
AcDbEntity
  8
DTM_AXIS
100
AcDbSpline
 62
7
  6
CONTINUOUS
 70
0
 71
3
 72
16
 73
12
 74
0
 42
0.0000001
 43
0.0000001
 44
0.0000000001
 40
0.0
 40
0.0
 40
0.0
 40
0.0
 40
0.0708838824
 40
0.1355899355
 40
0.2561811068
 40
0.3718654401
 40
0.4867629966
 40
0.6036374066
 40
0.7250159356
 40
0.854362321
 40
1.0
 40
1.0
 40
1.0
 40
1.0
 10
235.3507969727
 20
66.2784468115
 30
0.0
 10
235.3432505926
 20
66.1252638945
 30
0.0
 10
235.3062817372
 20
65.8326855942
 30
0.0
 10
235.1534257226
 20
65.298437738
 30
0.0
 10
234.8691949632
 20
64.7070597301
 30
0.0
 10
234.4180245074
 20
64.0911609436
 30
0.0
 10
233.8768780963
 20
63.5649659839
 30
0.0
 10
233.2561467331
 20
63.1150107161
 30
0.0
 10
232.5501483361
 20
62.7434476971
 30
0.0
 10
231.7395349043
 20
62.4524735648
 30
0.0
 10
231.1464798993
 20
62.363034339
 30
0.0
 10
230.8319298857
 20
62.3442473605
 30
0.0
  0
SPLINE
  5
541
100
AcDbEntity
  8
DTM_AXIS
100
AcDbSpline
 62
7
  6
CONTINUOUS
 70
0
 71
3
 72
16
 73
12
 74
0
 42
0.0000001
 43
0.0000001
 44
0.0000000001
 40
0.0
 40
0.0
 40
0.0
 40
0.0
 40
0.0708838824
 40
0.1355899355
 40
0.2561811068
 40
0.3718654401
 40
0.4867629966
 40
0.6036374066
 40
0.7250159356
 40
0.854362321
 40
1.0
 40
1.0
 40
1.0
 40
1.0
 10
230.8430473716
 20
70.2036541572
 30
0.0
 10
230.8355009915
 20
70.0504712402
 30
0.0
 10
230.7985321361
 20
69.7578929398
 30
0.0
 10
230.6456761215
 20
69.2236450836
 30
0.0
 10
230.3614453622
 20
68.6322670757
 30
0.0
 10
229.9102749063
 20
68.0163682892
 30
0.0
 10
229.3691284952
 20
67.4901733295
 30
0.0
 10
228.748397132
 20
67.0402180617
 30
0.0
 10
228.0423987351
 20
66.6686550427
 30
0.0
 10
227.2317853032
 20
66.3776809105
 30
0.0
 10
226.6387302983
 20
66.2882416846
 30
0.0
 10
226.3241802846
 20
66.2694547061
 30
0.0
  0
SPLINE
  5
542
100
AcDbEntity
  8
DTM_AXIS
100
AcDbSpline
 62
7
  6
CONTINUOUS
 70
0
 71
3
 72
16
 73
12
 74
0
 42
0.0000001
 43
0.0000001
 44
0.0000000001
 40
0.0
 40
0.0
 40
0.0
 40
0.0
 40
0.0708838824
 40
0.1355899355
 40
0.2561811068
 40
0.3718654401
 40
0.4867629966
 40
0.6036374066
 40
0.7250159356
 40
0.854362321
 40
1.0
 40
1.0
 40
1.0
 40
1.0
 10
233.0855922833
 20
68.2509161972
 30
0.0
 10
233.0780459032
 20
68.0977332802
 30
0.0
 10
233.0410770477
 20
67.8051549799
 30
0.0
 10
232.8882210331
 20
67.2709071237
 30
0.0
 10
232.6039902738
 20
66.6795291158
 30
0.0
 10
232.152819818
 20
66.0636303293
 30
0.0
 10
231.6116734069
 20
65.5374353695
 30
0.0
 10
230.9909420436
 20
65.0874801017
 30
0.0
 10
230.2849436467
 20
64.7159170828
 30
0.0
 10
229.4743302148
 20
64.4249429505
 30
0.0
 10
228.8812752099
 20
64.3355037247
 30
0.0
 10
228.5667251963
 20
64.3167167462
 30
0.0
  0
SPLINE
  5
543
100
AcDbEntity
  8
DTM_AXIS
100
AcDbSpline
 62
7
  6
CONTINUOUS
 70
0
 71
3
 72
16
 73
12
 74
0
 42
0.0000001
 43
0.0000001
 44
0.0000000001
 40
0.0
 40
0.0
 40
0.0
 40
0.0
 40
0.0708838824
 40
0.1355899355
 40
0.2561811068
 40
0.3718654401
 40
0.4867629966
 40
0.6036374066
 40
0.7250159356
 40
0.854362321
 40
1.0
 40
1.0
 40
1.0
 40
1.0
 10
208.191000477
 20
89.9283480139
 30
0.0
 10
208.1834540969
 20
89.7751650969
 30
0.0
 10
208.1464852415
 20
89.4825867966
 30
0.0
 10
207.9936292268
 20
88.9483389404
 30
0.0
 10
207.7093984675
 20
88.3569609325
 30
0.0
 10
207.2582280117
 20
87.741062146
 30
0.0
 10
206.7170816006
 20
87.2148671863
 30
0.0
 10
206.0963502373
 20
86.7649119185
 30
0.0
 10
205.3903518404
 20
86.3933488995
 30
0.0
 10
204.5797384085
 20
86.1023747672
 30
0.0
 10
203.9866834036
 20
86.0129355414
 30
0.0
 10
203.67213339
 20
85.9941485629
 30
0.0
  0
SPLINE
  5
544
100
AcDbEntity
  8
DTM_AXIS
100
AcDbSpline
 62
7
  6
CONTINUOUS
 70
0
 71
3
 72
16
 73
12
 74
0
 42
0.0000001
 43
0.0000001
 44
0.0000000001
 40
0.0
 40
0.0
 40
0.0
 40
0.0
 40
0.0708838824
 40
0.1355899355
 40
0.2561811068
 40
0.3718654401
 40
0.4867629966
 40
0.6036374066
 40
0.7250159356
 40
0.854362321
 40
1.0
 40
1.0
 40
1.0
 40
1.0
 10
210.4335453886
 20
87.975610054
 30
0.0
 10
210.4259990085
 20
87.822427137
 30
0.0
 10
210.3890301531
 20
87.5298488367
 30
0.0
 10
210.2361741384
 20
86.9956009805
 30
0.0
 10
209.9519433791
 20
86.4042229725
 30
0.0
 10
209.5007729233
 20
85.788324186
 30
0.0
 10
208.9596265122
 20
85.2621292263
 30
0.0
 10
208.3388951489
 20
84.8121739585
 30
0.0
 10
207.632896752
 20
84.4406109395
 30
0.0
 10
206.8222833202
 20
84.1496368073
 30
0.0
 10
206.2292283152
 20
84.0601975815
 30
0.0
 10
205.9146783016
 20
84.0414106029
 30
0.0
  0
SPLINE
  5
545
100
AcDbEntity
  8
DTM_AXIS
100
AcDbSpline
 62
7
  6
CONTINUOUS
 70
0
 71
3
 72
16
 73
12
 74
0
 42
0.0000001
 43
0.0000001
 44
0.0000000001
 40
0.0
 40
0.0
 40
0.0
 40
0.0
 40
0.0708838824
 40
0.1355899355
 40
0.2561811068
 40
0.3718654401
 40
0.4867629966
 40
0.6036374066
 40
0.7250159356
 40
0.854362321
 40
1.0
 40
1.0
 40
1.0
 40
1.0
 10
210.4562051664
 20
87.9558786283
 30
0.0
 10
210.4486587863
 20
87.8026957113
 30
0.0
 10
210.4116899309
 20
87.5101174109
 30
0.0
 10
210.2588339163
 20
86.9758695547
 30
0.0
 10
209.974603157
 20
86.3844915468
 30
0.0
 10
209.5234327011
 20
85.7685927603
 30
0.0
 10
208.98228629
 20
85.2423978006
 30
0.0
 10
208.3615549268
 20
84.7924425328
 30
0.0
 10
207.6555565299
 20
84.4208795138
 30
0.0
 10
206.844943098
 20
84.1299053816
 30
0.0
 10
206.251888093
 20
84.0404661557
 30
0.0
 10
205.9373380794
 20
84.0216791772
 30
0.0
  0
SPLINE
  5
546
100
AcDbEntity
  8
DTM_AXIS
100
AcDbSpline
 62
7
  6
CONTINUOUS
 70
0
 71
3
 72
16
 73
12
 74
0
 42
0.0000001
 43
0.0000001
 44
0.0000000001
 40
0.0
 40
0.0
 40
0.0
 40
0.0
 40
0.0708838824
 40
0.1355899355
 40
0.2561811068
 40
0.3718654401
 40
0.4867629966
 40
0.6036374066
 40
0.7250159356
 40
0.854362321
 40
1.0
 40
1.0
 40
1.0
 40
1.0
 10
212.698750078
 20
86.0031406683
 30
0.0
 10
212.6912036979
 20
85.8499577513
 30
0.0
 10
212.6542348425
 20
85.557379451
 30
0.0
 10
212.5013788279
 20
85.0231315948
 30
0.0
 10
212.2171480686
 20
84.4317535869
 30
0.0
 10
211.7659776127
 20
83.8158548004
 30
0.0
 10
211.2248312016
 20
83.2896598406
 30
0.0
 10
210.6040998384
 20
82.8397045728
 30
0.0
 10
209.8981014415
 20
82.4681415539
 30
0.0
 10
209.0874880096
 20
82.1771674216
 30
0.0
 10
208.4944330047
 20
82.0877281958
 30
0.0
 10
208.179882991
 20
82.0689412173
 30
0.0
  0
SPLINE
  5
547
100
AcDbEntity
  8
DTM_AXIS
100
AcDbSpline
 62
7
  6
CONTINUOUS
 70
0
 71
3
 72
16
 73
12
 74
0
 42
0.0000001
 43
0.0000001
 44
0.0000000001
 40
0.0
 40
0.0
 40
0.0
 40
0.0
 40
0.0708838824
 40
0.1355899355
 40
0.2561811068
 40
0.3718654401
 40
0.4867629966
 40
0.6036374066
 40
0.7250159356
 40
0.854362321
 40
1.0
 40
1.0
 40
1.0
 40
1.0
 10
214.9866145454
 20
84.0109398569
 30
0.0
 10
214.9790681653
 20
83.8577569399
 30
0.0
 10
214.9420993099
 20
83.5651786396
 30
0.0
 10
214.7892432952
 20
83.0309307834
 30
0.0
 10
214.5050125359
 20
82.4395527754
 30
0.0
 10
214.0538420801
 20
81.8236539889
 30
0.0
 10
213.512695669
 20
81.2974590292
 30
0.0
 10
212.8919643057
 20
80.8475037614
 30
0.0
 10
212.1859659088
 20
80.4759407425
 30
0.0
 10
211.375352477
 20
80.1849666102
 30
0.0
 10
210.782297472
 20
80.0955273844
 30
0.0
 10
210.4677474584
 20
80.0767404058
 30
0.0
  0
SPLINE
  5
548
100
AcDbEntity
  8
DTM_AXIS
100
AcDbSpline
 62
7
  6
CONTINUOUS
 70
0
 71
3
 72
16
 73
12
 74
0
 42
0.0000001
 43
0.0000001
 44
0.0000000001
 40
0.0
 40
0.0
 40
0.0
 40
0.0
 40
0.0708838824
 40
0.1355899355
 40
0.2561811068
 40
0.3718654401
 40
0.4867629966
 40
0.6036374066
 40
0.7250159356
 40
0.854362321
 40
1.0
 40
1.0
 40
1.0
 40
1.0
 10
217.229159457
 20
82.058201897
 30
0.0
 10
217.2216130769
 20
81.90501898
 30
0.0
 10
217.1846442215
 20
81.6124406796
 30
0.0
 10
217.0317882068
 20
81.0781928234
 30
0.0
 10
216.7475574475
 20
80.4868148155
 30
0.0
 10
216.2963869917
 20
79.870916029
 30
0.0
 10
215.7552405806
 20
79.3447210693
 30
0.0
 10
215.1345092173
 20
78.8947658015
 30
0.0
 10
214.4285108204
 20
78.5232027825
 30
0.0
 10
213.6178973886
 20
78.2322286503
 30
0.0
 10
213.0248423836
 20
78.1427894244
 30
0.0
 10
212.71029237
 20
78.1240024459
 30
0.0
  0
SPLINE
  5
549
100
AcDbEntity
  8
DTM_AXIS
100
AcDbSpline
 62
7
  6
CONTINUOUS
 70
0
 71
3
 72
16
 73
12
 74
0
 42
0.0000001
 43
0.0000001
 44
0.0000000001
 40
0.0
 40
0.0
 40
0.0
 40
0.0
 40
0.0708838824
 40
0.1355899355
 40
0.2561811068
 40
0.3718654401
 40
0.4867629966
 40
0.6036374066
 40
0.7250159356
 40
0.854362321
 40
1.0
 40
1.0
 40
1.0
 40
1.0
 10
212.7214098559
 20
85.9834092426
 30
0.0
 10
212.7138634758
 20
85.8302263256
 30
0.0
 10
212.6768946204
 20
85.5376480253
 30
0.0
 10
212.5240386057
 20
85.0034001691
 30
0.0
 10
212.2398078464
 20
84.4120221611
 30
0.0
 10
211.7886373906
 20
83.7961233746
 30
0.0
 10
211.2474909795
 20
83.2699284149
 30
0.0
 10
210.6267596163
 20
82.8199731471
 30
0.0
 10
209.9207612193
 20
82.4484101281
 30
0.0
 10
209.1101477875
 20
82.1574359959
 30
0.0
 10
208.5170927825
 20
82.06799677
 30
0.0
 10
208.2025427689
 20
82.0492097915
 30
0.0
  0
SPLINE
  5
54A
100
AcDbEntity
  8
DTM_AXIS
100
AcDbSpline
 62
7
  6
CONTINUOUS
 70
0
 71
3
 72
16
 73
12
 74
0
 42
0.0000001
 43
0.0000001
 44
0.0000000001
 40
0.0
 40
0.0
 40
0.0
 40
0.0
 40
0.0708838824
 40
0.1355899355
 40
0.2561811068
 40
0.3718654401
 40
0.4867629966
 40
0.6036374066
 40
0.7250159356
 40
0.854362321
 40
1.0
 40
1.0
 40
1.0
 40
1.0
 10
214.9639547675
 20
84.0306712826
 30
0.0
 10
214.9564083874
 20
83.8774883656
 30
0.0
 10
214.919439532
 20
83.5849100653
 30
0.0
 10
214.7665835174
 20
83.0506622091
 30
0.0
 10
214.482352758
 20
82.4592842012
 30
0.0
 10
214.0311823022
 20
81.8433854147
 30
0.0
 10
213.4900358911
 20
81.317190455
 30
0.0
 10
212.8693045279
 20
80.8672351872
 30
0.0
 10
212.1633061309
 20
80.4956721682
 30
0.0
 10
211.3526926991
 20
80.2046980359
 30
0.0
 10
210.7596376941
 20
80.1152588101
 30
0.0
 10
210.4450876805
 20
80.0964718316
 30
0.0
  0
SPLINE
  5
54B
100
AcDbEntity
  8
DTM_AXIS
100
AcDbSpline
 62
7
  6
CONTINUOUS
 70
0
 71
3
 72
16
 73
12
 74
0
 42
0.0000001
 43
0.0000001
 44
0.0000000001
 40
0.0
 40
0.0
 40
0.0
 40
0.0
 40
0.0708838824
 40
0.1355899355
 40
0.2561811068
 40
0.3718654401
 40
0.4867629966
 40
0.6036374066
 40
0.7250159356
 40
0.854362321
 40
1.0
 40
1.0
 40
1.0
 40
1.0
 10
224.0474333032
 20
76.1210623142
 30
0.0
 10
224.0398869231
 20
75.9678793972
 30
0.0
 10
224.0029180677
 20
75.6753010969
 30
0.0
 10
223.8500620531
 20
75.1410532407
 30
0.0
 10
223.5658312938
 20
74.5496752327
 30
0.0
 10
223.1146608379
 20
73.9337764462
 30
0.0
 10
222.5735144268
 20
73.4075814865
 30
0.0
 10
221.9527830636
 20
72.9576262187
 30
0.0
 10
221.2467846667
 20
72.5860631997
 30
0.0
 10
220.4361712348
 20
72.2950890675
 30
0.0
 10
219.8431162299
 20
72.2056498417
 30
0.0
 10
219.5285662162
 20
72.1868628631
 30
0.0
  0
SPLINE
  5
54C
100
AcDbEntity
  8
DTM_AXIS
100
AcDbSpline
 62
7
  6
CONTINUOUS
 70
0
 71
3
 72
16
 73
12
 74
0
 42
0.0000001
 43
0.0000001
 44
0.0000000001
 40
0.0
 40
0.0
 40
0.0
 40
0.0
 40
0.0708838824
 40
0.1355899355
 40
0.2561811068
 40
0.3718654401
 40
0.4867629966
 40
0.6036374066
 40
0.7250159356
 40
0.854362321
 40
1.0
 40
1.0
 40
1.0
 40
1.0
 10
226.2899782148
 20
74.1683243543
 30
0.0
 10
226.2824318347
 20
74.0151414373
 30
0.0
 10
226.2454629793
 20
73.7225631369
 30
0.0
 10
226.0926069647
 20
73.1883152807
 30
0.0
 10
225.8083762054
 20
72.5969372728
 30
0.0
 10
225.3572057496
 20
71.9810384863
 30
0.0
 10
224.8160593385
 20
71.4548435266
 30
0.0
 10
224.1953279752
 20
71.0048882588
 30
0.0
 10
223.4893295783
 20
70.6333252398
 30
0.0
 10
222.6787161464
 20
70.3423511076
 30
0.0
 10
222.0856611415
 20
70.2529118817
 30
0.0
 10
221.7711111279
 20
70.2341249032
 30
0.0
  0
SPLINE
  5
54D
100
AcDbEntity
  8
DTM_AXIS
100
AcDbSpline
 62
7
  6
CONTINUOUS
 70
0
 71
3
 72
16
 73
12
 74
0
 42
0.0000001
 43
0.0000001
 44
0.0000000001
 40
0.0
 40
0.0
 40
0.0
 40
0.0
 40
0.0708838824
 40
0.1355899355
 40
0.2561811068
 40
0.3718654401
 40
0.4867629966
 40
0.6036374066
 40
0.7250159356
 40
0.854362321
 40
1.0
 40
1.0
 40
1.0
 40
1.0
 10
221.7822286138
 20
78.0935316999
 30
0.0
 10
221.7746822337
 20
77.9403487829
 30
0.0
 10
221.7377133783
 20
77.6477704826
 30
0.0
 10
221.5848573636
 20
77.1135226264
 30
0.0
 10
221.3006266043
 20
76.5221446184
 30
0.0
 10
220.8494561485
 20
75.9062458319
 30
0.0
 10
220.3083097374
 20
75.3800508722
 30
0.0
 10
219.6875783741
 20
74.9300956044
 30
0.0
 10
218.9815799772
 20
74.5585325854
 30
0.0
 10
218.1709665454
 20
74.2675584532
 30
0.0
 10
217.5779115404
 20
74.1781192273
 30
0.0
 10
217.2633615268
 20
74.1593322488
 30
0.0
  0
SPLINE
  5
54E
100
AcDbEntity
  8
DTM_AXIS
100
AcDbSpline
 62
7
  6
CONTINUOUS
 70
0
 71
3
 72
16
 73
12
 74
0
 42
0.0000001
 43
0.0000001
 44
0.0000000001
 40
0.0
 40
0.0
 40
0.0
 40
0.0
 40
0.0708838824
 40
0.1355899355
 40
0.2561811068
 40
0.3718654401
 40
0.4867629966
 40
0.6036374066
 40
0.7250159356
 40
0.854362321
 40
1.0
 40
1.0
 40
1.0
 40
1.0
 10
224.0247735254
 20
76.1407937399
 30
0.0
 10
224.0172271453
 20
75.9876108229
 30
0.0
 10
223.9802582899
 20
75.6950325226
 30
0.0
 10
223.8274022752
 20
75.1607846664
 30
0.0
 10
223.5431715159
 20
74.5694066585
 30
0.0
 10
223.0920010601
 20
73.953507872
 30
0.0
 10
222.550854649
 20
73.4273129122
 30
0.0
 10
221.9301232857
 20
72.9773576444
 30
0.0
 10
221.2241248888
 20
72.6057946255
 30
0.0
 10
220.413511457
 20
72.3148204932
 30
0.0
 10
219.820456452
 20
72.2253812674
 30
0.0
 10
219.5059064384
 20
72.2065942889
 30
0.0
  0
SPLINE
  5
54F
100
AcDbEntity
  8
DTM_AXIS
100
AcDbSpline
 62
7
  6
CONTINUOUS
 70
0
 71
3
 72
16
 73
12
 74
0
 42
0.0000001
 43
0.0000001
 44
0.0000000001
 40
0.0
 40
0.0
 40
0.0
 40
0.0
 40
0.0708838824
 40
0.1355899355
 40
0.2561811068
 40
0.3718654401
 40
0.4867629966
 40
0.6036374066
 40
0.7250159356
 40
0.854362321
 40
1.0
 40
1.0
 40
1.0
 40
1.0
 10
217.2518192348
 20
82.0384704712
 30
0.0
 10
217.2442728547
 20
81.8852875542
 30
0.0
 10
217.2073039993
 20
81.5927092539
 30
0.0
 10
217.0544479847
 20
81.0584613977
 30
0.0
 10
216.7702172254
 20
80.4670833898
 30
0.0
 10
216.3190467695
 20
79.8511846033
 30
0.0
 10
215.7779003584
 20
79.3249896435
 30
0.0
 10
215.1571689952
 20
78.8750343757
 30
0.0
 10
214.4511705983
 20
78.5034713568
 30
0.0
 10
213.6405571664
 20
78.2124972245
 30
0.0
 10
213.0475021615
 20
78.1230579987
 30
0.0
 10
212.7329521478
 20
78.1042710202
 30
0.0
  0
SPLINE
  5
550
100
AcDbEntity
  8
DTM_AXIS
100
AcDbSpline
 62
7
  6
CONTINUOUS
 70
0
 71
3
 72
16
 73
12
 74
0
 42
0.0000001
 43
0.0000001
 44
0.0000000001
 40
0.0
 40
0.0
 40
0.0
 40
0.0
 40
0.0708838824
 40
0.1355899355
 40
0.2561811068
 40
0.3718654401
 40
0.4867629966
 40
0.6036374066
 40
0.7250159356
 40
0.854362321
 40
1.0
 40
1.0
 40
1.0
 40
1.0
 10
219.4943641464
 20
80.0857325113
 30
0.0
 10
219.4868177663
 20
79.9325495943
 30
0.0
 10
219.4498489109
 20
79.639971294
 30
0.0
 10
219.2969928963
 20
79.1057234378
 30
0.0
 10
219.012762137
 20
78.5143454298
 30
0.0
 10
218.5615916811
 20
77.8984466433
 30
0.0
 10
218.02044527
 20
77.3722516836
 30
0.0
 10
217.3997139068
 20
76.9222964158
 30
0.0
 10
216.6937155099
 20
76.5507333968
 30
0.0
 10
215.883102078
 20
76.2597592646
 30
0.0
 10
215.2900470731
 20
76.1703200387
 30
0.0
 10
214.9754970594
 20
76.1515330602
 30
0.0
  0
SPLINE
  5
551
100
AcDbEntity
  8
DTM_AXIS
100
AcDbSpline
 62
7
  6
CONTINUOUS
 70
0
 71
3
 72
16
 73
12
 74
0
 42
0.0000001
 43
0.0000001
 44
0.0000000001
 40
0.0
 40
0.0
 40
0.0
 40
0.0
 40
0.0708838824
 40
0.1355899355
 40
0.2561811068
 40
0.3718654401
 40
0.4867629966
 40
0.6036374066
 40
0.7250159356
 40
0.854362321
 40
1.0
 40
1.0
 40
1.0
 40
1.0
 10
219.5170239243
 20
80.0660010856
 30
0.0
 10
219.5094775442
 20
79.9128181686
 30
0.0
 10
219.4725086888
 20
79.6202398682
 30
0.0
 10
219.3196526741
 20
79.085992012
 30
0.0
 10
219.0354219148
 20
78.4946140041
 30
0.0
 10
218.584251459
 20
77.8787152176
 30
0.0
 10
218.0431050479
 20
77.3525202579
 30
0.0
 10
217.4223736847
 20
76.9025649901
 30
0.0
 10
216.7163752877
 20
76.5310019711
 30
0.0
 10
215.9057618559
 20
76.2400278389
 30
0.0
 10
215.3127068509
 20
76.150588613
 30
0.0
 10
214.9981568373
 20
76.1318016345
 30
0.0
  0
SPLINE
  5
552
100
AcDbEntity
  8
DTM_AXIS
100
AcDbSpline
 62
7
  6
CONTINUOUS
 70
0
 71
3
 72
16
 73
12
 74
0
 42
0.0000001
 43
0.0000001
 44
0.0000000001
 40
0.0
 40
0.0
 40
0.0
 40
0.0
 40
0.0708838824
 40
0.1355899355
 40
0.2561811068
 40
0.3718654401
 40
0.4867629966
 40
0.6036374066
 40
0.7250159356
 40
0.854362321
 40
1.0
 40
1.0
 40
1.0
 40
1.0
 10
221.7595688359
 20
78.1132631256
 30
0.0
 10
221.7520224558
 20
77.9600802086
 30
0.0
 10
221.7150536004
 20
77.6675019083
 30
0.0
 10
221.5621975858
 20
77.1332540521
 30
0.0
 10
221.2779668264
 20
76.5418760441
 30
0.0
 10
220.8267963706
 20
75.9259772576
 30
0.0
 10
220.2856499595
 20
75.3997822979
 30
0.0
 10
219.6649185963
 20
74.9498270301
 30
0.0
 10
218.9589201993
 20
74.5782640112
 30
0.0
 10
218.1483067675
 20
74.2872898789
 30
0.0
 10
217.5552517625
 20
74.1978506531
 30
0.0
 10
217.2407017489
 20
74.1790636745
 30
0.0
  0
SPLINE
  5
553
100
AcDbEntity
  8
DTM_AXIS
100
AcDbSpline
 62
8
  6
HIDDEN
 70
0
 71
3
 72
12
 73
8
 74
0
 42
0.0000001
 43
0.0000001
 44
0.0000000001
 40
0.0
 40
0.0
 40
0.0
 40
0.0
 40
0.1128312377
 40
0.2431255686
 40
0.5037142304
 40
0.7643028922
 40
1.0
 40
1.0
 40
1.0
 40
1.0
 10
42.7619216977
 20
68.8004590139
 30
0.0
 10
42.7086196109
 20
68.2569531456
 30
0.0
 10
42.4443943406
 20
67.2282012351
 30
0.0
 10
41.5494325415
 20
65.4280690359
 30
0.0
 10
39.8840801251
 20
63.5839861126
 30
0.0
 10
37.3428204122
 20
62.01962325
 30
0.0
 10
35.2570567199
 20
61.3936779936
 30
0.0
 10
34.0635392395
 20
61.2898448829
 30
0.0
  0
SPLINE
  5
554
100
AcDbEntity
  8
0
100
AcDbSpline
 62
7
  6
CONTINUOUS
 70
0
 71
3
 72
12
 73
8
 74
0
 42
0.0000001
 43
0.0000001
 44
0.0000000001
 40
0.0
 40
0.0
 40
0.0
 40
0.0
 40
0.25
 40
0.5
 40
0.75
 40
0.875
 40
1.0
 40
1.0
 40
1.0
 40
1.0
 10
33.6784855366
 20
61.2635420583
 30
0.0
 10
35.0467757327
 20
61.3318943337
 30
0.0
 10
37.2592452499
 20
61.9681755843
 30
0.0
 10
39.8840801251
 20
63.5839861126
 30
0.0
 10
41.5494325415
 20
65.4280690359
 30
0.0
 10
42.4754214594
 20
67.2906093912
 30
0.0
 10
42.7457114611
 20
68.4055633301
 30
0.0
 10
42.7815659864
 20
69.0576828847
 30
0.0
  0
ELLIPSE
  5
555
100
AcDbEntity
  8
0
100
AcDbEllipse
 62
7
  6
CONTINUOUS
 10
287.8350028097
 20
111.4598421308
 30
0.0
 11
3.1161849167
 21
0.1574314487
 31
0.0
 40
0.9535004668
 41
-1.6106508943
 42
-0.0427343225
  0
ELLIPSE
  5
556
100
AcDbEntity
  8
0
100
AcDbEllipse
 62
7
  6
CONTINUOUS
 10
286.8198344486
 20
101.4158750753
 30
0.0
 11
4.1476033698
 21
0.2095393003
 31
0.0
 40
0.9535004668
 41
1.5280620043
 42
2.6916545344
  0
ELLIPSE
  5
557
100
AcDbEntity
  8
0
100
AcDbEllipse
 62
7
  6
CONTINUOUS
 10
277.7432916552
 20
105.0526444098
 30
0.0
 11
5.7029546334
 21
0.2881165379
 31
0.0
 40
0.9535004668
 41
-1.1757858434
 42
-0.4499381192
  0
ELLIPSE
  5
558
100
AcDbEntity
  8
0
100
AcDbEllipse
 62
7
  6
CONTINUOUS
 10
279.5155052756
 20
93.7288563442
 30
0.0
 11
3.6365067525
 21
0.1837184061
 31
0.0
 40
0.9535004668
 41
1.5280620043
 42
3.0988583311
  0
ELLIPSE
  5
559
100
AcDbEntity
  8
0
100
AcDbEllipse
 62
7
  6
CONTINUOUS
 10
252.0113579476
 20
77.2712731135
 30
0.0
 11
2.8504303488
 21
0.1440053755
 31
0.0
 40
0.9535004668
 41
1.5280620043
 42
3.0991526234
  0
ELLIPSE
  5
55A
100
AcDbEntity
  8
0
100
AcDbEllipse
 62
7
  6
CONTINUOUS
 10
264.6852933354
 20
78.3998244292
 30
0.0
 11
5.8899391006
 21
0.2975631004
 31
0.0
 40
0.9535004668
 41
1.1286324949
 42
1.5280620043
  0
ELLIPSE
  5
55B
100
AcDbEntity
  8
0
100
AcDbEllipse
 62
7
  6
CONTINUOUS
 10
164.9873022973
 20
120.029994845
 30
0.0
 11
0.9332107582
 21
0.0471463426
 31
0.0
 40
0.9535004668
 41
-1.2644647989
 42
0.3070488667
  0
ELLIPSE
  5
55C
100
AcDbEntity
  8
0
100
AcDbEllipse
 62
7
  6
CONTINUOUS
 10
167.3912859083
 20
130.254359821
 30
0.0
 11
4.1476033698
 21
0.2095393003
 31
0.0
 40
0.9535004668
 41
-1.2641705066
 42
-0.0424400302
  0
ELLIPSE
  5
55D
100
AcDbEntity
  8
0
100
AcDbEllipse
 62
7
  6
CONTINUOUS
 10
199.4529599079
 20
151.2949241476
 30
0.0
 11
3.1107025273
 21
0.1571544752
 31
0.0
 40
0.9535004668
 41
-1.6135306493
 42
-0.0427343225
  0
ELLIPSE
  5
55E
100
AcDbEntity
  8
0
100
AcDbEllipse
 62
7
  6
CONTINUOUS
 10
206.7100714376
 20
153.044314994
 30
0.0
 11
4.1476033698
 21
0.2095393003
 31
0.0
 40
0.9535004668
 41
2.6146374381
 42
3.0988583311
  0
ELLIPSE
  5
55F
100
AcDbEntity
  8
0
100
AcDbEllipse
 62
7
  6
CONTINUOUS
 10
177.7553082774
 20
133.1789353864
 30
0.0
 11
6.2214050546
 21
0.3143089504
 31
0.0
 40
0.9535004668
 41
2.1808853449
 42
3.0991526234
  0
ELLIPSE
  5
560
100
AcDbEntity
  8
0
100
AcDbEllipse
 62
7
  6
CONTINUOUS
 10
191.4651098003
 20
138.3462356163
 30
0.0
 11
10.3690084244
 21
0.5238482507
 31
0.0
 40
0.9535004668
 41
1.5280620043
 42
2.1808853449
  0
ELLIPSE
  5
561
100
AcDbEntity
  8
0
100
AcDbEllipse
 62
7
  6
CONTINUOUS
 10
219.7085459836
 20
170.78222967
 30
0.0
 11
3.1161849167
 21
0.1574314487
 31
0.0
 40
0.9535004668
 41
-1.6106508943
 42
-0.0427343225
  0
ELLIPSE
  5
562
100
AcDbEntity
  8
0
100
AcDbEllipse
 62
7
  6
CONTINUOUS
 10
218.6933776225
 20
160.7382626145
 30
0.0
 11
4.1476033698
 21
0.2095393003
 31
0.0
 40
0.9535004668
 41
1.5280620043
 42
2.6916545344
  0
ELLIPSE
  5
563
100
AcDbEntity
  8
0
100
AcDbEllipse
 62
7
  6
CONTINUOUS
 10
209.6168348291
 20
164.375031949
 30
0.0
 11
5.7029546334
 21
0.2881165379
 31
0.0
 40
0.9535004668
 41
-1.1757858434
 42
-0.4499381192
  0
ELLIPSE
  5
564
100
AcDbEntity
  8
0
100
AcDbEllipse
 62
7
  6
CONTINUOUS
 10
211.3890484495
 20
153.0512438833
 30
0.0
 11
3.6365067525
 21
0.1837184061
 31
0.0
 40
0.9535004668
 41
1.5280620043
 42
3.0988583311
  0
ELLIPSE
  5
565
100
AcDbEntity
  8
0
100
AcDbEllipse
 62
7
  6
CONTINUOUS
 10
183.8849011215
 20
136.5936606526
 30
0.0
 11
2.8504303488
 21
0.1440053755
 31
0.0
 40
0.9535004668
 41
1.5280620043
 42
3.0991526234
  0
ELLIPSE
  5
566
100
AcDbEntity
  8
0
100
AcDbEllipse
 62
7
  6
CONTINUOUS
 10
217.6320983067
 20
171.7468817233
 30
0.0
 11
0.9332107582
 21
0.0471463426
 31
0.0
 40
0.9535004668
 41
-2.6600108617
 42
-0.3918001729
  0
ELLIPSE
  5
567
100
AcDbEntity
  8
0
100
AcDbEllipse
 62
7
  6
CONTINUOUS
 10
196.5588365093
 20
137.7222119684
 30
0.0
 11
5.8899391006
 21
0.2975631004
 31
0.0
 40
0.9535004668
 41
6.7145499267
 42
7.8112473115
  0
ELLIPSE
  5
568
100
AcDbEntity
  8
0
100
AcDbEllipse
 62
7
  6
CONTINUOUS
 10
26.9150913991
 20
67.95037263
 30
0.0
 11
1.872939915
 21
0.0
 31
0.0
 40
0.9531889601
 41
-1.2217304764
 42
0.3497831892
  0
ELLIPSE
  5
569
100
AcDbEntity
  8
0
100
AcDbEllipse
 62
7
  6
CONTINUOUS
 10
137.1842002999
 20
168.566542179
 30
0.0
 11
-6.2541361227
 21
0.0
 31
0.0
 40
0.9531889601
 41
1.5736760818
 42
3.1415926536
  0
ELLIPSE
  5
56A
100
AcDbEntity
  8
0
100
AcDbEllipse
 62
7
  6
CONTINUOUS
 10
135.0352148834
 20
148.4631123918
 30
0.0
 11
-8.3241774
 21
0.0
 31
0.0
 40
0.9531889601
 41
-1.5707963268
 42
-0.4072037967
  0
ELLIPSE
  5
56B
100
AcDbEntity
  8
0
100
AcDbEllipse
 62
7
  6
CONTINUOUS
 10
116.8818438713
 20
155.9263390893
 30
0.0
 11
-11.445743925
 21
-0.0
 31
0.0
 40
0.9531889601
 41
2.0085411327
 42
2.7343888569
  0
ELLIPSE
  5
56C
100
AcDbEntity
  8
0
100
AcDbEllipse
 62
7
  6
CONTINUOUS
 10
120.3058602439
 20
133.204442083
 30
0.0
 11
-7.2984141986
 21
-0.0
 31
0.0
 40
0.9531889601
 41
-1.5707963268
 42
0.0
  0
ELLIPSE
  5
56D
100
AcDbEntity
  8
0
100
AcDbEllipse
 62
7
  6
CONTINUOUS
 10
90.4035400605
 20
102.7815890021
 30
0.0
 11
-11.8210189302
 21
-0.0
 31
0.0
 40
0.9531889601
 41
-2.6674937116
 42
-1.5707963268
  0
ELLIPSE
  5
56E
100
AcDbEntity
  8
0
100
AcDbEllipse
 62
7
  6
CONTINUOUS
 10
64.9848238714
 20
100.7675522574
 30
0.0
 11
-5.7207707137
 21
-0.0
 31
0.0
 40
0.9531889601
 41
-1.5707963268
 42
0.0002942923
  0
ELLIPSE
  5
56F
100
AcDbEntity
  8
0
100
AcDbEllipse
 62
7
  6
CONTINUOUS
 10
133.0327454165
 20
170.5397073903
 30
0.0
 11
1.872939915
 21
0.0
 31
0.0
 40
0.9531889601
 41
-2.6172765392
 42
-0.3490658504
  0
ELLIPSE
  5
570
100
AcDbEntity
  8
0
100
AcDbEllipse
 62
7
  6
CONTINUOUS
 10
80.1998442797
 20
104.1311112441
 30
0.0
 11
20.8104435
 21
0.0
 31
0.0
 40
0.9531889601
 41
1.5707963268
 42
2.2236196674
  0
ELLIPSE
  5
571
100
AcDbEntity
  8
0
100
AcDbEllipse
 62
7
  6
CONTINUOUS
 10
52.6588121882
 20
94.0455795996
 30
0.0
 11
-12.4862661
 21
-0.0
 31
0.0
 40
0.9531889601
 41
-0.9179729862
 42
0.0002942923
  0
ELLIPSE
  5
572
100
AcDbEntity
  8
0
100
AcDbEllipse
 62
7
  6
CONTINUOUS
 10
110.9264016953
 20
133.281758864
 30
0.0
 11
8.3241774
 21
0.0
 31
0.0
 40
0.9531889601
 41
2.6573717606
 42
3.1415926536
  0
ELLIPSE
  5
573
100
AcDbEntity
  8
0
100
AcDbEllipse
 62
7
  6
CONTINUOUS
 10
96.3590912453
 20
129.9182817441
 30
0.0
 11
6.24313305
 21
-0.0
 31
0.0
 40
0.9531889601
 41
-1.5707963268
 42
-0.0
  0
ELLIPSE
  5
574
100
AcDbEntity
  8
0
100
AcDbEllipse
 62
7
  6
CONTINUOUS
 10
31.8501144865
 20
88.3881622788
 30
0.0
 11
8.3241774
 21
-0.0
 31
0.0
 40
0.9531889601
 41
-1.2214361841
 42
0.0002942923
  0
ENDSEC
  0
SECTION
  2
OBJECTS
  0
DICTIONARY
  5
C
100
AcDbDictionary
280
0
281
1
  3
ACAD_GROUP
350
D
  3
ACAD_MLINESTYLE
350
17
  3
ACAD_LAYOUT
350
1A
  3
ACAD_PLOTSETTINGS
350
19
  3
ACAD_PLOTSTYLENAME
350
E
  3
ACAD_TABLESTYLE
350
       575
  0
DICTIONARY
  5
D
102
{ACAD_REACTORS
330
C
102
}
100
AcDbDictionary
280
0
281
1
  0
ACDBDICTIONARYWDFLT
  5
E
102
{ACAD_REACTORS
330
C
102
}
100
AcDbDictionary
281
1
  3
Normal
350
F
100
AcDbDictionaryWithDefault
340
F
  0
DICTIONARY
  5
17
102
{ACAD_REACTORS
330
C
102
}
100
AcDbDictionary
280
0
281
1
  3
Standard
350
18
  0
DICTIONARY
  5
575
330
C
100
AcDbDictionary
281
1
  3
Standard
350
       578
  3
Standard1
350
       579
  0
DICTIONARY
  5
19
102
{ACAD_REACTORS
330
C
102
}
100
AcDbDictionary
281
1
  0
DICTIONARY
  5
1A
102
{ACAD_REACTORS
330
C
102
}
100
AcDbDictionary
281
1
  3
Model
350
576
  3
Layout1
350
577
  0
ACDBPLACEHOLDER
  5
F
102
{ACAD_REACTORS
330
E
102
}
  0
MLINESTYLE
  5
18
102
{ACAD_REACTORS
330
17
102
}
100
AcDbMlineStyle
  2
STANDARD
 70
0
  3

 62
256
 51
90.0
 52
90.0
 71
2
 49
0.5
 62
256
  6
BYLAYER
 49
-0.5
 62
256
  6
BYLAYER
  0
LAYOUT
  5
576
102
{ACAD_REACTORS
330
1A
102
}
100
AcDbPlotSettings
  1

  2
none_device
  4
ISO_A4_(297.00_x_210.00_MM)
  6

 40
0.0
 41
0.0
 42
0.0
 43
0.0
 44
297.0
 45
210.0
 46
0.0
 47
0.0
 48
0.0
 49
0.0
140
0.0
141
0.0
142
1.0
143
1.0
 70
1024
 72
1
 73
0
 74
0
  7

 75
0
147
1.0
148
0.0
149
0.0
100
AcDbLayout
  1
Model
 70
0
 71
0
 10
0.0
 20
0.0
 11
297.0
 21
210.0
 12
0.0
 22
0.0
 32
0.0
 14
0.0
 24
0.0
 34
0.0
 15
0.0
 25
0.0
 35
0.0
146
0.0
 13
0.0
 23
0.0
 33
0.0
 16
1.0
 26
0.0
 36
0.0
 17
0.0
 27
1.0
 37
0.0
 76
0
330
215
345
0
346
0
  0
LAYOUT
  5
577
102
{ACAD_REACTORS
330
1A
102
}
100
AcDbPlotSettings
  1

  2
none_device
  4
ISO_A4_(297.00_x_210.00_MM)
  6

 40
0.0
 41
0.0
 42
0.0
 43
0.0
 44
297.0
 45
210.0
 46
0.0
 47
0.0
 48
0.0
 49
0.0
140
0.0
141
0.0
142
1.0
143
1.0
 70
0
 72
1
 73
0
 74
0
  7

 75
0
147
1.0
148
0.0
149
0.0
100
AcDbLayout
  1
Layout1
 70
0
 71
1
 10
0.0
 20
0.0
 11
297.0
 21
210.0
 12
0.0
 22
0.0
 32
0.0
 14
0.0
 24
0.0
 34
0.0
 15
0.0
 25
0.0
 35
0.0
146
0.0
 13
0.0
 23
0.0
 33
0.0
 16
1.0
 26
0.0
 36
0.0
 17
0.0
 27
1.0
 37
0.0
 76
0
330
216
345
0
346
0
  0
TABLESTYLE
  5
578
102
{ACAD_REACTORS
330
575
330
268
102
}
330
575
100
AcDbTableStyle
  3
Standard
 70
0
 71
0
 40
0.06
 41
0.06
280
1
281
1
  7
Standard
140
0.18
170
1
 62
0
 63
7
283
0
  7
Standard
140
0.18
170
1
 62
0
 63
7
283
0
  7
Standard
140
0.18
170
1
 62
0
 63
7
283
0
  0
TABLESTYLE
  5
579
102
{ACAD_REACTORS
330
575
102
}
330
575
100
AcDbTableStyle
  3
Standard1
 70
1
 71
0
 40
0.06
 41
0.06
280
1
281
1
  7
Standard
140
0.18
170
1
 62
0
 63
7
283
0
  7
Standard
140
0.18
170
1
 62
0
 63
7
283
0
  7
Standard
140
0.18
170
1
 62
0
 63
7
283
0
  0
ENDSEC
  0
EOF
