999
DXF file: O:\ORAC_PRODUCTEN\ORAC_LIJN6\P-TYPE\P7010\p7010-prod-mm.dxf
999
Pro/ENGINEER 2018500 by Parametric Technology Corporation
  0
SECTION
  2
HEADER
  9
$ACADVER
  1
AC1024
  9
$DWGCODEPAGE
  3
ANSI_1250
  9
$EXTMAX
 10
297.0
 20
210.0
 30
0.0
  9
$EXTMIN
 10
0.0
 20
0.0
 30
0.0
  9
$LIMMIN
 10
0.0
 20
0.0
  9
$LIMMAX
 10
297.0
 20
210.0
  9
$VIEWCTR
 10
148.5
 20
105.0
  9
$VIEWSIZE
 40
210.0
  9
$CLAYER
  8
0
  9
$LTSCALE
 40
16.335
  9
$CELTYPE
  6
BYLAYER
  9
$DIMSCALE
 40
1.0
  9
$DIMASZ
 40
3.5
  9
$DIMEXO
 40
1.0
  9
$DIMDLI
 40
11.286
  9
$DIMEXE
 40
1.5
  9
$DIMCEN
 40
2.673
  9
$DIMLFAC
 40
1.0
  9
$DIMBLK
  1
_FILLED
  9
$DIMALT
 70
0
  9
$DIMALTF
 40
0.0393700787
  9
$DIMTXT
 40
2.5
  9
$DIMTOL
 70
1
  9
$DIMLIM
 70
0
  9
$DIMTFAC
 40
1.0
  9
$DIMTP
 40
0.001
  9
$DIMTM
 40
0.001
  9
$DIMGAP
 40
0.625
  9
$DIMDSEP
 70
44
  9
$AUNITS
 70
0
  9
$PDMODE
 70
3
  9
$PDSIZE
 40
8.0
  9
$HANDSEED
  5
2C6
  9
$TILEMODE
 70
1
  9
$MEASUREMENT
 70
1
  9
$INSUNITS
 70
4
  0
ENDSEC
  0
SECTION
  2
CLASSES
  0
CLASS
  1
ACDBDICTIONARYWDFLT
  2
AcDbDictionaryWithDefault
  3
AutoCAD 2000
 90
0
 91
1
280
0
281
0
  0
CLASS
  1
ACDBPLACEHOLDER
  2
AcDbPlaceHolder
  3
AutoCAD 2000
 90
0
 91
1
280
0
281
0
  0
CLASS
  1
LAYOUT
  2
AcDbLayout
  3
AutoCAD 2000
 90
0
 91
0
280
0
281
0
  0
CLASS
  1
TABLESTYLE
  2
AcDbTableStyle
  3
ObjectDBX Classes
 90
2047
 91
1
280
0
281
0
  0
CLASS
  1
ACAD_TABLE
  2
AcDbTable
  3
ObjectDBX Classes
 90
1025
 91
1
280
0
281
1
  0
ENDSEC
  0
SECTION
  2
TABLES
  0
TABLE
  2
VPORT
  5
8
100
AcDbSymbolTable
 70
2
  0
VPORT
  5
1F4
100
AcDbSymbolTableRecord
100
AcDbViewportTableRecord
  2
*ACTIVE
 70
0
 10
0.0
 20
0.0
 11
1.0
 21
1.0
 12
148.5
 22
105.0
 13
0.0
 23
0.0
 14
1.0
 24
1.0
 15
0.0
 25
0.0
 16
0.0
 26
0.0
 36
1.0
 17
0.0
 27
0.0
 37
0.0
 40
210.0
 41
1.4142857143
 42
50.0
 43
0.0
 44
0.0
 50
0.0
 51
0.0
 71
0
 72
100
 73
1
 74
1
 75
0
 76
0
 77
0
 78
0
  0
ENDTAB
  0
TABLE
  2
LTYPE
  5
5
100
AcDbSymbolTable
 70
6
  0
LTYPE
  5
14
100
AcDbSymbolTableRecord
100
AcDbLinetypeTableRecord
  2
BYBLOCK
 70
0
  3

 72
65
 73
0
 40
0.0
  0
LTYPE
  5
15
100
AcDbSymbolTableRecord
100
AcDbLinetypeTableRecord
  2
BYLAYER
 70
0
  3

 72
65
 73
0
 40
0.0
  0
LTYPE
  5
16
100
AcDbSymbolTableRecord
100
AcDbLinetypeTableRecord
  2
CONTINUOUS
 70
64
  3
Solid line
 72
65
 73
0
 40
0.0
  0
LTYPE
  5
1F5
100
AcDbSymbolTableRecord
100
AcDbLinetypeTableRecord
  2
CENTER
 70
64
  3
____ _ ____ _ ____ _ ____ _ ____ _ ____ _ ____
 72
65
 73
4
 40
0.6
 49
0.375
 74
0
 49
-0.075
 74
0
 49
0.075
 74
0
 49
-0.075
 74
0
  0
LTYPE
  5
1F6
100
AcDbSymbolTableRecord
100
AcDbLinetypeTableRecord
  2
HIDDEN
 70
64
  3
- - - - - - - - - - - - - - - - - - - -
 72
65
 73
2
 40
0.2
 49
0.1
 74
0
 49
-0.1
 74
0
  0
LTYPE
  5
1F7
100
AcDbSymbolTableRecord
100
AcDbLinetypeTableRecord
  2
PHANTOM
 70
64
  3
_____ _ _ _____ _ _ _____ _ _ _____
 72
65
 73
6
 40
0.8
 49
0.45
 74
0
 49
-0.05
 74
0
 49
0.1
 74
0
 49
-0.05
 74
0
 49
0.1
 74
0
 49
-0.05
 74
0
  0
LTYPE
  5
1F8
100
AcDbSymbolTableRecord
100
AcDbLinetypeTableRecord
  2
DOT
 70
64
  3
. . . . . . . . . . . . . . . . . . . .
 72
65
 73
2
 40
0.2
 49
0.1
 74
0
 49
-0.1
 74
0
  0
LTYPE
  5
1F9
100
AcDbSymbolTableRecord
100
AcDbLinetypeTableRecord
  2
DASHED
 70
64
  3
- - - - - - - - - - - - - - - - - - - -
 72
65
 73
2
 40
0.2
 49
0.1
 74
0
 49
-0.1
 74
0
  0
ENDTAB
  0
TABLE
  2
LAYER
  5
2
100
AcDbSymbolTable
 70
36
  0
LAYER
  5
10
100
AcDbSymbolTableRecord
100
AcDbLayerTableRecord
  2
0
 70
0
 62
7
  6
CONTINUOUS
370
-3
390
F
  0
LAYER
  5
1FA
100
AcDbSymbolTableRecord
100
AcDbLayerTableRecord
  2
DEFAULT_1
 70
0
 62
7
  6
CENTER
370
-3
390
F
  0
LAYER
  5
1FB
100
AcDbSymbolTableRecord
100
AcDbLayerTableRecord
  2
DEFAULT_2
 70
0
 62
8
  6
HIDDEN
370
-3
390
F
  0
LAYER
  5
1FC
100
AcDbSymbolTableRecord
100
AcDbLayerTableRecord
  2
DEFAULT_3
 70
0
 62
7
  6
PHANTOM
370
-3
390
F
  0
LAYER
  5
1FD
100
AcDbSymbolTableRecord
100
AcDbLayerTableRecord
  2
DTM_ALL
 70
0
 62
7
  6
CONTINUOUS
370
-3
390
F
  0
LAYER
  5
1FE
100
AcDbSymbolTableRecord
100
AcDbLayerTableRecord
  2
DTM_AXIS
 70
0
 62
7
  6
CONTINUOUS
370
-3
390
F
  0
LAYER
  5
1FF
100
AcDbSymbolTableRecord
100
AcDbLayerTableRecord
  2
DTM_CSYS
 70
0
 62
7
  6
CONTINUOUS
370
-3
390
F
  0
LAYER
  5
200
100
AcDbSymbolTableRecord
100
AcDbLayerTableRecord
  2
DTM_CURVE
 70
0
 62
7
  6
CONTINUOUS
370
-3
390
F
  0
LAYER
  5
201
100
AcDbSymbolTableRecord
100
AcDbLayerTableRecord
  2
DTM_MASTER
 70
0
 62
7
  6
CONTINUOUS
370
-3
390
F
  0
LAYER
  5
202
100
AcDbSymbolTableRecord
100
AcDbLayerTableRecord
  2
DTM_POINT
 70
0
 62
7
  6
CONTINUOUS
370
-3
390
F
  0
LAYER
  5
203
100
AcDbSymbolTableRecord
100
AcDbLayerTableRecord
  2
DTM_QUILT
 70
0
 62
7
  6
CONTINUOUS
370
-3
390
F
  0
LAYER
  5
204
100
AcDbSymbolTableRecord
100
AcDbLayerTableRecord
  2
GTOL
 70
0
 62
7
  6
CONTINUOUS
370
-3
390
F
  0
LAYER
  5
205
100
AcDbSymbolTableRecord
100
AcDbLayerTableRecord
  2
NOTES
 70
0
 62
7
  6
CONTINUOUS
370
-3
390
F
  0
ENDTAB
  0
TABLE
  2
STYLE
  5
3
100
AcDbSymbolTable
 70
1
  0
STYLE
  5
11
100
AcDbSymbolTableRecord
100
AcDbTextStyleTableRecord
  2
STANDARD
 70
0
 40
0.0
 41
1.0
 50
0.0
 71
0
 42
0.2
  3
cgtime.ttf
  4

  0
STYLE
  5
206
100
AcDbSymbolTableRecord
100
AcDbTextStyleTableRecord
  2
TEXTSTYLE_1
 70
0
 40
0.0
 41
0.8
 50
0.0
 71
0
 42
0.2
  3
gdt
  4

  0
STYLE
  5
207
100
AcDbSymbolTableRecord
100
AcDbTextStyleTableRecord
  2
TEXTSTYLE_2
 70
0
 40
0.0
 41
1.0
 50
0.0
 71
0
 42
0.2
  3
trium.ttf
  4

  0
STYLE
  5
208
100
AcDbSymbolTableRecord
100
AcDbTextStyleTableRecord
  2
TEXTSTYLE_3
 70
0
 40
0.0
 41
1.0
 50
0.0
 71
0
 42
0.2
  3
calibri.ttf
  4

  0
ENDTAB
  0
TABLE
  2
VIEW
  5
6
100
AcDbSymbolTable
 70
0
  0
ENDTAB
  0
TABLE
  2
UCS
  5
7
100
AcDbSymbolTable
 70
0
  0
ENDTAB
  0
TABLE
  2
APPID
  5
9
100
AcDbSymbolTable
 70
1
  0
APPID
  5
209
100
AcDbSymbolTableRecord
100
AcDbRegAppTableRecord
  2
ACAD
 70
0
  0
ENDTAB
  0
TABLE
  2
BLOCK_RECORD
  5
1
100
AcDbSymbolTable
 70
0
  0
BLOCK_RECORD
  5
20A
100
AcDbSymbolTableRecord
100
AcDbBlockTableRecord
  2
*Model_Space
  0
BLOCK_RECORD
  5
20B
100
AcDbSymbolTableRecord
100
AcDbBlockTableRecord
  2
*Paper_Space
  0
BLOCK_RECORD
  5
20C
100
AcDbSymbolTableRecord
100
AcDbBlockTableRecord
  2
_FILLED
  0
BLOCK_RECORD
  5
20D
100
AcDbSymbolTableRecord
100
AcDbBlockTableRecord
  2
*D0
  0
BLOCK_RECORD
  5
20E
100
AcDbSymbolTableRecord
100
AcDbBlockTableRecord
  2
*D1
  0
BLOCK_RECORD
  5
20F
100
AcDbSymbolTableRecord
100
AcDbBlockTableRecord
  2
*D2
  0
BLOCK_RECORD
  5
210
100
AcDbSymbolTableRecord
100
AcDbBlockTableRecord
  2
*D3
  0
BLOCK_RECORD
  5
211
100
AcDbSymbolTableRecord
100
AcDbBlockTableRecord
  2
*D4
  0
BLOCK_RECORD
  5
212
100
AcDbSymbolTableRecord
100
AcDbBlockTableRecord
  2
*T1
  0
ENDTAB
  0
TABLE
  2
DIMSTYLE
  5
A
100
AcDbSymbolTable
 70
1
100
AcDbDimStyleTable
 71
0
  0
DIMSTYLE
105
213
100
AcDbSymbolTableRecord
100
AcDbDimStyleTableRecord
  2
STANDARD
 70
0
  3

  4

 40
1.0
 41
3.5
 42
1.0
 43
0.38
 44
1.5
 45
0.0
 46
0.0
 47
0.001
 48
0.001
140
2.5
141
0.09
142
0.0
143
25.4
144
1.0
145
0.0
146
1.0
147
0.625
 71
1.0
 72
0.0
 73
1
 74
1
 75
0
 76
0
 77
0
 78
8
 79
2
170
0
171
2
172
0
173
0
174
0
175
0
176
0
177
0
178
0
270
2
179
3
271
3
272
3
273
2
274
2
275
0
280
0
281
0
282
0
283
1
284
8
285
0
286
0
287
3
288
0
340
11
278
44
341
20C
342
20C
343
20C
344
20C
  0
DIMSTYLE
105
214
100
AcDbSymbolTableRecord
100
AcDbDimStyleTableRecord
  2
DIMSTYLE_1
 70
0
  3

  4

 40
1.0
 41
3.5
 42
1.0
 43
0.38
 44
1.5
 45
0.0
 46
0.0
 47
0.0
 48
0.0
140
2.5
141
0.09
142
0.0
143
25.4
144
1.0
145
0.0
146
1.0
147
1.25
 71
0.0
 72
0.0
 73
1
 74
1
 75
0
 76
0
 77
0
 78
8
 79
2
170
0
171
2
172
0
173
0
174
0
175
0
176
0
177
0
178
0
270
2
179
3
271
3
272
3
273
2
274
2
275
0
280
0
281
0
282
0
283
1
284
8
285
0
286
0
287
3
288
0
340
11
278
44
341
20C
342
20C
343
20C
344
20C
  0
DIMSTYLE
105
215
100
AcDbSymbolTableRecord
100
AcDbDimStyleTableRecord
  2
DIMSTYLE_2
 70
0
  3

  4

 40
1.0
 41
3.5
 42
1.0
 43
0.38
 44
1.5
 45
0.0
 46
0.0
 47
0.0
 48
0.0
140
2.5
141
0.09
142
0.0
143
25.4
144
1.0
145
0.0
146
1.0
147
1.25
 71
0.0
 72
0.0
 73
1
 74
1
 75
0
 76
0
 77
0
 78
8
 79
2
170
0
171
2
172
0
173
0
174
0
175
0
176
0
177
0
178
0
270
2
179
3
271
1
272
1
273
2
274
2
275
0
280
0
281
0
282
0
283
1
284
8
285
0
286
0
287
3
288
0
340
11
278
44
341
20C
342
20C
343
20C
344
20C
  0
ENDTAB
  0
ENDSEC
  0
SECTION
  2
BLOCKS
  0
BLOCK
  5
20
100
AcDbEntity
  8
0
100
AcDbBlockBegin
  2
*Model_Space
 70
0
 10
0.0
 20
0.0
 30
0.0
  3
*Model_Space
  1

  0
ENDBLK
  5
21
100
AcDbEntity
  8
0
100
AcDbBlockEnd
  0
BLOCK
  5
1C
100
AcDbEntity
  8
0
100
AcDbBlockBegin
  2
*Paper_Space
 70
0
 10
0.0
 20
0.0
 30
0.0
  3
*Paper_Space
  1

  0
ENDBLK
  5
1D
100
AcDbEntity
  8
0
100
AcDbBlockEnd
  0
BLOCK
  5
216
100
AcDbEntity
  8
0
100
AcDbBlockBegin
  2
_FILLED
 70
64
 10
0.0
 20
0.0
  3
_FILLED
  1

  0
SOLID
  5
217
100
AcDbEntity
  8
0
  6
BYBLOCK
 62
0
100
AcDbTrace
 10
0.0
 20
0.0
 11
-1.0
 21
0.2142857143
 12
-1.0
 22
-0.2142857143
 13
-1.0
 23
-0.2142857143
  0
ENDBLK
  5
218
100
AcDbEntity
  8
0
  6
BYBLOCK
 62
0
100
AcDbBlockEnd
  0
BLOCK
  5
219
100
AcDbEntity
  8
0
100
AcDbBlockBegin
 62
2
  6
CONTINUOUS
  2
*D0
 70
65
 10
0.0
 20
0.0
  3
*D0
  1

  0
TEXT
  5
21A
100
AcDbEntity
  8
0
100
AcDbText
 62
2
  6
CONTINUOUS
 10
37.0867711909
 20
104.9628862192
  7
STANDARD
 40
2.5
  1
105
 72
5
 11
42.5439696345
 21
104.9628862192
100
AcDbText
  0
TEXT
  5
21B
100
AcDbEntity
  8
0
100
AcDbText
 62
2
  6
CONTINUOUS
 10
42.5439696345
 20
104.9628862192
  7
STANDARD
 40
2.5
  1
mm
 72
5
 11
48.2151758602
 21
104.9628862192
100
AcDbText
  0
TEXT
  5
21C
100
AcDbEntity
  8
0
100
AcDbText
 62
2
  6
CONTINUOUS
 10
37.8649813077
 20
101.2128862192
  7
STANDARD
 40
2.5
  1
4-1/8"
 72
5
 11
47.4369657435
 21
101.2128862192
100
AcDbText
  0
LINE
  5
21D
100
AcDbEntity
  8
0
100
AcDbLine
 62
2
  6
CONTINUOUS
 10
73.0184272716
 20
158.7128862192
 11
41.1509735256
 21
158.7128862192
  0
LINE
  5
21E
100
AcDbEntity
  8
0
100
AcDbLine
 62
2
  6
CONTINUOUS
 10
73.0184272716
 20
53.7128862192
 11
41.1509735256
 21
53.7128862192
  0
LINE
  5
21F
100
AcDbEntity
  8
0
100
AcDbLine
 62
2
  6
CONTINUOUS
 10
42.6509735256
 20
158.7128862192
 11
42.6509735256
 21
108.7128862192
  0
LINE
  5
220
100
AcDbEntity
  8
0
100
AcDbLine
 62
2
  6
CONTINUOUS
 10
42.6509735256
 20
53.7128862192
 11
42.6509735256
 21
99.9628862192
  0
INSERT
  5
221
100
AcDbEntity
  8
0
100
AcDbBlockReference
 62
2
  6
CONTINUOUS
  2
_FILLED
 10
42.6509735256
 20
158.7128862192
 41
3.5
 42
3.5
 43
3.5
 50
90.0
  0
INSERT
  5
222
100
AcDbEntity
  8
0
100
AcDbBlockReference
 62
2
  6
CONTINUOUS
  2
_FILLED
 10
42.6509735256
 20
53.7128862192
 41
3.5
 42
3.5
 43
3.5
 50
270.0
  0
ENDBLK
  5
223
100
AcDbEntity
  8
0
  6
BYBLOCK
 62
0
100
AcDbBlockEnd
  0
BLOCK
  5
224
100
AcDbEntity
  8
0
100
AcDbBlockBegin
 62
2
  6
CONTINUOUS
  2
*D1
 70
65
 10
0.0
 20
0.0
  3
*D1
  1

  0
TEXT
  5
225
100
AcDbEntity
  8
0
100
AcDbText
 62
2
  6
CONTINUOUS
 10
74.702654198
 20
166.8473412303
  7
STANDARD
 40
2.5
  1
13,7
 72
5
 11
81.375805949
 21
166.8473412303
100
AcDbText
  0
TEXT
  5
226
100
AcDbEntity
  8
0
100
AcDbText
 62
2
  6
CONTINUOUS
 10
81.375805949
 20
166.8473412303
  7
STANDARD
 40
2.5
  1
mm
 72
5
 11
87.0470121747
 21
166.8473412303
100
AcDbText
  0
TEXT
  5
227
100
AcDbEntity
  8
0
100
AcDbText
 62
2
  6
CONTINUOUS
 10
77.6063506961
 20
163.0973412303
  7
STANDARD
 40
2.5
  1
1/2"
 72
5
 11
84.1433156766
 21
163.0973412303
100
AcDbText
  0
LINE
  5
228
100
AcDbEntity
  8
0
100
AcDbLine
 62
2
  6
CONTINUOUS
 10
74.0184272716
 20
159.7128862192
 11
74.0184272716
 21
169.5973412303
  0
LINE
  5
229
100
AcDbEntity
  8
0
100
AcDbLine
 62
2
  6
CONTINUOUS
 10
87.7312391011
 20
147.9583922431
 11
87.7312391011
 21
169.5973412303
  0
LINE
  5
22A
100
AcDbEntity
  8
0
100
AcDbLine
 62
2
  6
CONTINUOUS
 10
74.0184272716
 20
168.0973412303
 11
69.0184272716
 21
168.0973412303
  0
LINE
  5
22B
100
AcDbEntity
  8
0
100
AcDbLine
 62
2
  6
CONTINUOUS
 10
87.7312391011
 20
168.0973412303
 11
92.7312391011
 21
168.0973412303
  0
INSERT
  5
22C
100
AcDbEntity
  8
0
100
AcDbBlockReference
 62
2
  6
CONTINUOUS
  2
_FILLED
 10
74.0184272716
 20
168.0973412303
 41
3.5
 42
3.5
 43
3.5
  0
INSERT
  5
22D
100
AcDbEntity
  8
0
100
AcDbBlockReference
 62
2
  6
CONTINUOUS
  2
_FILLED
 10
87.7312391011
 20
168.0973412303
 41
3.5
 42
3.5
 43
3.5
 50
180.0
  0
ENDBLK
  5
22E
100
AcDbEntity
  8
0
  6
BYBLOCK
 62
0
100
AcDbBlockEnd
  0
BLOCK
  5
22F
100
AcDbEntity
  8
0
100
AcDbBlockBegin
 62
2
  6
CONTINUOUS
  2
*D2
 70
65
 10
0.0
 20
0.0
  3
*D2
  1

  0
TEXT
  5
230
100
AcDbEntity
  8
0
100
AcDbText
 62
2
  6
CONTINUOUS
 10
60.676850477
 20
132.1512201959
  7
STANDARD
 40
2.5
  1
4
 72
5
 11
62.4959166249
 21
132.1512201959
100
AcDbText
  0
TEXT
  5
231
100
AcDbEntity
  8
0
100
AcDbText
 62
2
  6
CONTINUOUS
 10
62.4959166249
 20
132.1512201959
  7
STANDARD
 40
2.5
  1
mm
 72
5
 11
68.1671228506
 21
132.1512201959
100
AcDbText
  0
TEXT
  5
232
100
AcDbEntity
  8
0
100
AcDbText
 62
2
  6
CONTINUOUS
 10
61.63015787
 20
128.4012201959
  7
STANDARD
 40
2.5
  1
1/8"
 72
5
 11
68.1671228506
 21
128.4012201959
100
AcDbText
  0
LINE
  5
233
100
AcDbEntity
  8
0
100
AcDbLine
 62
2
  6
CONTINUOUS
 10
74.0184272716
 20
142.7128862192
 11
74.0184272716
 21
131.9012201959
  0
LINE
  5
234
100
AcDbEntity
  8
0
100
AcDbLine
 62
2
  6
CONTINUOUS
 10
78.0184272716
 20
133.4012201959
 11
83.0184272716
 21
133.4012201959
  0
LINE
  5
235
100
AcDbEntity
  8
0
100
AcDbLine
 62
2
  6
CONTINUOUS
 10
74.0184272716
 20
133.4012201959
 11
69.4171228506
 21
133.4012201959
  0
INSERT
  5
236
100
AcDbEntity
  8
0
100
AcDbBlockReference
 62
2
  6
CONTINUOUS
  2
_FILLED
 10
78.0184272716
 20
133.4012201959
 41
3.5
 42
3.5
 43
3.5
 50
180.0
  0
INSERT
  5
237
100
AcDbEntity
  8
0
100
AcDbBlockReference
 62
2
  6
CONTINUOUS
  2
_FILLED
 10
74.0184272716
 20
133.4012201959
 41
3.5
 42
3.5
 43
3.5
  0
ENDBLK
  5
238
100
AcDbEntity
  8
0
  6
BYBLOCK
 62
0
100
AcDbBlockEnd
  0
BLOCK
  5
239
100
AcDbEntity
  8
0
100
AcDbBlockBegin
 62
2
  6
CONTINUOUS
  2
*D3
 70
65
 10
0.0
 20
0.0
  3
*D3
  1

  0
TEXT
  5
23A
100
AcDbEntity
  8
0
100
AcDbText
 62
2
  6
CONTINUOUS
 10
52.3645749074
 20
104.9628862192
  7
STANDARD
 40
2.5
  1
75
 72
5
 11
56.0027072031
 21
104.9628862192
100
AcDbText
  0
TEXT
  5
23B
100
AcDbEntity
  8
0
100
AcDbText
 62
2
  6
CONTINUOUS
 10
56.0027072031
 20
104.9628862192
  7
STANDARD
 40
2.5
  1
mm
 72
5
 11
61.6739134288
 21
104.9628862192
100
AcDbText
  0
TEXT
  5
23C
100
AcDbEntity
  8
0
100
AcDbText
 62
2
  6
CONTINUOUS
 10
55.2682714055
 20
101.2128862192
  7
STANDARD
 40
2.5
  1
3"
 72
5
 11
58.7702169308
 21
101.2128862192
100
AcDbText
  0
LINE
  5
23D
100
AcDbEntity
  8
0
100
AcDbLine
 62
2
  6
CONTINUOUS
 10
73.0184272716
 20
143.7128862192
 11
55.5192441681
 21
143.7128862192
  0
LINE
  5
23E
100
AcDbEntity
  8
0
100
AcDbLine
 62
2
  6
CONTINUOUS
 10
73.0184272716
 20
68.7128862192
 11
55.5192441681
 21
68.7128862192
  0
LINE
  5
23F
100
AcDbEntity
  8
0
100
AcDbLine
 62
2
  6
CONTINUOUS
 10
57.0192441681
 20
143.7128862192
 11
57.0192441681
 21
108.7128862192
  0
LINE
  5
240
100
AcDbEntity
  8
0
100
AcDbLine
 62
2
  6
CONTINUOUS
 10
57.0192441681
 20
68.7128862192
 11
57.0192441681
 21
99.9628862192
  0
INSERT
  5
241
100
AcDbEntity
  8
0
100
AcDbBlockReference
 62
2
  6
CONTINUOUS
  2
_FILLED
 10
57.0192441681
 20
143.7128862192
 41
3.5
 42
3.5
 43
3.5
 50
90.0
  0
INSERT
  5
242
100
AcDbEntity
  8
0
100
AcDbBlockReference
 62
2
  6
CONTINUOUS
  2
_FILLED
 10
57.0192441681
 20
68.7128862192
 41
3.5
 42
3.5
 43
3.5
 50
270.0
  0
ENDBLK
  5
243
100
AcDbEntity
  8
0
  6
BYBLOCK
 62
0
100
AcDbBlockEnd
  0
BLOCK
  5
244
100
AcDbEntity
  8
0
100
AcDbBlockBegin
 62
2
  6
CONTINUOUS
  2
*D4
 70
65
 10
0.0
 20
0.0
  3
*D4
  1

  0
TEXT
  5
245
100
AcDbEntity
  8
0
100
AcDbText
 62
2
  6
CONTINUOUS
 10
54.5880196534
 20
44.5650892279
  7
STANDARD
 40
2.5
  1
6,5
 72
5
 11
59.4421052565
 21
44.5650892279
100
AcDbText
  0
TEXT
  5
246
100
AcDbEntity
  8
0
100
AcDbText
 62
2
  6
CONTINUOUS
 10
59.4421052565
 20
44.5650892279
  7
STANDARD
 40
2.5
  1
mm
 72
5
 11
65.1133114822
 21
44.5650892279
100
AcDbText
  0
TEXT
  5
247
100
AcDbEntity
  8
0
100
AcDbText
 62
2
  6
CONTINUOUS
 10
58.5763465016
 20
40.8150892279
  7
STANDARD
 40
2.5
  1
1/4"
 72
5
 11
65.1133114822
 21
40.8150892279
100
AcDbText
  0
LINE
  5
248
100
AcDbEntity
  8
0
100
AcDbLine
 62
2
  6
CONTINUOUS
 10
74.0184272716
 20
52.7128862192
 11
74.0184272716
 21
44.3150892279
  0
LINE
  5
249
100
AcDbEntity
  8
0
100
AcDbLine
 62
2
  6
CONTINUOUS
 10
80.5184272716
 20
52.8830947094
 11
80.5184272716
 21
44.3150892279
  0
LINE
  5
24A
100
AcDbEntity
  8
0
100
AcDbLine
 62
2
  6
CONTINUOUS
 10
74.0184272716
 20
45.8150892279
 11
66.3633114822
 21
45.8150892279
  0
LINE
  5
24B
100
AcDbEntity
  8
0
100
AcDbLine
 62
2
  6
CONTINUOUS
 10
80.5184272716
 20
45.8150892279
 11
85.5184272716
 21
45.8150892279
  0
INSERT
  5
24C
100
AcDbEntity
  8
0
100
AcDbBlockReference
 62
2
  6
CONTINUOUS
  2
_FILLED
 10
74.0184272716
 20
45.8150892279
 41
3.5
 42
3.5
 43
3.5
  0
INSERT
  5
24D
100
AcDbEntity
  8
0
100
AcDbBlockReference
 62
2
  6
CONTINUOUS
  2
_FILLED
 10
80.5184272716
 20
45.8150892279
 41
3.5
 42
3.5
 43
3.5
 50
180.0
  0
ENDBLK
  5
24E
100
AcDbEntity
  8
0
  6
BYBLOCK
 62
0
100
AcDbBlockEnd
  0
BLOCK
  5
24F
100
AcDbEntity
  8
0
100
AcDbBlockBegin
  2
*T1
 70
1
 10
0.0
 20
0.0
  3
*T1
  1

  0
LINE
  5
250
100
AcDbEntity
  8
0
100
AcDbLine
 62
7
  6
CONTINUOUS
 10
0.0
 20
0.0
 11
148.0
 21
0.0
  0
LINE
  5
251
100
AcDbEntity
  8
0
100
AcDbLine
 62
7
  6
CONTINUOUS
 10
0.0
 20
0.0
 11
0.0
 21
-43.0
  0
LINE
  5
252
100
AcDbEntity
  8
0
100
AcDbLine
 62
7
  6
CONTINUOUS
 10
45.0
 20
-20.0
 11
148.0
 21
-20.0
  0
LINE
  5
253
100
AcDbEntity
  8
0
100
AcDbLine
 62
7
  6
CONTINUOUS
 10
45.0
 20
-28.0
 11
148.0
 21
-28.0
  0
LINE
  5
254
100
AcDbEntity
  8
0
100
AcDbLine
 62
7
  6
CONTINUOUS
 10
0.0
 20
-43.0
 11
148.0
 21
-43.0
  0
LINE
  5
255
100
AcDbEntity
  8
0
100
AcDbLine
 62
7
  6
CONTINUOUS
 10
45.0
 20
0.0
 11
45.0
 21
-43.0
  0
LINE
  5
256
100
AcDbEntity
  8
0
100
AcDbLine
 62
7
  6
CONTINUOUS
 10
143.0
 20
0.0
 11
143.0
 21
-20.0
  0
LINE
  5
257
100
AcDbEntity
  8
0
100
AcDbLine
 62
7
  6
CONTINUOUS
 10
148.0
 20
0.0
 11
148.0
 21
-43.0
  0
TEXT
  5
258
100
AcDbEntity
  8
0
100
AcDbText
 62
7
  6
CONTINUOUS
 10
8.9659749243
 20
-9.175
  7
STANDARD
 40
8.0
  1
O
 72
5
 11
17.370644185
 21
-9.175
100
AcDbText
  0
TEXT
  5
259
100
AcDbEntity
  8
0
100
AcDbText
 62
7
  6
CONTINUOUS
 10
17.370644185
 20
-9.175
  7
STANDARD
 40
5.5
  1
RAC
 72
5
 11
33.9562472979
 21
-9.175
100
AcDbText
  0
TEXT
  5
25A
100
AcDbEntity
  8
0
100
AcDbText
 62
7
  6
CONTINUOUS
 10
33.9562472979
 20
-4.425
  7
TEXTSTYLE_2
 40
3.0
  1
®
 72
5
 11
36.0340250757
 21
-4.425
100
AcDbText
  0
TEXT
  5
25B
100
AcDbEntity
  8
0
100
AcDbText
 62
7
  6
CONTINUOUS
 10
9.5323389537
 20
-13.825
  7
TEXTSTYLE_2
 40
3.0
  1
D  E  C  O  R
 72
5
 11
34.3878945093
 21
-13.825
100
AcDbText
  0
TEXT
  5
25C
100
AcDbEntity
  8
0
100
AcDbText
 62
7
  6
CONTINUOUS
 10
34.3878945093
 20
-13.825
  7
STANDARD
 40
2.5
  1
 
 72
5
 11
35.4676610463
 21
-13.825
100
AcDbText
  0
TEXT
  5
25D
100
AcDbEntity
  8
0
100
AcDbText
 62
7
  6
CONTINUOUS
 10
52.8786764706
 20
-4.6
  7
TEXTSTYLE_3
 40
2.7
  1
Part name:
 72
5
 11
71.9375
 21
-4.6
100
AcDbText
  0
TEXT
  5
25E
100
AcDbEntity
  8
0
100
AcDbText
 62
7
  6
CONTINUOUS
 10
49.6908613445
 20
-11.35
  7
TEXTSTYLE_3
 40
2.7
  1
Designed by:
 72
5
 11
71.9375
 21
-11.35
100
AcDbText
  0
TEXT
  5
25F
100
AcDbEntity
  8
0
100
AcDbText
 62
7
  6
CONTINUOUS
 10
49.3732142857
 20
-18.1
  7
TEXTSTYLE_3
 40
2.7
  1
Designed on:
 72
5
 11
71.9375
 21
-18.1
100
AcDbText
  0
TEXT
  5
260
100
AcDbEntity
  8
0
100
AcDbText
 62
2
  6
CONTINUOUS
 10
74.0625
 20
-4.6
  7
TEXTSTYLE_3
 40
2.7
  1
P7010
 72
5
 11
84.8851890756
 21
-4.6
100
AcDbText
  0
TEXT
  5
261
100
AcDbEntity
  8
0
100
AcDbText
 62
2
  6
CONTINUOUS
 10
74.0625
 20
-11.35
  7
TEXTSTYLE_3
 40
2.7
  1
ORAC
 72
5
 11
83.9209033613
 21
-11.35
100
AcDbText
  0
TEXT
  5
262
100
AcDbEntity
  8
0
100
AcDbText
 62
2
  6
CONTINUOUS
 10
74.0625
 20
-18.1
  7
TEXTSTYLE_3
 40
2.7
  1
13-Aug-2018
 72
5
 11
96.3091386555
 21
-18.1
100
AcDbText
  0
TEXT
  5
263
100
AcDbEntity
  8
0
100
AcDbText
 62
2
  6
CONTINUOUS
 10
96.3091386555
 20
-18.1
  7
TEXTSTYLE_3
 40
2.7
  1
 
 72
5
 11
97.2734243697
 21
-18.1
100
AcDbText
  0
TEXT
  5
264
100
AcDbEntity
  8
0
100
AcDbText
 62
2
  6
CONTINUOUS
 10
146.5625
 20
-16.0
  7
TEXTSTYLE_3
 40
1.5
  1
Version: 
 50
90.0
 72
5
 11
146.5625
 21
-7.5294117647
100
AcDbText
  0
TEXT
  5
265
100
AcDbEntity
  8
0
100
AcDbText
 62
2
  6
CONTINUOUS
 10
146.5625
 20
-7.5294117647
  7
TEXTSTYLE_3
 40
1.5
  1
1.0
 50
90.0
 72
5
 11
146.5625
 21
-4.5357142857
100
AcDbText
  0
TEXT
  5
266
100
AcDbEntity
  8
0
100
AcDbText
 62
2
  6
CONTINUOUS
 10
146.5625
 20
-4.5357142857
  7
TEXTSTYLE_3
 40
1.5
  1
 
 50
90.0
 72
5
 11
146.5625
 21
-4.0
100
AcDbText
  0
TEXT
  5
267
100
AcDbEntity
  8
0
100
AcDbText
 62
7
  6
CONTINUOUS
 10
9.6586134454
 20
-22.75
  7
TEXTSTYLE_3
 40
2.5
  1
Biekorfstraat 32
 72
5
 11
35.3413865546
 21
-22.75
100
AcDbText
  0
TEXT
  5
268
100
AcDbEntity
  8
0
100
AcDbText
 62
7
  6
CONTINUOUS
 10
2.2584033613
 20
-26.5
  7
TEXTSTYLE_3
 40
2.5
  1
8400 Oostende - Belgium
 72
5
 11
42.7415966387
 21
-26.5
100
AcDbText
  0
TEXT
  5
269
100
AcDbEntity
  8
0
100
AcDbText
 62
7
  6
CONTINUOUS
 10
4.2699579832
 20
-30.25
  7
TEXTSTYLE_3
 40
2.5
  1
Tel  +32 (0)59 80 32 52
 72
5
 11
40.7300420168
 21
-30.25
100
AcDbText
  0
TEXT
  5
26A
100
AcDbEntity
  8
0
100
AcDbText
 62
7
  6
CONTINUOUS
 10
5.7405462185
 20
-34.0
  7
TEXTSTYLE_3
 40
2.5
  1
www.oracdecor.com
 72
5
 11
39.2594537815
 21
-34.0
100
AcDbText
  0
TEXT
  5
26B
100
AcDbEntity
  8
0
100
AcDbText
 62
7
  6
CONTINUOUS
 10
5.5777310924
 20
-37.75
  7
TEXTSTYLE_3
 40
2.5
  1
info@oracdecor.com
 72
5
 11
39.4222689076
 21
-37.75
100
AcDbText
  0
TEXT
  5
26C
100
AcDbEntity
  8
0
100
AcDbText
 62
7
  6
CONTINUOUS
 10
46.0625
 20
-23.375
  7
TEXTSTYLE_3
 40
2.5
  1
Unless otherwise specified: all dimensions are in millimeters 
 72
5
 11
143.4259453782
 21
-23.375
100
AcDbText
  0
TEXT
  5
26D
100
AcDbEntity
  8
0
100
AcDbText
 62
7
  6
CONTINUOUS
 10
46.0625
 20
-27.125
  7
TEXTSTYLE_3
 40
2.5
  1
and inches, scale 1:1, length 2 meters
 72
5
 11
106.1675420168
 21
-27.125
100
AcDbText
  0
TEXT
  5
26E
100
AcDbEntity
  8
0
100
AcDbText
 62
7
  6
CONTINUOUS
 10
46.0625
 20
-31.81
  7
TEXTSTYLE_3
 40
1.8
  1
All information in this document is Orac's exclusive property.  It may in no case 
 72
5
 11
137.5070378151
 21
-31.81
100
AcDbText
  0
TEXT
  5
26F
100
AcDbEntity
  8
0
100
AcDbText
 62
7
  6
CONTINUOUS
 10
46.0625
 20
-34.87
  7
TEXTSTYLE_3
 40
1.8
  1
be reproduced, even partly, be communicated to a third party or used for any 
 72
5
 11
136.3272058824
 21
-34.87
100
AcDbText
  0
TEXT
  5
270
100
AcDbEntity
  8
0
100
AcDbText
 62
7
  6
CONTINUOUS
 10
46.0625
 20
-37.93
  7
TEXTSTYLE_3
 40
1.8
  1
possible purpose without ORAC's express written permission. Further legal 
 72
5
 11
132.7952731092
 21
-37.93
100
AcDbText
  0
TEXT
  5
271
100
AcDbEntity
  8
0
100
AcDbText
 62
7
  6
CONTINUOUS
 10
46.0625
 20
-40.99
  7
TEXTSTYLE_3
 40
1.8
  1
information can be found at https://www.oracdecor.com/en/general-sales-conditions
 72
5
 11
145.349894958
 21
-40.99
100
AcDbText
  0
ENDBLK
  5
272
100
AcDbEntity
  8
0
  6
BYBLOCK
 62
0
100
AcDbBlockEnd
  0
ENDSEC
  0
SECTION
  2
ENTITIES
  0
DIMENSION
  5
273
100
AcDbEntity
  8
0
100
AcDbDimension
 62
2
  6
CONTINUOUS
  2
*D0
 10
42.6509735256
 20
53.7128862192
 11
42.6509735256
 21
104.3378862192
 70
160
 71
2
 72
2
 41
0.9
 42
105.0
  1
<>mm\P4-1/8"
  3
DIMSTYLE_1
100
AcDbAlignedDimension
 13
74.0184272716
 23
158.7128862192
 14
74.0184272716
 24
53.7128862192
 50
270.0
100
AcDbRotatedDimension
  0
DIMENSION
  5
274
100
AcDbEntity
  8
0
100
AcDbDimension
 62
2
  6
CONTINUOUS
  2
*D1
 10
87.7312391011
 20
168.0973412303
 11
80.8748331864
 21
166.2223412303
 70
160
 71
2
 72
2
 41
0.9
 42
13.7128118295
  1
<>mm\P1/2"
  3
DIMSTYLE_2
100
AcDbAlignedDimension
 13
74.0184272716
 23
158.7128862192
 14
87.7312391011
 24
146.9583922431
100
AcDbRotatedDimension
  0
DIMENSION
  5
275
100
AcDbEntity
  8
0
100
AcDbDimension
 62
2
  6
CONTINUOUS
  2
*D2
 10
74.0184272716
 20
133.4012201959
 11
64.4219866638
 21
131.5262201959
 70
160
 71
3
 72
2
 41
0.9
 42
4.0
  1
<>mm\P1/8"
  3
DIMSTYLE_1
100
AcDbAlignedDimension
 13
78.0184272716
 23
140.3391084855
 14
74.0184272716
 24
143.7128862192
 50
180.0
100
AcDbRotatedDimension
  0
DIMENSION
  5
276
100
AcDbEntity
  8
0
100
AcDbDimension
 62
2
  6
CONTINUOUS
  2
*D3
 10
57.0192441681
 20
68.7128862192
 11
57.0192441681
 21
104.3378862192
 70
160
 71
2
 72
2
 41
0.9
 42
75.0
  1
<>mm\P3"
  3
DIMSTYLE_1
100
AcDbAlignedDimension
 13
74.0184272716
 23
143.7128862192
 14
74.0184272716
 24
68.7128862192
 50
270.0
100
AcDbRotatedDimension
  0
DIMENSION
  5
277
100
AcDbEntity
  8
0
100
AcDbDimension
 62
2
  6
CONTINUOUS
  2
*D4
 10
80.5184272716
 20
45.8150892279
 11
59.8506655678
 21
43.9400892279
 70
160
 71
3
 72
2
 41
0.9
 42
6.5
  1
<>mm\P1/4"
  3
DIMSTYLE_1
100
AcDbAlignedDimension
 13
74.0184272716
 23
53.7128862192
 14
80.5184272716
 24
53.8830947094
100
AcDbRotatedDimension
  0
ACAD_TABLE
  5
278
100
AcDbEntity
  8
0
 62
2
  6
CONTINUOUS
100
AcDbBlockReference
  2
*T1
 10
144.0
 20
48.0
 30
0.0
100
AcDbTable
342
       2C4
343
212
 11
1.0
 21
0.0
 31
0.0
 90
22
 91
4
 92
4
 93
0
 94
0
 95
0
 96
0
141
15.0
141
5.0
141
8.0
141
15.0
142
45.0
142
28.0
142
70.0
142
5.0
171
1
172
0
173
0
174
0
175
1
176
1
 91
41
178
0
145
0.0
301
CELL_VALUE
 90
4
  1
\A1;O\H5.5;RAC\fCG Triumvirate;\H3.0;\S®^ ;\PD  E  C  O  R\fCG Times;\H2.5; 
304
ACVALUE_END
170
5
140
8.0
 64
7
171
1
172
0
173
0
174
0
175
1
176
2
 91
57
178
0
145
0.0
  7
TEXTSTYLE_3
301
CELL_VALUE
 90
4
  1
Part name:\PDesigned by:\PDesigned on:
304
ACVALUE_END
170
6
140
2.7
 64
7
171
1
172
0
173
0
174
0
175
1
176
2
 91
49
178
0
145
0.0
  7
TEXTSTYLE_3
301
CELL_VALUE
 90
4
  1
P7010\PORAC\P13-Aug-2018 
304
ACVALUE_END
170
4
140
2.7
171
1
172
0
173
0
174
0
175
1
176
2
 91
49
178
0
145
0.0
  7
TEXTSTYLE_3
301
CELL_VALUE
 90
4
  1
Version: 1.0 
304
ACVALUE_END
170
6
140
1.5
171
1
172
0
173
0
174
0
175
1
176
3
 91
57
178
0
145
0.0
  7
TEXTSTYLE_3
301
CELL_VALUE
 90
4
  1
Biekorfstraat 32\P8400 Oostende - Belgium\PTel  +32 (0)59 80 32 52\Pwww.oracdecor.com\Pinfo@oracdecor.com
304
ACVALUE_END
170
5
140
2.5
 64
7
171
1
172
0
173
1
174
0
175
1
176
1
 91
1
178
0
145
0.0
170
1
171
1
172
0
173
1
174
0
175
1
176
1
 91
1
178
0
145
0.0
170
1
171
1
172
0
173
1
174
0
175
1
176
1
 91
1
178
0
145
0.0
170
1
171
1
172
0
173
1
174
0
175
1
176
1
 91
1
178
0
145
0.0
170
1
171
1
172
0
173
0
174
0
175
3
176
1
 91
57
178
0
145
0.0
  7
TEXTSTYLE_3
301
CELL_VALUE
 90
4
  1
Unless otherwise specified: all dimensions are in millimeters \Pand inches, scale 1:1, length 2 meters
304
ACVALUE_END
170
4
140
2.5
 64
7
171
1
172
0
173
1
174
0
175
1
176
1
 91
1
178
0
145
0.0
170
1
171
1
172
0
173
1
174
0
175
1
176
1
 91
1
178
0
145
0.0
170
1
171
1
172
0
173
1
174
0
175
1
176
1
 91
1
178
0
145
0.0
170
1
171
1
172
0
173
0
174
0
175
3
176
1
 91
57
178
0
145
0.0
  7
TEXTSTYLE_3
301
CELL_VALUE
 90
4
  2
All information in this document is Orac's exclusive property.  It may in no case \Pbe reproduced, even partly, be communicated to a third party or used for any \Ppossible purpose without ORAC's express written permission. Further legal \Pinformation
  1
 can be found at https://www.oracdecor.com/en/general-sales-conditions
304
ACVALUE_END
170
4
140
1.8
 64
7
171
1
172
0
173
1
174
0
175
1
176
1
 91
1
178
0
145
0.0
170
1
171
1
172
0
173
1
174
0
175
1
176
1
 91
1
178
0
145
0.0
170
1
  0
TEXT
  5
279
100
AcDbEntity
  8
0
100
AcDbText
 62
2
  6
CONTINUOUS
 10
145.7458770345
 20
54.9992487344
  7
STANDARD
 40
3.5
  1
Please beware: 
 72
5
 11
178.4443206143
 21
54.9992487344
100
AcDbText
  0
TEXT
  5
27A
100
AcDbEntity
  8
0
100
AcDbText
 62
2
  6
CONTINUOUS
 10
145.7458770345
 20
49.7492487344
  7
STANDARD
 40
3.5
  1
Product is visualized in this drawing without ornamentation
 72
5
 11
269.8937369567
 21
49.7492487344
100
AcDbText
  0
LINE
  5
27B
100
AcDbEntity
  8
0
100
AcDbLine
 62
5
  6
CONTINUOUS
 10
0.0
 20
0.0
 11
0.0
 21
210.0
  0
LINE
  5
27C
100
AcDbEntity
  8
0
100
AcDbLine
 62
7
  6
CONTINUOUS
 10
5.0
 20
5.0
 11
5.0
 21
195.0
  0
LINE
  5
27D
100
AcDbEntity
  8
0
100
AcDbLine
 62
5
  6
CONTINUOUS
 10
0.0
 20
0.0
 11
297.0
 21
0.0
  0
LINE
  5
27E
100
AcDbEntity
  8
0
100
AcDbLine
 62
7
  6
CONTINUOUS
 10
5.0
 20
5.0
 11
292.0
 21
5.0
  0
LINE
  5
27F
100
AcDbEntity
  8
0
100
AcDbLine
 62
4
  6
CONTINUOUS
 10
148.5
 20
195.0
 11
148.5
 21
205.0
  0
LINE
  5
280
100
AcDbEntity
  8
0
100
AcDbLine
 62
7
  6
CONTINUOUS
 10
5.0
 20
195.0
 11
292.0
 21
195.0
  0
LINE
  5
281
100
AcDbEntity
  8
0
100
AcDbLine
 62
5
  6
CONTINUOUS
 10
0.0
 20
210.0
 11
297.0
 21
210.0
  0
LINE
  5
282
100
AcDbEntity
  8
0
100
AcDbLine
 62
7
  6
CONTINUOUS
 10
292.0
 20
5.0
 11
292.0
 21
195.0
  0
LINE
  5
283
100
AcDbEntity
  8
0
100
AcDbLine
 62
5
  6
CONTINUOUS
 10
297.0
 20
0.0
 11
297.0
 21
210.0
  0
LINE
  5
284
100
AcDbEntity
  8
0
100
AcDbLine
 62
7
  6
CONTINUOUS
 10
205.3988706689
 20
62.7762571794
 11
198.8998606504
 21
62.607045114
  0
LINE
  5
285
100
AcDbEntity
  8
0
100
AcDbLine
 62
7
  6
CONTINUOUS
 10
198.8998606504
 20
167.6030470357
 11
233.804673525
 21
185.0534598452
  0
LINE
  5
286
100
AcDbEntity
  8
DTM_AXIS
100
AcDbLine
 62
7
  6
CONTINUOUS
 10
240.3036835435
 20
184.8822678923
 11
205.3988706689
 21
167.4318550828
  0
LINE
  5
287
100
AcDbEntity
  8
0
100
AcDbLine
 62
7
  6
CONTINUOUS
 10
199.4811273073
 20
158.6648369361
 11
198.8998606504
 21
158.3742368074
  0
LINE
  5
288
100
AcDbEntity
  8
DTM_AXIS
100
AcDbLine
 62
7
  6
CONTINUOUS
 10
209.5982309886
 20
82.6046539755
 11
208.898337602
 21
82.6047605848
  0
LINE
  5
289
100
AcDbEntity
  8
0
100
AcDbLine
 62
7
  6
CONTINUOUS
 10
198.8998606504
 20
77.60647396
 11
200.6760472227
 21
78.0821855374
  0
LINE
  5
28A
100
AcDbEntity
  8
DTM_AXIS
100
AcDbLine
 62
7
  6
CONTINUOUS
 10
210.4634639652
 20
151.8917757546
 11
245.3682768398
 21
169.3421885641
  0
LINE
  5
28B
100
AcDbEntity
  8
DTM_AXIS
100
AcDbLine
 62
7
  6
CONTINUOUS
 10
244.5030438631
 20
165.0525917842
 11
209.5982309886
 21
147.6021789747
  0
LINE
  5
28C
100
AcDbEntity
  8
0
100
AcDbLine
 62
7
  6
CONTINUOUS
 10
198.8998606504
 20
167.6030470357
 11
198.8998606504
 21
161.8324284182
  0
LINE
  5
28D
100
AcDbEntity
  8
0
100
AcDbLine
 62
7
  6
CONTINUOUS
 10
198.8998606504
 20
158.3742368074
 11
198.8998606504
 21
152.6036181898
  0
LINE
  5
28E
100
AcDbEntity
  8
0
100
AcDbLine
 62
7
  6
CONTINUOUS
 10
198.8998606504
 20
77.60647396
 11
198.8998606504
 21
71.8358553424
  0
LINE
  5
28F
100
AcDbEntity
  8
0
100
AcDbLine
 62
7
  6
CONTINUOUS
 10
198.8998606504
 20
68.3776637316
 11
198.8998606504
 21
62.607045114
  0
LINE
  5
290
100
AcDbEntity
  8
DTM_AXIS
100
AcDbLine
 62
7
  6
CONTINUOUS
 10
244.5030438631
 20
100.055066785
 11
243.8031504765
 21
100.0551733943
  0
LINE
  5
291
100
AcDbEntity
  8
DTM_AXIS
100
AcDbLine
 62
7
  6
CONTINUOUS
 10
202.899251431
 20
149.2293597231
 11
202.899251431
 21
80.9795140343
  0
LINE
  5
292
100
AcDbEntity
  8
DTM_AXIS
100
AcDbLine
 62
7
  6
CONTINUOUS
 10
208.898337602
 20
82.6047605848
 11
208.898337602
 21
147.602285584
  0
LINE
  5
293
100
AcDbEntity
  8
DTM_AXIS
100
AcDbLine
 62
7
  6
CONTINUOUS
 10
209.5982309886
 20
78.6048062833
 11
209.5982309886
 21
82.6046539755
  0
LINE
  5
294
100
AcDbEntity
  8
DTM_AXIS
100
AcDbLine
 62
7
  6
CONTINUOUS
 10
209.5982309886
 20
147.6021789747
 11
209.5982309886
 21
151.6020266669
  0
LINE
  5
295
100
AcDbEntity
  8
DTM_AXIS
100
AcDbLine
 62
7
  6
CONTINUOUS
 10
243.8031504765
 20
100.0551733943
 11
243.8031504765
 21
164.7026850661
  0
LINE
  5
296
100
AcDbEntity
  8
DTM_AXIS
100
AcDbLine
 62
7
  6
CONTINUOUS
 10
244.5030438631
 20
96.0552190928
 11
244.5030438631
 21
100.055066785
  0
LINE
  5
297
100
AcDbEntity
  8
DTM_AXIS
100
AcDbLine
 62
7
  6
CONTINUOUS
 10
244.5030438631
 20
165.0525917842
 11
244.5030438631
 21
168.9096214945
  0
LINE
  5
298
100
AcDbEntity
  8
0
100
AcDbLine
 62
7
  6
CONTINUOUS
 10
200.6760472227
 20
152.1273655069
 11
198.8998606504
 21
152.6036181898
  0
LINE
  5
299
100
AcDbEntity
  8
DTM_AXIS
100
AcDbLine
 62
7
  6
CONTINUOUS
 10
208.898337602
 20
147.602285584
 11
209.5982309886
 21
147.6021789747
  0
LINE
  5
29A
100
AcDbEntity
  8
0
100
AcDbLine
 62
7
  6
CONTINUOUS
 10
198.8998606504
 20
77.60647396
 11
202.4274551634
 21
79.3700697339
  0
LINE
  5
29B
100
AcDbEntity
  8
DTM_AXIS
100
AcDbLine
 62
7
  6
CONTINUOUS
 10
243.8031504765
 20
100.0551733943
 11
208.898337602
 21
82.6047605848
  0
LINE
  5
29C
100
AcDbEntity
  8
DTM_AXIS
100
AcDbLine
 62
7
  6
CONTINUOUS
 10
244.5030438631
 20
100.055066785
 11
209.5982309886
 21
82.6046539755
  0
LINE
  5
29D
100
AcDbEntity
  8
DTM_AXIS
100
AcDbLine
 62
7
  6
CONTINUOUS
 10
201.7379601245
 20
78.6130813359
 11
200.6760472227
 21
78.0821855374
  0
LINE
  5
29E
100
AcDbEntity
  8
DTM_AXIS
100
AcDbLine
 62
7
  6
CONTINUOUS
 10
244.5030438631
 20
96.0552190928
 11
209.5982309886
 21
78.6048062833
  0
LINE
  5
29F
100
AcDbEntity
  8
0
100
AcDbLine
 62
7
  6
CONTINUOUS
 10
199.4811273073
 20
68.6682638603
 11
198.8998606504
 21
68.3776637316
  0
LINE
  5
2A0
100
AcDbEntity
  8
0
100
AcDbLine
 62
7
  6
CONTINUOUS
 10
198.8998606504
 20
167.6030470357
 11
205.3988706689
 21
167.4318550828
  0
LINE
  5
2A1
100
AcDbEntity
  8
DTM_AXIS
100
AcDbLine
 62
7
  6
CONTINUOUS
 10
240.3036835435
 20
80.2266699889
 11
205.3988706689
 21
62.7762571794
  0
LINE
  5
2A2
100
AcDbEntity
  8
0
100
AcDbLine
 62
7
  6
CONTINUOUS
 10
240.3036835435
 20
184.8822678923
 11
233.804673525
 21
185.0534598452
  0
LINE
  5
2A3
100
AcDbEntity
  8
0
100
AcDbLine
 62
7
  6
CONTINUOUS
 10
80.5184272716
 20
53.8830947094
 11
74.0184272716
 21
53.7128862192
  0
LINE
  5
2A4
100
AcDbEntity
  8
0
100
AcDbLine
 62
7
  6
CONTINUOUS
 10
74.0184272716
 20
68.7128862192
 11
75.7948844069
 21
69.188886474
  0
LINE
  5
2A5
100
AcDbEntity
  8
DTM_AXIS
100
AcDbLine
 62
7
  6
CONTINUOUS
 10
84.7184272716
 20
73.7128862192
 11
84.0184272716
 21
73.7128862192
  0
LINE
  5
2A6
100
AcDbEntity
  8
0
100
AcDbLine
 62
7
  6
CONTINUOUS
 10
74.0184272716
 20
158.7128862192
 11
74.0184272716
 21
152.9420478658
  0
LINE
  5
2A7
100
AcDbEntity
  8
0
100
AcDbLine
 62
7
  6
CONTINUOUS
 10
74.0184272716
 20
149.4837245726
 11
74.0184272716
 21
143.7128862192
  0
LINE
  5
2A8
100
AcDbEntity
  8
0
100
AcDbLine
 62
7
  6
CONTINUOUS
 10
74.0184272716
 20
68.7128862192
 11
74.0184272716
 21
62.9420478658
  0
LINE
  5
2A9
100
AcDbEntity
  8
0
100
AcDbLine
 62
7
  6
CONTINUOUS
 10
74.0184272716
 20
59.4837245726
 11
74.0184272716
 21
53.7128862192
  0
LINE
  5
2AA
100
AcDbEntity
  8
DTM_AXIS
100
AcDbLine
 62
7
  6
CONTINUOUS
 10
78.0184272716
 20
140.3391084855
 11
78.0184272716
 21
72.0866639529
  0
LINE
  5
2AB
100
AcDbEntity
  8
DTM_AXIS
100
AcDbLine
 62
7
  6
CONTINUOUS
 10
84.0184272716
 20
73.7128862192
 11
84.0184272716
 21
138.7128862192
  0
LINE
  5
2AC
100
AcDbEntity
  8
DTM_AXIS
100
AcDbLine
 62
7
  6
CONTINUOUS
 10
84.7184272716
 20
69.7128862192
 11
84.7184272716
 21
73.7128862192
  0
LINE
  5
2AD
100
AcDbEntity
  8
DTM_AXIS
100
AcDbLine
 62
7
  6
CONTINUOUS
 10
84.7184272716
 20
138.7128862192
 11
84.7184272716
 21
142.7128862192
  0
LINE
  5
2AE
100
AcDbEntity
  8
DTM_AXIS
100
AcDbLine
 62
7
  6
CONTINUOUS
 10
84.0184272716
 20
138.7128862192
 11
84.7184272716
 21
138.7128862192
  0
LINE
  5
2AF
100
AcDbEntity
  8
0
100
AcDbLine
 62
7
  6
CONTINUOUS
 10
75.7948844069
 20
143.2368859644
 11
74.0184272716
 21
143.7128862192
  0
LINE
  5
2B0
100
AcDbEntity
  8
0
100
AcDbLine
 62
7
  6
CONTINUOUS
 10
74.0184272716
 20
158.7128862192
 11
80.5184272716
 21
158.542677729
  0
ARC
  5
2B1
100
AcDbEntity
  8
DTM_AXIS
100
AcDbCircle
 62
7
  6
CONTINUOUS
 10
199.8956399906
 20
80.9902553591
 40
3.0109642202
100
AcDbArc
 50
285.0219147288
 51
296.5810205027
  0
ARC
  5
2B2
100
AcDbEntity
  8
DTM_AXIS
100
AcDbCircle
 62
7
  6
CONTINUOUS
 10
199.8987295747
 20
149.2292874159
 40
3.0005253354
100
AcDbArc
 50
0.0013807252
 51
74.985613824
  0
ARC
  5
2B3
100
AcDbEntity
  8
DTM_AXIS
100
AcDbCircle
 62
7
  6
CONTINUOUS
 10
199.8999583904
 20
80.9793383744
 40
2.9992907159
100
AcDbArc
 50
296.6005629257
 51
0.0033556475
  0
ARC
  5
2B4
100
AcDbEntity
  8
0
100
AcDbCircle
 62
7
  6
CONTINUOUS
 10
198.3996095602
 20
70.1066764293
 40
1.8000548078
100
AcDbArc
 50
286.1319345251
 51
73.8648549087
  0
ARC
  5
2B5
100
AcDbEntity
  8
0
100
AcDbCircle
 62
7
  6
CONTINUOUS
 10
198.3996095602
 20
160.1032495051
 40
1.8000548078
100
AcDbArc
 50
286.1319345251
 51
73.8648549078
  0
ARC
  5
2B6
100
AcDbEntity
  8
DTM_AXIS
100
AcDbCircle
 62
7
  6
CONTINUOUS
 10
75.0184272716
 20
140.3391084855
 40
3.0
100
AcDbArc
 50
0.0
 51
75.0
  0
ARC
  5
2B7
100
AcDbEntity
  8
DTM_AXIS
100
AcDbCircle
 62
7
  6
CONTINUOUS
 10
75.0184272716
 20
72.0866639529
 40
3.0
100
AcDbArc
 50
285.0
 51
360.0
  0
ARC
  5
2B8
100
AcDbEntity
  8
0
100
AcDbCircle
 62
7
  6
CONTINUOUS
 10
73.5184272716
 20
151.2128862192
 40
1.8
100
AcDbArc
 50
286.1276202132
 51
73.8723797868
  0
ARC
  5
2B9
100
AcDbEntity
  8
0
100
AcDbCircle
 62
7
  6
CONTINUOUS
 10
73.5184272716
 20
61.2128862192
 40
1.8
100
AcDbArc
 50
286.1276202132
 51
73.8723797868
  0
SPLINE
  5
2BA
100
AcDbEntity
  8
DTM_AXIS
100
AcDbSpline
 62
7
  6
CONTINUOUS
 70
0
 71
3
 72
31
 73
27
 74
0
 42
0.0000001
 43
0.0000001
 44
0.0000000001
 40
0.0
 40
0.0
 40
0.0
 40
0.0
 40
0.0308298222
 40
0.061456383
 40
0.1233058372
 40
0.1867747474
 40
0.251050381
 40
0.314719739
 40
0.3459284729
 40
0.3765197692
 40
0.4065202027
 40
0.4363733852
 40
0.466541577
 40
0.4972373561
 40
0.5601637422
 40
0.6241804637
 40
0.6561885049
 40
0.6880776345
 40
0.7510922542
 40
0.7821928649
 40
0.8130840624
 40
0.8439489789
 40
0.8750157027
 40
0.9063165352
 40
0.9377372931
 40
1.0
 40
1.0
 40
1.0
 40
1.0
 10
245.368276685
 20
169.3421884867
 30
0.0
 10
245.5453402288
 20
169.4307101336
 30
0.0
 10
245.8827808092
 20
169.6402860051
 30
0.0
 10
246.4744992672
 20
170.1712164836
 30
0.0
 10
247.0467654704
 20
171.0123850286
 30
0.0
 10
247.4457538236
 20
172.1752658353
 30
0.0
 10
247.5613680251
 20
173.4096240211
 30
0.0
 10
247.4229975079
 20
174.4324170949
 30
0.0
 10
247.1718530361
 20
175.199773422
 30
0.0
 10
246.9167295084
 20
175.7333463512
 30
0.0
 10
246.5911087376
 20
176.216724107
 30
0.0
 10
246.2044022661
 20
176.6483333576
 30
0.0
 10
245.7706140073
 20
177.0383187135
 30
0.0
 10
245.1381743552
 20
177.5208371987
 30
0.0
 10
244.2865414523
 20
178.0690999751
 30
0.0
 10
243.4233884063
 20
178.6139099503
 30
0.0
 10
242.7562705551
 20
179.0939385296
 30
0.0
 10
242.1269691199
 20
179.6122129748
 30
0.0
 10
241.5601280217
 20
180.195909553
 30
0.0
 10
241.086527257
 20
180.8454011195
 30
0.0
 10
240.7869402934
 20
181.3623335524
 30
0.0
 10
240.5495284185
 20
181.9106696764
 30
0.0
 10
240.3813768241
 20
182.4866725319
 30
0.0
 10
240.2764845182
 20
183.0808111237
 30
0.0
 10
240.2151080761
 20
183.8818648098
 30
0.0
 10
240.2491507108
 20
184.4862152684
 30
0.0
 10
240.3036835435
 20
184.8822678923
 30
0.0
  0
SPLINE
  5
2BB
100
AcDbEntity
  8
DTM_AXIS
100
AcDbSpline
 62
7
  6
CONTINUOUS
 70
0
 71
3
 72
30
 73
26
 74
0
 42
0.0000001
 43
0.0000001
 44
0.0000000001
 40
0.0
 40
0.0
 40
0.0
 40
0.0
 40
0.0623589381
 40
0.093816076
 40
0.125132621
 40
0.1561879472
 40
0.1870056569
 40
0.2178328461
 40
0.2488751773
 40
0.3117306515
 40
0.3434116478
 40
0.3750315856
 40
0.4378279735
 40
0.4996424565
 40
0.5607925435
 40
0.5918811228
 40
0.6234997433
 40
0.6871719775
 40
0.7188932967
 40
0.7503419201
 40
0.7815833489
 40
0.8128179716
 40
0.8754647251
 40
0.9381714089
 40
1.0
 40
1.0
 40
1.0
 40
1.0
 10
240.3036835435
 20
80.2266699889
 30
0.0
 10
240.2607759058
 20
80.6348559275
 30
0.0
 10
240.24464842
 20
81.2558628345
 30
0.0
 10
240.3311854167
 20
82.0758016223
 30
0.0
 10
240.4558241315
 20
82.6818037056
 30
0.0
 10
240.6443397602
 20
83.2669856588
 30
0.0
 10
240.9036275714
 20
83.8210633036
 30
0.0
 10
241.2263642789
 20
84.3402182793
 30
0.0
 10
241.7289888123
 20
84.9906881981
 30
0.0
 10
242.3175794865
 20
85.576023126
 30
0.0
 10
242.9560837076
 20
86.107029342
 30
0.0
 10
243.6198094745
 20
86.6058204415
 30
0.0
 10
244.4664815295
 20
87.1893440354
 30
0.0
 10
245.4459174239
 20
87.9225493383
 30
0.0
 10
246.1696731641
 20
88.6429162544
 30
0.0
 10
246.6366003176
 20
89.3138533678
 30
0.0
 10
247.0265770378
 20
90.0501128706
 30
0.0
 10
247.2864283262
 20
90.8550208254
 30
0.0
 10
247.3884187294
 20
91.6855736608
 30
0.0
 10
247.3785746786
 20
92.3092424285
 30
0.0
 10
247.272529747
 20
92.9209220484
 30
0.0
 10
247.0092571439
 20
93.7039672045
 30
0.0
 10
246.4773097146
 20
94.6023934873
 30
0.0
 10
245.5965996253
 20
95.4802308126
 30
0.0
 10
244.8796766699
 20
95.9011042839
 30
0.0
 10
244.5030438631
 20
96.0552190928
 30
0.0
  0
SPLINE
  5
2BC
100
AcDbEntity
  8
DTM_AXIS
100
AcDbSpline
 62
7
  6
CONTINUOUS
 70
0
 71
3
 72
9
 73
5
 74
0
 42
0.0000001
 43
0.0000001
 44
0.0000000001
 40
0.0
 40
0.0
 40
0.0
 40
0.0
 40
0.2568617257
 40
1.0
 40
1.0
 40
1.0
 40
1.0
 10
209.5982309886
 20
151.6020266669
 30
0.0
 10
209.6751624183
 20
151.6164369846
 30
0.0
 10
209.9726682762
 20
151.6827371414
 30
0.0
 10
210.2609207923
 20
151.7905157501
 30
0.0
 10
210.4634638104
 20
151.8917756772
 30
0.0
  0
SPLINE
  5
2BD
100
AcDbEntity
  8
DTM_AXIS
100
AcDbSpline
 62
7
  6
CONTINUOUS
 70
0
 71
3
 72
30
 73
26
 74
0
 42
0.0000001
 43
0.0000001
 44
0.0000000001
 40
0.0
 40
0.0
 40
0.0
 40
0.0
 40
0.0623589381
 40
0.093816076
 40
0.125132621
 40
0.1561879472
 40
0.1870056569
 40
0.2178328461
 40
0.2488751773
 40
0.3117306515
 40
0.3434116478
 40
0.3750315856
 40
0.4378279735
 40
0.4996424565
 40
0.5607925435
 40
0.5918811228
 40
0.6234997433
 40
0.6871719775
 40
0.7188932967
 40
0.7503419201
 40
0.7815833489
 40
0.8128179716
 40
0.8754647251
 40
0.9381714089
 40
1.0
 40
1.0
 40
1.0
 40
1.0
 10
205.3988706689
 20
62.7762571794
 30
0.0
 10
205.3559630312
 20
63.184443118
 30
0.0
 10
205.3398355455
 20
63.805450025
 30
0.0
 10
205.4263725422
 20
64.6253888128
 30
0.0
 10
205.5510112569
 20
65.2313908961
 30
0.0
 10
205.7395268856
 20
65.8165728493
 30
0.0
 10
205.9988146968
 20
66.3706504941
 30
0.0
 10
206.3215514043
 20
66.8898054698
 30
0.0
 10
206.8241759377
 20
67.5402753886
 30
0.0
 10
207.412766612
 20
68.1256103165
 30
0.0
 10
208.051270833
 20
68.6566165325
 30
0.0
 10
208.7149966
 20
69.155407632
 30
0.0
 10
209.561668655
 20
69.7389312259
 30
0.0
 10
210.5411045493
 20
70.4721365288
 30
0.0
 10
211.2648602896
 20
71.1925034449
 30
0.0
 10
211.7317874431
 20
71.8634405583
 30
0.0
 10
212.1217641632
 20
72.5997000611
 30
0.0
 10
212.3816154516
 20
73.4046080159
 30
0.0
 10
212.4836058549
 20
74.2351608513
 30
0.0
 10
212.473761804
 20
74.858829619
 30
0.0
 10
212.3677168724
 20
75.4705092389
 30
0.0
 10
212.1044442693
 20
76.253554395
 30
0.0
 10
211.57249684
 20
77.1519806778
 30
0.0
 10
210.6917867508
 20
78.0298180031
 30
0.0
 10
209.9748637953
 20
78.4506914744
 30
0.0
 10
209.5982309886
 20
78.6048062833
 30
0.0
  0
SPLINE
  5
2BE
100
AcDbEntity
  8
DTM_AXIS
100
AcDbSpline
 62
7
  6
CONTINUOUS
 70
0
 71
3
 72
31
 73
27
 74
0
 42
0.0000001
 43
0.0000001
 44
0.0000000001
 40
0.0
 40
0.0
 40
0.0
 40
0.0
 40
0.0308298222
 40
0.061456383
 40
0.1233058372
 40
0.1867747474
 40
0.251050381
 40
0.314719739
 40
0.3459284729
 40
0.3765197692
 40
0.4065202027
 40
0.4363733852
 40
0.466541577
 40
0.4972373561
 40
0.5601637422
 40
0.6241804637
 40
0.6561885049
 40
0.6880776345
 40
0.7510922542
 40
0.7821928649
 40
0.8130840624
 40
0.8439489789
 40
0.8750157027
 40
0.9063165352
 40
0.9377372931
 40
1.0
 40
1.0
 40
1.0
 40
1.0
 10
210.4634638104
 20
151.8917756772
 30
0.0
 10
210.6405273542
 20
151.9802973241
 30
0.0
 10
210.9779679346
 20
152.1898731956
 30
0.0
 10
211.5696863927
 20
152.7208036741
 30
0.0
 10
212.1419525958
 20
153.5619722191
 30
0.0
 10
212.5409409491
 20
154.7248530258
 30
0.0
 10
212.6565551506
 20
155.9592112116
 30
0.0
 10
212.5181846333
 20
156.9820042854
 30
0.0
 10
212.2670401616
 20
157.7493606125
 30
0.0
 10
212.0119166338
 20
158.2829335417
 30
0.0
 10
211.686295863
 20
158.7663112975
 30
0.0
 10
211.2995893915
 20
159.1979205481
 30
0.0
 10
210.8658011328
 20
159.587905904
 30
0.0
 10
210.2333614807
 20
160.0704243892
 30
0.0
 10
209.3817285778
 20
160.6186871656
 30
0.0
 10
208.5185755317
 20
161.1634971408
 30
0.0
 10
207.8514576805
 20
161.6435257201
 30
0.0
 10
207.2221562453
 20
162.1618001653
 30
0.0
 10
206.6553151471
 20
162.7454967435
 30
0.0
 10
206.1817143824
 20
163.39498831
 30
0.0
 10
205.8821274189
 20
163.9119207429
 30
0.0
 10
205.6447155439
 20
164.4602568669
 30
0.0
 10
205.4765639495
 20
165.0362597224
 30
0.0
 10
205.3716716436
 20
165.6303983142
 30
0.0
 10
205.3102952015
 20
166.4314520003
 30
0.0
 10
205.3443378363
 20
167.0358024589
 30
0.0
 10
205.3988706689
 20
167.4318550828
 30
0.0
  0
SPLINE
  5
2BF
100
AcDbEntity
  8
DTM_AXIS
100
AcDbSpline
 62
7
  6
CONTINUOUS
 70
0
 71
3
 72
13
 73
9
 74
0
 42
0.0000001
 43
0.0000001
 44
0.0000000001
 40
0.0
 40
0.0
 40
0.0
 40
0.0
 40
0.1636479643
 40
0.3482019131
 40
0.5737965889
 40
0.7602595532
 40
0.8925656853
 40
1.0
 40
1.0
 40
1.0
 40
1.0
 10
80.5184272716
 20
53.8830947094
 30
0.0
 10
80.4075998061
 20
54.9372734888
 30
0.0
 10
80.621521173
 20
57.3590484621
 30
0.0
 10
83.3450167754
 20
60.1590264861
 30
0.0
 10
86.8564383886
 20
62.0401618771
 30
0.0
 10
88.0119330959
 20
65.8879746902
 30
0.0
 10
86.6786216573
 20
68.5015058766
 30
0.0
 10
85.361029875
 20
69.4500668337
 30
0.0
 10
84.7184272716
 20
69.7128862192
 30
0.0
  0
SPLINE
  5
2C0
100
AcDbEntity
  8
DTM_AXIS
100
AcDbSpline
 62
7
  6
CONTINUOUS
 70
0
 71
3
 72
13
 73
9
 74
0
 42
0.0000001
 43
0.0000001
 44
0.0000000001
 40
0.0
 40
0.0
 40
0.0
 40
0.0
 40
0.0961413409
 40
0.2450766741
 40
0.4127919228
 40
0.6757662394
 40
0.84761659
 40
1.0
 40
1.0
 40
1.0
 40
1.0
 10
84.7184272716
 20
142.7128862192
 30
0.0
 10
85.3940936487
 20
142.839536299
 30
0.0
 10
86.845750826
 20
143.648823078
 30
0.0
 10
88.0446866263
 20
146.3614382435
 30
0.0
 10
87.2317065472
 20
150.5415468255
 30
0.0
 10
83.1664024696
 20
152.1611953453
 30
0.0
 10
80.5094686991
 20
155.247552962
 30
0.0
 10
80.3811653456
 20
157.5458860099
 30
0.0
 10
80.5184272716
 20
158.542677729
 30
0.0
  0
ENDSEC
  0
SECTION
  2
OBJECTS
  0
DICTIONARY
  5
C
100
AcDbDictionary
280
0
281
1
  3
ACAD_GROUP
350
D
  3
ACAD_MLINESTYLE
350
17
  3
ACAD_LAYOUT
350
1A
  3
ACAD_PLOTSETTINGS
350
19
  3
ACAD_PLOTSTYLENAME
350
E
  3
ACAD_TABLESTYLE
350
       2C1
  0
DICTIONARY
  5
D
102
{ACAD_REACTORS
330
C
102
}
100
AcDbDictionary
280
0
281
1
  0
ACDBDICTIONARYWDFLT
  5
E
102
{ACAD_REACTORS
330
C
102
}
100
AcDbDictionary
281
1
  3
Normal
350
F
100
AcDbDictionaryWithDefault
340
F
  0
DICTIONARY
  5
17
102
{ACAD_REACTORS
330
C
102
}
100
AcDbDictionary
280
0
281
1
  3
Standard
350
18
  0
DICTIONARY
  5
2C1
330
C
100
AcDbDictionary
281
1
  3
Standard
350
       2C4
  3
Standard1
350
       2C5
  0
DICTIONARY
  5
19
102
{ACAD_REACTORS
330
C
102
}
100
AcDbDictionary
281
1
  0
DICTIONARY
  5
1A
102
{ACAD_REACTORS
330
C
102
}
100
AcDbDictionary
281
1
  3
Model
350
2C2
  3
Layout1
350
2C3
  0
ACDBPLACEHOLDER
  5
F
102
{ACAD_REACTORS
330
E
102
}
  0
MLINESTYLE
  5
18
102
{ACAD_REACTORS
330
17
102
}
100
AcDbMlineStyle
  2
STANDARD
 70
0
  3

 62
256
 51
90.0
 52
90.0
 71
2
 49
0.5
 62
256
  6
BYLAYER
 49
-0.5
 62
256
  6
BYLAYER
  0
LAYOUT
  5
2C2
102
{ACAD_REACTORS
330
1A
102
}
100
AcDbPlotSettings
  1

  2
none_device
  4
ISO_A4_(297.00_x_210.00_MM)
  6

 40
0.0
 41
0.0
 42
0.0
 43
0.0
 44
297.0
 45
210.0
 46
0.0
 47
0.0
 48
0.0
 49
0.0
140
0.0
141
0.0
142
1.0
143
1.0
 70
1024
 72
1
 73
0
 74
0
  7

 75
0
147
1.0
148
0.0
149
0.0
100
AcDbLayout
  1
Model
 70
0
 71
0
 10
0.0
 20
0.0
 11
297.0
 21
210.0
 12
0.0
 22
0.0
 32
0.0
 14
0.0
 24
0.0
 34
0.0
 15
0.0
 25
0.0
 35
0.0
146
0.0
 13
0.0
 23
0.0
 33
0.0
 16
1.0
 26
0.0
 36
0.0
 17
0.0
 27
1.0
 37
0.0
 76
0
330
20A
345
0
346
0
  0
LAYOUT
  5
2C3
102
{ACAD_REACTORS
330
1A
102
}
100
AcDbPlotSettings
  1

  2
none_device
  4
ISO_A4_(297.00_x_210.00_MM)
  6

 40
0.0
 41
0.0
 42
0.0
 43
0.0
 44
297.0
 45
210.0
 46
0.0
 47
0.0
 48
0.0
 49
0.0
140
0.0
141
0.0
142
1.0
143
1.0
 70
0
 72
1
 73
0
 74
0
  7

 75
0
147
1.0
148
0.0
149
0.0
100
AcDbLayout
  1
Layout1
 70
0
 71
1
 10
0.0
 20
0.0
 11
297.0
 21
210.0
 12
0.0
 22
0.0
 32
0.0
 14
0.0
 24
0.0
 34
0.0
 15
0.0
 25
0.0
 35
0.0
146
0.0
 13
0.0
 23
0.0
 33
0.0
 16
1.0
 26
0.0
 36
0.0
 17
0.0
 27
1.0
 37
0.0
 76
0
330
20B
345
0
346
0
  0
TABLESTYLE
  5
2C4
102
{ACAD_REACTORS
330
2C1
330
278
102
}
330
2C1
100
AcDbTableStyle
  3
Standard
 70
0
 71
0
 40
0.06
 41
0.06
280
1
281
1
  7
Standard
140
0.18
170
1
 62
0
 63
7
283
0
  7
Standard
140
0.18
170
1
 62
0
 63
7
283
0
  7
Standard
140
0.18
170
1
 62
0
 63
7
283
0
  0
TABLESTYLE
  5
2C5
102
{ACAD_REACTORS
330
2C1
102
}
330
2C1
100
AcDbTableStyle
  3
Standard1
 70
1
 71
0
 40
0.06
 41
0.06
280
1
281
1
  7
Standard
140
0.18
170
1
 62
0
 63
7
283
0
  7
Standard
140
0.18
170
1
 62
0
 63
7
283
0
  7
Standard
140
0.18
170
1
 62
0
 63
7
283
0
  0
ENDSEC
  0
EOF
