999
DXF file: O:\ORAC_PRODUCTEN\ORAC_LIJN6\C-Type\C901\c901-prod-inches.dxf
999
Pro/ENGINEER 2016130 by Parametric Technology Corporation
  0
SECTION
  2
HEADER
  9
$ACADVER
  1
AC1024
  9
$DWGCODEPAGE
  3
ANSI_1250
  9
$EXTMAX
 10
297.0
 20
210.0
 30
0.0
  9
$EXTMIN
 10
0.0
 20
0.0
 30
0.0
  9
$LIMMIN
 10
0.0
 20
0.0
  9
$LIMMAX
 10
297.0
 20
210.0
  9
$VIEWCTR
 10
148.5
 20
105.0
  9
$VIEWSIZE
 40
210.0
  9
$CLAYER
  8
0
  9
$LTSCALE
 40
16.335
  9
$CELTYPE
  6
BYLAYER
  9
$DIMSCALE
 40
1.0
  9
$DIMASZ
 40
3.5
  9
$DIMEXO
 40
1.0
  9
$DIMDLI
 40
11.286
  9
$DIMEXE
 40
1.5
  9
$DIMCEN
 40
2.673
  9
$DIMLFAC
 40
1.0
  9
$DIMBLK
  1
_FILLED
  9
$DIMALT
 70
0
  9
$DIMALTF
 40
0.0393700787
  9
$DIMTXT
 40
2.5
  9
$DIMTOL
 70
1
  9
$DIMLIM
 70
0
  9
$DIMTFAC
 40
1.0
  9
$DIMTP
 40
0.001
  9
$DIMTM
 40
0.001
  9
$DIMGAP
 40
0.625
  9
$DIMDSEP
 70
44
  9
$AUNITS
 70
0
  9
$PDMODE
 70
3
  9
$PDSIZE
 40
8.0
  9
$HANDSEED
  5
325
  9
$TILEMODE
 70
1
  9
$MEASUREMENT
 70
1
  9
$INSUNITS
 70
4
  0
ENDSEC
  0
SECTION
  2
CLASSES
  0
CLASS
  1
ACDBDICTIONARYWDFLT
  2
AcDbDictionaryWithDefault
  3
AutoCAD 2000
 90
0
 91
1
280
0
281
0
  0
CLASS
  1
ACDBPLACEHOLDER
  2
AcDbPlaceHolder
  3
AutoCAD 2000
 90
0
 91
1
280
0
281
0
  0
CLASS
  1
LAYOUT
  2
AcDbLayout
  3
AutoCAD 2000
 90
0
 91
0
280
0
281
0
  0
CLASS
  1
TABLESTYLE
  2
AcDbTableStyle
  3
ObjectDBX Classes
 90
2047
 91
1
280
0
281
0
  0
CLASS
  1
ACAD_TABLE
  2
AcDbTable
  3
ObjectDBX Classes
 90
1025
 91
1
280
0
281
1
  0
ENDSEC
  0
SECTION
  2
TABLES
  0
TABLE
  2
VPORT
  5
8
100
AcDbSymbolTable
 70
2
  0
VPORT
  5
1F4
100
AcDbSymbolTableRecord
100
AcDbViewportTableRecord
  2
*ACTIVE
 70
0
 10
0.0
 20
0.0
 11
1.0
 21
1.0
 12
148.5
 22
105.0
 13
0.0
 23
0.0
 14
1.0
 24
1.0
 15
0.0
 25
0.0
 16
0.0
 26
0.0
 36
1.0
 17
0.0
 27
0.0
 37
0.0
 40
210.0
 41
1.4142857143
 42
50.0
 43
0.0
 44
0.0
 50
0.0
 51
0.0
 71
0
 72
100
 73
1
 74
1
 75
0
 76
0
 77
0
 78
0
  0
ENDTAB
  0
TABLE
  2
LTYPE
  5
5
100
AcDbSymbolTable
 70
6
  0
LTYPE
  5
14
100
AcDbSymbolTableRecord
100
AcDbLinetypeTableRecord
  2
BYBLOCK
 70
0
  3

 72
65
 73
0
 40
0.0
  0
LTYPE
  5
15
100
AcDbSymbolTableRecord
100
AcDbLinetypeTableRecord
  2
BYLAYER
 70
0
  3

 72
65
 73
0
 40
0.0
  0
LTYPE
  5
16
100
AcDbSymbolTableRecord
100
AcDbLinetypeTableRecord
  2
CONTINUOUS
 70
64
  3
Solid line
 72
65
 73
0
 40
0.0
  0
LTYPE
  5
1F5
100
AcDbSymbolTableRecord
100
AcDbLinetypeTableRecord
  2
CENTER
 70
64
  3
____ _ ____ _ ____ _ ____ _ ____ _ ____ _ ____
 72
65
 73
4
 40
0.6
 49
0.375
 74
0
 49
-0.075
 74
0
 49
0.075
 74
0
 49
-0.075
 74
0
  0
LTYPE
  5
1F6
100
AcDbSymbolTableRecord
100
AcDbLinetypeTableRecord
  2
HIDDEN
 70
64
  3
- - - - - - - - - - - - - - - - - - - -
 72
65
 73
2
 40
0.2
 49
0.1
 74
0
 49
-0.1
 74
0
  0
LTYPE
  5
1F7
100
AcDbSymbolTableRecord
100
AcDbLinetypeTableRecord
  2
PHANTOM
 70
64
  3
_____ _ _ _____ _ _ _____ _ _ _____
 72
65
 73
6
 40
0.8
 49
0.45
 74
0
 49
-0.05
 74
0
 49
0.1
 74
0
 49
-0.05
 74
0
 49
0.1
 74
0
 49
-0.05
 74
0
  0
LTYPE
  5
1F8
100
AcDbSymbolTableRecord
100
AcDbLinetypeTableRecord
  2
DOT
 70
64
  3
. . . . . . . . . . . . . . . . . . . .
 72
65
 73
2
 40
0.2
 49
0.1
 74
0
 49
-0.1
 74
0
  0
LTYPE
  5
1F9
100
AcDbSymbolTableRecord
100
AcDbLinetypeTableRecord
  2
DASHED
 70
64
  3
- - - - - - - - - - - - - - - - - - - -
 72
65
 73
2
 40
0.2
 49
0.1
 74
0
 49
-0.1
 74
0
  0
ENDTAB
  0
TABLE
  2
LAYER
  5
2
100
AcDbSymbolTable
 70
36
  0
LAYER
  5
10
100
AcDbSymbolTableRecord
100
AcDbLayerTableRecord
  2
0
 70
0
 62
7
  6
CONTINUOUS
370
-3
390
F
  0
LAYER
  5
1FA
100
AcDbSymbolTableRecord
100
AcDbLayerTableRecord
  2
DEFAULT_1
 70
0
 62
7
  6
CENTER
370
-3
390
F
  0
LAYER
  5
1FB
100
AcDbSymbolTableRecord
100
AcDbLayerTableRecord
  2
DEFAULT_2
 70
0
 62
8
  6
HIDDEN
370
-3
390
F
  0
LAYER
  5
1FC
100
AcDbSymbolTableRecord
100
AcDbLayerTableRecord
  2
DEFAULT_3
 70
0
 62
7
  6
PHANTOM
370
-3
390
F
  0
LAYER
  5
1FD
100
AcDbSymbolTableRecord
100
AcDbLayerTableRecord
  2
AXES
 70
0
 62
7
  6
CONTINUOUS
370
-3
390
F
  0
LAYER
  5
1FE
100
AcDbSymbolTableRecord
100
AcDbLayerTableRecord
  2
CURVES
 70
0
 62
7
  6
CONTINUOUS
370
-3
390
F
  0
LAYER
  5
1FF
100
AcDbSymbolTableRecord
100
AcDbLayerTableRecord
  2
DTM_ALL
 70
0
 62
7
  6
CONTINUOUS
370
-3
390
F
  0
LAYER
  5
200
100
AcDbSymbolTableRecord
100
AcDbLayerTableRecord
  2
DTM_AXIS
 70
0
 62
7
  6
CONTINUOUS
370
-3
390
F
  0
LAYER
  5
201
100
AcDbSymbolTableRecord
100
AcDbLayerTableRecord
  2
DTM_CSYS
 70
0
 62
7
  6
CONTINUOUS
370
-3
390
F
  0
LAYER
  5
202
100
AcDbSymbolTableRecord
100
AcDbLayerTableRecord
  2
DTM_CURVE
 70
0
 62
7
  6
CONTINUOUS
370
-3
390
F
  0
LAYER
  5
203
100
AcDbSymbolTableRecord
100
AcDbLayerTableRecord
  2
DTM_MASTER
 70
0
 62
7
  6
CONTINUOUS
370
-3
390
F
  0
LAYER
  5
204
100
AcDbSymbolTableRecord
100
AcDbLayerTableRecord
  2
DTM_POINT
 70
0
 62
7
  6
CONTINUOUS
370
-3
390
F
  0
LAYER
  5
205
100
AcDbSymbolTableRecord
100
AcDbLayerTableRecord
  2
DTM_QUILT
 70
0
 62
7
  6
CONTINUOUS
370
-3
390
F
  0
LAYER
  5
206
100
AcDbSymbolTableRecord
100
AcDbLayerTableRecord
  2
GTOL
 70
0
 62
7
  6
CONTINUOUS
370
-3
390
F
  0
LAYER
  5
207
100
AcDbSymbolTableRecord
100
AcDbLayerTableRecord
  2
NOTES
 70
0
 62
7
  6
CONTINUOUS
370
-3
390
F
  0
LAYER
  5
208
100
AcDbSymbolTableRecord
100
AcDbLayerTableRecord
  2
SURFACES
 70
0
 62
7
  6
CONTINUOUS
370
-3
390
F
  0
ENDTAB
  0
TABLE
  2
STYLE
  5
3
100
AcDbSymbolTable
 70
1
  0
STYLE
  5
11
100
AcDbSymbolTableRecord
100
AcDbTextStyleTableRecord
  2
STANDARD
 70
0
 40
0.0
 41
1.0
 50
0.0
 71
0
 42
0.2
  3
cgtime.ttf
  4

  0
STYLE
  5
209
100
AcDbSymbolTableRecord
100
AcDbTextStyleTableRecord
  2
TEXTSTYLE_1
 70
0
 40
0.0
 41
0.8
 50
0.0
 71
0
 42
0.2
  3
gdt
  4

  0
STYLE
  5
20A
100
AcDbSymbolTableRecord
100
AcDbTextStyleTableRecord
  2
TEXTSTYLE_2
 70
0
 40
0.0
 41
1.0
 50
0.0
 71
0
 42
0.2
  3
trium.ttf
  4

  0
STYLE
  5
20B
100
AcDbSymbolTableRecord
100
AcDbTextStyleTableRecord
  2
TEXTSTYLE_3
 70
0
 40
0.0
 41
1.0
 50
0.0
 71
0
 42
0.2
  3
calibri.ttf
  4

  0
ENDTAB
  0
TABLE
  2
VIEW
  5
6
100
AcDbSymbolTable
 70
0
  0
ENDTAB
  0
TABLE
  2
UCS
  5
7
100
AcDbSymbolTable
 70
0
  0
ENDTAB
  0
TABLE
  2
APPID
  5
9
100
AcDbSymbolTable
 70
1
  0
APPID
  5
20C
100
AcDbSymbolTableRecord
100
AcDbRegAppTableRecord
  2
ACAD
 70
0
  0
ENDTAB
  0
TABLE
  2
BLOCK_RECORD
  5
1
100
AcDbSymbolTable
 70
0
  0
BLOCK_RECORD
  5
20D
100
AcDbSymbolTableRecord
100
AcDbBlockTableRecord
  2
*Model_Space
  0
BLOCK_RECORD
  5
20E
100
AcDbSymbolTableRecord
100
AcDbBlockTableRecord
  2
*Paper_Space
  0
BLOCK_RECORD
  5
20F
100
AcDbSymbolTableRecord
100
AcDbBlockTableRecord
  2
_FILLED
  0
BLOCK_RECORD
  5
210
100
AcDbSymbolTableRecord
100
AcDbBlockTableRecord
  2
*D0
  0
BLOCK_RECORD
  5
211
100
AcDbSymbolTableRecord
100
AcDbBlockTableRecord
  2
*D1
  0
BLOCK_RECORD
  5
212
100
AcDbSymbolTableRecord
100
AcDbBlockTableRecord
  2
*D2
  0
BLOCK_RECORD
  5
213
100
AcDbSymbolTableRecord
100
AcDbBlockTableRecord
  2
*T1
  0
ENDTAB
  0
TABLE
  2
DIMSTYLE
  5
A
100
AcDbSymbolTable
 70
1
100
AcDbDimStyleTable
 71
0
  0
DIMSTYLE
105
214
100
AcDbSymbolTableRecord
100
AcDbDimStyleTableRecord
  2
STANDARD
 70
0
  3

  4

 40
1.0
 41
3.5
 42
1.0
 43
0.38
 44
1.5
 45
0.0
 46
0.0
 47
0.001
 48
0.001
140
2.5
141
0.09
142
0.0
143
25.4
144
1.0
145
0.0
146
1.0
147
0.625
 71
1.0
 72
0.0
 73
1
 74
1
 75
0
 76
0
 77
0
 78
8
170
0
171
2
172
0
173
0
174
0
175
0
176
0
177
0
178
0
270
2
271
3
272
3
273
2
274
2
275
0
280
0
281
0
282
0
283
1
284
8
285
0
286
0
287
3
288
0
340
11
278
44
341
20F
342
20F
343
20F
344
20F
  0
DIMSTYLE
105
215
100
AcDbSymbolTableRecord
100
AcDbDimStyleTableRecord
  2
DIMSTYLE_1
 70
0
  3

  4

 40
1.0
 41
3.5
 42
1.0
 43
0.38
 44
1.5
 45
0.0
 46
0.0
 47
0.0
 48
0.0
140
2.5
141
0.09
142
0.0
143
25.4
144
1.0
145
0.0
146
1.0
147
1.25
 71
0.0
 72
0.0
 73
1
 74
1
 75
0
 76
0
 77
0
 78
8
170
0
171
2
172
0
173
0
174
0
175
0
176
0
177
0
178
0
270
2
271
3
272
3
273
2
274
2
275
0
280
0
281
0
282
0
283
1
284
8
285
0
286
0
287
3
288
0
340
11
278
44
341
20F
342
20F
343
20F
344
20F
  0
DIMSTYLE
105
216
100
AcDbSymbolTableRecord
100
AcDbDimStyleTableRecord
  2
DIMSTYLE_2
 70
0
  3

  4

 40
1.0
 41
3.5
 42
1.0
 43
0.38
 44
1.5
 45
0.0
 46
0.0
 47
0.0
 48
0.0
140
2.5
141
0.09
142
0.0
143
25.4
144
1.0
145
0.0
146
1.0
147
1.25
 71
0.0
 72
0.0
 73
1
 74
1
 75
0
 76
0
 77
0
 78
8
170
0
171
2
172
0
173
0
174
0
175
0
176
0
177
0
178
0
270
2
271
0
272
0
273
2
274
2
275
0
280
0
281
0
282
0
283
1
284
8
285
0
286
0
287
3
288
0
340
11
278
44
341
20F
342
20F
343
20F
344
20F
  0
ENDTAB
  0
ENDSEC
  0
SECTION
  2
BLOCKS
  0
BLOCK
  5
20
100
AcDbEntity
  8
0
100
AcDbBlockBegin
  2
*Model_Space
 70
0
 10
0.0
 20
0.0
 30
0.0
  3
*Model_Space
  1

  0
ENDBLK
  5
21
100
AcDbEntity
  8
0
100
AcDbBlockEnd
  0
BLOCK
  5
1C
100
AcDbEntity
  8
0
100
AcDbBlockBegin
  2
*Paper_Space
 70
0
 10
0.0
 20
0.0
 30
0.0
  3
*Paper_Space
  1

  0
ENDBLK
  5
1D
100
AcDbEntity
  8
0
100
AcDbBlockEnd
  0
BLOCK
  5
217
100
AcDbEntity
  8
0
100
AcDbBlockBegin
  2
_FILLED
 70
64
 10
0.0
 20
0.0
  3
_FILLED
  1

  0
SOLID
  5
218
100
AcDbEntity
  8
0
  6
BYBLOCK
 62
0
100
AcDbTrace
 10
0.0
 20
0.0
 11
-1.0
 21
0.2142857143
 12
-1.0
 22
-0.2142857143
 13
-1.0
 23
-0.2142857143
  0
ENDBLK
  5
219
100
AcDbEntity
  8
0
  6
BYBLOCK
 62
0
100
AcDbBlockEnd
  0
BLOCK
  5
21A
100
AcDbEntity
  8
0
100
AcDbBlockBegin
 62
2
  6
CONTINUOUS
  2
*D0
 70
65
 10
0.0
 20
0.0
  3
*D0
  1

  0
TEXT
  5
21B
100
AcDbEntity
  8
0
100
AcDbText
 62
2
  6
CONTINUOUS
 10
9.2982430163
 20
99.2676696994
  7
STANDARD
 40
2.5
  1
148
 72
5
 11
14.7554414599
 21
99.2676696994
100
AcDbText
  0
TEXT
  5
21C
100
AcDbEntity
  8
0
100
AcDbText
 62
2
  6
CONTINUOUS
 10
14.7554414599
 20
99.2676696994
  7
STANDARD
 40
2.5
  1
mm
 72
5
 11
20.4266476856
 21
99.2676696994
100
AcDbText
  0
TEXT
  5
21D
100
AcDbEntity
  8
0
100
AcDbText
 62
2
  6
CONTINUOUS
 10
10.076453133
 20
95.5176696994
  7
STANDARD
 40
2.5
  1
5-7/8"
 72
5
 11
19.6484375688
 21
95.5176696994
100
AcDbText
  0
LINE
  5
21E
100
AcDbEntity
  8
0
100
AcDbLine
 62
2
  6
CONTINUOUS
 10
122.6454542333
 20
174.5176696994
 11
13.3624453509
 21
174.5176696994
  0
LINE
  5
21F
100
AcDbEntity
  8
0
100
AcDbLine
 62
2
  6
CONTINUOUS
 10
24.3454542333
 20
26.5176696994
 11
13.3624453509
 21
26.5176696994
  0
LINE
  5
220
100
AcDbEntity
  8
0
100
AcDbLine
 62
2
  6
CONTINUOUS
 10
14.8624453509
 20
174.5176696994
 11
14.8624453509
 21
103.0176696994
  0
LINE
  5
221
100
AcDbEntity
  8
0
100
AcDbLine
 62
2
  6
CONTINUOUS
 10
14.8624453509
 20
26.5176696994
 11
14.8624453509
 21
94.2676696994
  0
INSERT
  5
222
100
AcDbEntity
  8
0
100
AcDbBlockReference
 62
2
  6
CONTINUOUS
  2
_FILLED
 10
14.8624453509
 20
174.5176696994
 41
3.5
 42
3.5
 43
3.5
 50
90.0
  0
INSERT
  5
223
100
AcDbEntity
  8
0
100
AcDbBlockReference
 62
2
  6
CONTINUOUS
  2
_FILLED
 10
14.8624453509
 20
26.5176696994
 41
3.5
 42
3.5
 43
3.5
 50
270.0
  0
ENDBLK
  5
224
100
AcDbEntity
  8
0
  6
BYBLOCK
 62
0
100
AcDbBlockEnd
  0
BLOCK
  5
225
100
AcDbEntity
  8
0
100
AcDbBlockBegin
 62
2
  6
CONTINUOUS
  2
*D1
 70
65
 10
0.0
 20
0.0
  3
*D1
  1

  0
TEXT
  5
226
100
AcDbEntity
  8
0
100
AcDbText
 62
2
  6
CONTINUOUS
 10
81.6812518987
 20
183.644414435
  7
STANDARD
 40
2.5
  1
124
 72
5
 11
87.1384503423
 21
183.644414435
100
AcDbText
  0
TEXT
  5
227
100
AcDbEntity
  8
0
100
AcDbText
 62
2
  6
CONTINUOUS
 10
87.1384503423
 20
183.644414435
  7
STANDARD
 40
2.5
  1
mm
 72
5
 11
92.809656568
 21
183.644414435
100
AcDbText
  0
TEXT
  5
228
100
AcDbEntity
  8
0
100
AcDbText
 62
2
  6
CONTINUOUS
 10
82.4594620155
 20
179.894414435
  7
STANDARD
 40
2.5
  1
4-7/8"
 72
5
 11
92.0314464512
 21
179.894414435
100
AcDbText
  0
LINE
  5
229
100
AcDbEntity
  8
0
100
AcDbLine
 62
2
  6
CONTINUOUS
 10
149.1454542333
 20
175.5176696994
 11
149.1454542333
 21
186.394414435
  0
LINE
  5
22A
100
AcDbEntity
  8
0
100
AcDbLine
 62
2
  6
CONTINUOUS
 10
25.3454542333
 20
113.0500011767
 11
25.3454542333
 21
186.394414435
  0
LINE
  5
22B
100
AcDbEntity
  8
0
100
AcDbLine
 62
2
  6
CONTINUOUS
 10
149.1454542333
 20
184.894414435
 11
94.059656568
 21
184.894414435
  0
LINE
  5
22C
100
AcDbEntity
  8
0
100
AcDbLine
 62
2
  6
CONTINUOUS
 10
25.3454542333
 20
184.894414435
 11
80.4312518987
 21
184.894414435
  0
INSERT
  5
22D
100
AcDbEntity
  8
0
100
AcDbBlockReference
 62
2
  6
CONTINUOUS
  2
_FILLED
 10
149.1454542333
 20
184.894414435
 41
3.5
 42
3.5
 43
3.5
  0
INSERT
  5
22E
100
AcDbEntity
  8
0
100
AcDbBlockReference
 62
2
  6
CONTINUOUS
  2
_FILLED
 10
25.3454542333
 20
184.894414435
 41
3.5
 42
3.5
 43
3.5
 50
180.0
  0
ENDBLK
  5
22F
100
AcDbEntity
  8
0
  6
BYBLOCK
 62
0
100
AcDbBlockEnd
  0
BLOCK
  5
230
100
AcDbEntity
  8
0
100
AcDbBlockBegin
 62
2
  6
CONTINUOUS
  2
*D2
 70
65
 10
0.0
 20
0.0
  3
*D2
  1

  0
TEXT
  5
231
100
AcDbEntity
  8
0
100
AcDbText
 62
2
  6
CONTINUOUS
 10
94.4726075443
 20
88.567873558
  7
STANDARD
 40
2.5
  1
192
 72
5
 11
99.9298059879
 21
88.567873558
100
AcDbText
  0
TEXT
  5
232
100
AcDbEntity
  8
0
100
AcDbText
 62
2
  6
CONTINUOUS
 10
99.9298059879
 20
88.567873558
  7
STANDARD
 40
2.5
  1
mm
 72
5
 11
105.6010122136
 21
88.567873558
100
AcDbText
  0
TEXT
  5
233
100
AcDbEntity
  8
0
100
AcDbText
 62
2
  6
CONTINUOUS
 10
95.2508176611
 20
84.817873558
  7
STANDARD
 40
2.5
  1
7-1/2"
 72
5
 11
104.8228020969
 21
84.817873558
100
AcDbText
  0
LINE
  5
234
100
AcDbEntity
  8
0
100
AcDbLine
 62
2
  6
CONTINUOUS
 10
149.9124847289
 20
173.8760590551
 11
163.0873556223
 21
162.8554575915
  0
LINE
  5
235
100
AcDbEntity
  8
0
100
AcDbLine
 62
2
  6
CONTINUOUS
 10
26.1124847289
 20
25.8760590551
 11
39.2873556223
 21
14.8554575915
  0
LINE
  5
236
100
AcDbEntity
  8
0
100
AcDbLine
 62
2
  6
CONTINUOUS
 10
161.936809879
 20
163.817873558
 11
102.1280260952
 21
92.317873558
  0
LINE
  5
237
100
AcDbEntity
  8
0
100
AcDbLine
 62
2
  6
CONTINUOUS
 10
38.136809879
 20
15.817873558
 11
94.8087693384
 21
83.567873558
  0
INSERT
  5
238
100
AcDbEntity
  8
0
100
AcDbBlockReference
 62
2
  6
CONTINUOUS
  2
_FILLED
 10
161.936809879
 20
163.817873558
 41
3.5
 42
3.5
 43
3.5
 50
50.0879737
  0
INSERT
  5
239
100
AcDbEntity
  8
0
100
AcDbBlockReference
 62
2
  6
CONTINUOUS
  2
_FILLED
 10
38.136809879
 20
15.817873558
 41
3.5
 42
3.5
 43
3.5
 50
230.0879737
  0
ENDBLK
  5
23A
100
AcDbEntity
  8
0
  6
BYBLOCK
 62
0
100
AcDbBlockEnd
  0
BLOCK
  5
23B
100
AcDbEntity
  8
0
100
AcDbBlockBegin
  2
*T1
 70
1
 10
0.0
 20
0.0
  3
*T1
  1

  0
LINE
  5
23C
100
AcDbEntity
  8
0
100
AcDbLine
 62
7
  6
CONTINUOUS
 10
0.0
 20
0.0
 11
148.0
 21
0.0
  0
LINE
  5
23D
100
AcDbEntity
  8
0
100
AcDbLine
 62
7
  6
CONTINUOUS
 10
0.0
 20
0.0
 11
0.0
 21
-43.0
  0
LINE
  5
23E
100
AcDbEntity
  8
0
100
AcDbLine
 62
7
  6
CONTINUOUS
 10
45.0
 20
-23.0
 11
148.0
 21
-23.0
  0
LINE
  5
23F
100
AcDbEntity
  8
0
100
AcDbLine
 62
7
  6
CONTINUOUS
 10
45.0
 20
-28.0
 11
148.0
 21
-28.0
  0
LINE
  5
240
100
AcDbEntity
  8
0
100
AcDbLine
 62
7
  6
CONTINUOUS
 10
0.0
 20
-43.0
 11
148.0
 21
-43.0
  0
LINE
  5
241
100
AcDbEntity
  8
0
100
AcDbLine
 62
7
  6
CONTINUOUS
 10
45.0
 20
0.0
 11
45.0
 21
-43.0
  0
LINE
  5
242
100
AcDbEntity
  8
0
100
AcDbLine
 62
7
  6
CONTINUOUS
 10
143.0
 20
0.0
 11
143.0
 21
-23.0
  0
LINE
  5
243
100
AcDbEntity
  8
0
100
AcDbLine
 62
7
  6
CONTINUOUS
 10
148.0
 20
0.0
 11
148.0
 21
-43.0
  0
TEXT
  5
244
100
AcDbEntity
  8
0
100
AcDbText
 62
7
  6
CONTINUOUS
 10
8.9659749243
 20
-10.675
  7
STANDARD
 40
8.0
  1
O
 72
5
 11
17.370644185
 21
-10.675
100
AcDbText
  0
TEXT
  5
245
100
AcDbEntity
  8
0
100
AcDbText
 62
7
  6
CONTINUOUS
 10
17.370644185
 20
-10.675
  7
STANDARD
 40
5.5
  1
RAC
 72
5
 11
33.9562472979
 21
-10.675
100
AcDbText
  0
TEXT
  5
246
100
AcDbEntity
  8
0
100
AcDbText
 62
7
  6
CONTINUOUS
 10
33.9562472979
 20
-5.925
  7
TEXTSTYLE_2
 40
3.0
  1
®
 72
5
 11
36.0340250757
 21
-5.925
100
AcDbText
  0
TEXT
  5
247
100
AcDbEntity
  8
0
100
AcDbText
 62
7
  6
CONTINUOUS
 10
9.5323389537
 20
-15.325
  7
TEXTSTYLE_2
 40
3.0
  1
D  E  C  O  R
 72
5
 11
34.3878945093
 21
-15.325
100
AcDbText
  0
TEXT
  5
248
100
AcDbEntity
  8
0
100
AcDbText
 62
7
  6
CONTINUOUS
 10
34.3878945093
 20
-15.325
  7
STANDARD
 40
2.5
  1
 
 72
5
 11
35.4676610463
 21
-15.325
100
AcDbText
  0
TEXT
  5
249
100
AcDbEntity
  8
0
100
AcDbText
 62
7
  6
CONTINUOUS
 10
52.5257352941
 20
-6.0
  7
TEXTSTYLE_3
 40
2.75
  1
Part name:
 72
5
 11
71.9375
 21
-6.0
100
AcDbText
  0
TEXT
  5
24A
100
AcDbEntity
  8
0
100
AcDbText
 62
7
  6
CONTINUOUS
 10
49.2788865546
 20
-12.875
  7
TEXTSTYLE_3
 40
2.75
  1
Designed by:
 72
5
 11
71.9375
 21
-12.875
100
AcDbText
  0
TEXT
  5
24B
100
AcDbEntity
  8
0
100
AcDbText
 62
7
  6
CONTINUOUS
 10
48.9553571429
 20
-19.75
  7
TEXTSTYLE_3
 40
2.75
  1
Designed on:
 72
5
 11
71.9375
 21
-19.75
100
AcDbText
  0
TEXT
  5
24C
100
AcDbEntity
  8
0
100
AcDbText
 62
2
  6
CONTINUOUS
 10
74.0625
 20
-6.0
  7
TEXTSTYLE_3
 40
2.75
  1
C901
 72
5
 11
82.9595588235
 21
-6.0
100
AcDbText
  0
TEXT
  5
24D
100
AcDbEntity
  8
0
100
AcDbText
 62
2
  6
CONTINUOUS
 10
74.0625
 20
-12.875
  7
TEXTSTYLE_3
 40
2.75
  1
ORAC
 72
5
 11
84.1034663866
 21
-12.875
100
AcDbText
  0
TEXT
  5
24E
100
AcDbEntity
  8
0
100
AcDbText
 62
2
  6
CONTINUOUS
 10
74.0625
 20
-19.75
  7
TEXTSTYLE_3
 40
2.75
  1
29-Jul-1998
 72
5
 11
94.5488445378
 21
-19.75
100
AcDbText
  0
TEXT
  5
24F
100
AcDbEntity
  8
0
100
AcDbText
 62
2
  6
CONTINUOUS
 10
94.5488445378
 20
-19.75
  7
TEXTSTYLE_3
 40
2.75
  1
 
 72
5
 11
95.530987395
 21
-19.75
100
AcDbText
  0
TEXT
  5
250
100
AcDbEntity
  8
0
100
AcDbText
 62
2
  6
CONTINUOUS
 10
146.5625
 20
-17.5
  7
TEXTSTYLE_3
 40
1.5
  1
Version: 
 50
90.0
 72
5
 11
146.5625
 21
-9.0294117647
100
AcDbText
  0
TEXT
  5
251
100
AcDbEntity
  8
0
100
AcDbText
 62
2
  6
CONTINUOUS
 10
146.5625
 20
-9.0294117647
  7
TEXTSTYLE_3
 40
1.5
  1
1.0
 50
90.0
 72
5
 11
146.5625
 21
-6.0357142857
100
AcDbText
  0
TEXT
  5
252
100
AcDbEntity
  8
0
100
AcDbText
 62
2
  6
CONTINUOUS
 10
146.5625
 20
-6.0357142857
  7
TEXTSTYLE_3
 40
1.5
  1
 
 50
90.0
 72
5
 11
146.5625
 21
-5.5
100
AcDbText
  0
TEXT
  5
253
100
AcDbEntity
  8
0
100
AcDbText
 62
7
  6
CONTINUOUS
 10
9.6586134454
 20
-24.25
  7
TEXTSTYLE_3
 40
2.5
  1
Biekorfstraat 32
 72
5
 11
35.3413865546
 21
-24.25
100
AcDbText
  0
TEXT
  5
254
100
AcDbEntity
  8
0
100
AcDbText
 62
7
  6
CONTINUOUS
 10
2.2584033613
 20
-28.0
  7
TEXTSTYLE_3
 40
2.5
  1
8400 Oostende - Belgium
 72
5
 11
42.7415966387
 21
-28.0
100
AcDbText
  0
TEXT
  5
255
100
AcDbEntity
  8
0
100
AcDbText
 62
7
  6
CONTINUOUS
 10
4.2699579832
 20
-31.75
  7
TEXTSTYLE_3
 40
2.5
  1
Tel  +32 (0)59 80 32 52
 72
5
 11
40.7300420168
 21
-31.75
100
AcDbText
  0
TEXT
  5
256
100
AcDbEntity
  8
0
100
AcDbText
 62
7
  6
CONTINUOUS
 10
5.7405462185
 20
-35.5
  7
TEXTSTYLE_3
 40
2.5
  1
www.oracdecor.com
 72
5
 11
39.2594537815
 21
-35.5
100
AcDbText
  0
TEXT
  5
257
100
AcDbEntity
  8
0
100
AcDbText
 62
7
  6
CONTINUOUS
 10
5.5777310924
 20
-39.25
  7
TEXTSTYLE_3
 40
2.5
  1
info@oracdecor.com
 72
5
 11
39.4222689076
 21
-39.25
100
AcDbText
  0
TEXT
  5
258
100
AcDbEntity
  8
0
100
AcDbText
 62
7
  6
CONTINUOUS
 10
46.0625
 20
-26.75
  7
TEXTSTYLE_3
 40
2.5
  1
All dimensions are in mm unless otherwise specified   
 72
5
 11
132.3019957983
 21
-26.75
100
AcDbText
  0
TEXT
  5
259
100
AcDbEntity
  8
0
100
AcDbText
 62
7
  6
CONTINUOUS
 10
46.0625
 20
-31.7075
  7
TEXTSTYLE_3
 40
1.85
  1
All information in this document is Orac's exclusive property.  It may in no case 
 72
5
 11
140.0471638655
 21
-31.7075
100
AcDbText
  0
TEXT
  5
25A
100
AcDbEntity
  8
0
100
AcDbText
 62
7
  6
CONTINUOUS
 10
46.0625
 20
-34.8525
  7
TEXTSTYLE_3
 40
1.85
  1
be reproduced, even partly, be communicated to a third party or used for any 
 72
5
 11
138.8345588235
 21
-34.8525
100
AcDbText
  0
TEXT
  5
25B
100
AcDbEntity
  8
0
100
AcDbText
 62
7
  6
CONTINUOUS
 10
46.0625
 20
-37.9975
  7
TEXTSTYLE_3
 40
1.85
  1
possible purpose without ORAC's express written permission. 
 72
5
 11
119.4484243697
 21
-37.9975
100
AcDbText
  0
TEXT
  5
25C
100
AcDbEntity
  8
0
100
AcDbText
 62
7
  6
CONTINUOUS
 10
46.0625
 20
-41.1425
  7
TEXTSTYLE_3
 40
1.85
  1
Further legal information can be found at http://www.oracdecor.be/nl/disclaimer 
 72
5
 11
143.7316176471
 21
-41.1425
100
AcDbText
  0
ENDBLK
  5
25D
100
AcDbEntity
  8
0
  6
BYBLOCK
 62
0
100
AcDbBlockEnd
  0
ENDSEC
  0
SECTION
  2
ENTITIES
  0
DIMENSION
  5
25E
100
AcDbEntity
  8
0
100
AcDbDimension
 62
2
  6
CONTINUOUS
  2
*D0
 10
14.8624453509
 20
26.5176696994
 11
14.8624453509
 21
98.6426696994
 70
160
 71
2
 42
148.0
  1
<>mm\P5-7/8"
  3
DIMSTYLE_1
100
AcDbAlignedDimension
 13
123.6454542333
 23
174.5176696994
 14
25.3454542333
 24
26.5176696994
 50
270.0
100
AcDbRotatedDimension
  0
DIMENSION
  5
25F
100
AcDbEntity
  8
0
100
AcDbDimension
 62
2
  6
CONTINUOUS
  2
*D1
 10
25.3454542333
 20
184.894414435
 11
87.2454542333
 21
183.019414435
 70
160
 71
2
 42
123.8
  1
<>mm\P4-7/8"
  3
DIMSTYLE_2
100
AcDbAlignedDimension
 13
149.1454542333
 23
174.5176696994
 14
25.3454542333
 24
112.0500011767
 50
180.0
100
AcDbRotatedDimension
  0
DIMENSION
  5
260
100
AcDbEntity
  8
0
100
AcDbDimension
 62
2
  6
CONTINUOUS
  2
*D2
 10
38.136809879
 20
15.817873558
 11
100.036809879
 21
87.942873558
 70
160
 71
2
 42
192.9519111074
  1
<>mm\P7-1/2"
  3
DIMSTYLE_2
100
AcDbAlignedDimension
 13
149.1454542333
 23
174.5176696994
 14
25.3454542333
 24
26.5176696994
 50
230.0879737
100
AcDbRotatedDimension
  0
ACAD_TABLE
  5
261
100
AcDbEntity
  8
0
 62
2
  6
CONTINUOUS
100
AcDbBlockReference
  2
*T1
 10
143.9999958937
 20
47.9999925619
 30
0.0
100
AcDbTable
342
       323
343
213
 11
1.0
 21
0.0
 31
0.0
 90
22
 91
4
 92
4
 93
0
 94
0
 95
0
 96
0
141
18.0
141
5.0
141
5.0
141
15.0
142
45.0
142
28.0
142
70.0
142
5.0
171
1
172
0
173
0
174
0
175
1
176
1
 91
41
178
0
145
0.0
301
CELL_VALUE
 90
4
  1
\A1;O\H5.5;RAC\Ftrium.ttf;\H3.0;\S®^ ;\PD  E  C  O  R\Fcgtime.ttf;\H2.5; 
304
ACVALUE_END
170
5
140
8.0
 64
7
171
1
172
0
173
0
174
0
175
1
176
2
 91
57
178
0
145
0.0
  7
TEXTSTYLE_3
301
CELL_VALUE
 90
4
  1
Part name:\PDesigned by:\PDesigned on:
304
ACVALUE_END
170
6
140
2.75
 64
7
171
1
172
0
173
0
174
0
175
1
176
2
 91
49
178
0
145
0.0
  7
TEXTSTYLE_3
301
CELL_VALUE
 90
4
  1
C901\PORAC\P29-Jul-1998 
304
ACVALUE_END
170
4
140
2.75
171
1
172
0
173
0
174
0
175
1
176
2
 91
49
178
0
145
0.0
  7
TEXTSTYLE_3
301
CELL_VALUE
 90
4
  1
Version: 1.0 
304
ACVALUE_END
170
6
140
1.5
171
1
172
0
173
0
174
0
175
1
176
3
 91
57
178
0
145
0.0
  7
TEXTSTYLE_3
301
CELL_VALUE
 90
4
  1
Biekorfstraat 32\P8400 Oostende - Belgium\PTel  +32 (0)59 80 32 52\Pwww.oracdecor.com\Pinfo@oracdecor.com
304
ACVALUE_END
170
5
140
2.5
 64
7
171
1
172
0
173
1
174
0
175
1
176
1
 91
1
178
0
145
0.0
170
1
171
1
172
0
173
1
174
0
175
1
176
1
 91
1
178
0
145
0.0
170
1
171
1
172
0
173
1
174
0
175
1
176
1
 91
1
178
0
145
0.0
170
1
171
1
172
0
173
1
174
0
175
1
176
1
 91
1
178
0
145
0.0
170
1
171
1
172
0
173
0
174
0
175
3
176
1
 91
57
178
0
145
0.0
  7
TEXTSTYLE_3
301
CELL_VALUE
 90
4
  1
All dimensions are in mm unless otherwise specified   
304
ACVALUE_END
170
1
140
2.5
 64
7
171
1
172
0
173
1
174
0
175
1
176
1
 91
1
178
0
145
0.0
170
1
171
1
172
0
173
1
174
0
175
1
176
1
 91
1
178
0
145
0.0
170
1
171
1
172
0
173
1
174
0
175
1
176
1
 91
1
178
0
145
0.0
170
1
171
1
172
0
173
0
174
0
175
3
176
1
 91
57
178
0
145
0.0
  7
TEXTSTYLE_3
301
CELL_VALUE
 90
4
  2
All information in this document is Orac's exclusive property.  It may in no case \Pbe reproduced, even partly, be communicated to a third party or used for any \Ppossible purpose without ORAC's express written permission. \PFurther legal information
  1
 can be found at http://www.oracdecor.be/nl/disclaimer 
304
ACVALUE_END
170
4
140
1.85
 64
7
171
1
172
0
173
1
174
0
175
1
176
1
 91
1
178
0
145
0.0
170
1
171
1
172
0
173
1
174
0
175
1
176
1
 91
1
178
0
145
0.0
170
1
  0
LINE
  5
262
100
AcDbEntity
  8
0
100
AcDbLine
 62
5
  6
CONTINUOUS
 10
0.0
 20
0.0
 11
0.0
 21
210.0
  0
LINE
  5
263
100
AcDbEntity
  8
0
100
AcDbLine
 62
7
  6
CONTINUOUS
 10
5.0
 20
5.0
 11
5.0
 21
195.0
  0
LINE
  5
264
100
AcDbEntity
  8
0
100
AcDbLine
 62
5
  6
CONTINUOUS
 10
0.0
 20
0.0
 11
297.0
 21
0.0
  0
LINE
  5
265
100
AcDbEntity
  8
0
100
AcDbLine
 62
7
  6
CONTINUOUS
 10
5.0
 20
5.0
 11
292.0
 21
5.0
  0
LINE
  5
266
100
AcDbEntity
  8
0
100
AcDbLine
 62
4
  6
CONTINUOUS
 10
148.5
 20
195.0
 11
148.5
 21
205.0
  0
LINE
  5
267
100
AcDbEntity
  8
0
100
AcDbLine
 62
7
  6
CONTINUOUS
 10
5.0
 20
195.0
 11
292.0
 21
195.0
  0
LINE
  5
268
100
AcDbEntity
  8
0
100
AcDbLine
 62
5
  6
CONTINUOUS
 10
0.0
 20
210.0
 11
297.0
 21
210.0
  0
LINE
  5
269
100
AcDbEntity
  8
0
100
AcDbLine
 62
7
  6
CONTINUOUS
 10
292.0
 20
5.0
 11
292.0
 21
195.0
  0
LINE
  5
26A
100
AcDbEntity
  8
0
100
AcDbLine
 62
5
  6
CONTINUOUS
 10
297.0
 20
0.0
 11
297.0
 21
210.0
  0
LINE
  5
26B
100
AcDbEntity
  8
0
100
AcDbLine
 62
7
  6
CONTINUOUS
 10
173.5642036997
 20
89.5443287182
 11
173.6165287232
 21
92.0255307378
  0
LINE
  5
26C
100
AcDbEntity
  8
0
100
AcDbLine
 62
7
  6
CONTINUOUS
 10
173.6768381464
 20
94.8853452763
 11
173.7143366217
 21
96.6634867205
  0
LINE
  5
26D
100
AcDbEntity
  8
0
100
AcDbLine
 62
7
  6
CONTINUOUS
 10
174.3183297825
 20
125.3042584233
 11
174.3689426241
 21
127.7042704355
  0
LINE
  5
26E
100
AcDbEntity
  8
0
100
AcDbLine
 62
7
  6
CONTINUOUS
 10
174.4292520474
 20
130.5640849741
 11
174.4654473906
 21
132.2804331565
  0
LINE
  5
26F
100
AcDbEntity
  8
0
100
AcDbLine
 62
7
  6
CONTINUOUS
 10
213.2044269066
 20
57.7226787264
 11
218.3492345041
 21
57.6206185758
  0
LINE
  5
270
100
AcDbEntity
  8
0
100
AcDbLine
 62
7
  6
CONTINUOUS
 10
178.6383902715
 20
97.9412481027
 11
179.1084958775
 21
120.2332014071
  0
LINE
  5
271
100
AcDbEntity
  8
0
100
AcDbLine
 62
7
  6
CONTINUOUS
 10
213.2044269066
 20
57.7226787264
 11
173.5642036997
 21
89.5443287182
  0
LINE
  5
272
100
AcDbEntity
  8
0
100
AcDbLine
 62
7
  6
CONTINUOUS
 10
218.3492345041
 20
57.6206185758
 11
178.7090112973
 21
89.4422685677
  0
LINE
  5
273
100
AcDbEntity
  8
0
100
AcDbLine
 62
7
  6
CONTINUOUS
 10
174.6469941229
 20
93.9508299532
 11
173.8305952584
 21
94.6904797969
  0
LINE
  5
274
100
AcDbEntity
  8
0
100
AcDbLine
 62
7
  6
CONTINUOUS
 10
182.7892733826
 20
93.3601868579
 11
182.8156155761
 21
94.6093082047
  0
LINE
  5
275
100
AcDbEntity
  8
0
100
AcDbLine
 62
7
  6
CONTINUOUS
 10
183.2751710134
 20
104.5532224173
 11
183.4710332978
 21
113.8408225703
  0
LINE
  5
276
100
AcDbEntity
  8
0
100
AcDbLine
 62
7
  6
CONTINUOUS
 10
185.4553428373
 20
101.3050197154
 11
185.4816850309
 21
102.5541410623
  0
LINE
  5
277
100
AcDbEntity
  8
0
100
AcDbLine
 62
7
  6
CONTINUOUS
 10
222.4294965894
 20
61.538536866
 11
182.7892733826
 21
93.3601868579
  0
LINE
  5
278
100
AcDbEntity
  8
0
100
AcDbLine
 62
7
  6
CONTINUOUS
 10
190.0277010446
 20
116.7099000205
 11
190.1014591864
 21
120.2074397918
  0
LINE
  5
279
100
AcDbEntity
  8
0
100
AcDbLine
 62
7
  6
CONTINUOUS
 10
222.4558387829
 20
62.7876582129
 11
182.8156155761
 21
94.6093082047
  0
LINE
  5
27A
100
AcDbEntity
  8
0
100
AcDbLine
 62
7
  6
CONTINUOUS
 10
225.0955660442
 20
69.4833697235
 11
185.4553428373
 21
101.3050197154
  0
LINE
  5
27B
100
AcDbEntity
  8
0
100
AcDbLine
 62
7
  6
CONTINUOUS
 10
225.1219082377
 20
70.7324910704
 11
185.4816850309
 21
102.5541410623
  0
LINE
  5
27C
100
AcDbEntity
  8
0
100
AcDbLine
 62
7
  6
CONTINUOUS
 10
222.9153942202
 20
72.7315724254
 11
183.2751710134
 21
104.5532224173
  0
LINE
  5
27D
100
AcDbEntity
  8
0
100
AcDbLine
 62
7
  6
CONTINUOUS
 10
185.4816850309
 20
102.5541410623
 11
183.2751710134
 21
104.5532224173
  0
LINE
  5
27E
100
AcDbEntity
  8
0
100
AcDbLine
 62
7
  6
CONTINUOUS
 10
225.1219082377
 20
70.7324910704
 11
222.9153942202
 21
72.7315724254
  0
LINE
  5
27F
100
AcDbEntity
  8
0
100
AcDbLine
 62
7
  6
CONTINUOUS
 10
218.2471782808
 20
141.1329113978
 11
209.5818014409
 21
131.0689328889
  0
LINE
  5
280
100
AcDbEntity
  8
0
100
AcDbLine
 62
7
  6
CONTINUOUS
 10
223.1112565046
 20
82.0191725784
 11
225.3589879793
 21
81.9745831922
  0
LINE
  5
281
100
AcDbEntity
  8
0
100
AcDbLine
 62
7
  6
CONTINUOUS
 10
178.7999451806
 20
120.976394441
 11
174.4577287056
 21
125.1227481275
  0
LINE
  5
282
100
AcDbEntity
  8
0
100
AcDbLine
 62
7
  6
CONTINUOUS
 10
173.5642036997
 20
89.5443287182
 11
178.7090112973
 21
89.4422685677
  0
LINE
  5
283
100
AcDbEntity
  8
0
100
AcDbLine
 62
7
  6
CONTINUOUS
 10
223.1112565046
 20
82.0191725784
 11
183.4710332978
 21
113.8408225703
  0
LINE
  5
284
100
AcDbEntity
  8
0
100
AcDbLine
 62
7
  6
CONTINUOUS
 10
225.3589879793
 20
81.9745831922
 11
185.7187647725
 21
113.7962331841
  0
LINE
  5
285
100
AcDbEntity
  8
0
100
AcDbLine
 62
7
  6
CONTINUOUS
 10
174.3716015091
 20
97.0261754212
 11
177.6183247502
 21
96.9617685301
  0
LINE
  5
286
100
AcDbEntity
  8
0
100
AcDbLine
 62
7
  6
CONTINUOUS
 10
229.6679242514
 20
84.8882500287
 11
190.0277010446
 21
116.7099000205
  0
LINE
  5
287
100
AcDbEntity
  8
0
100
AcDbLine
 62
7
  6
CONTINUOUS
 10
175.3994080238
 20
129.629569651
 11
174.5830091593
 21
130.3692194947
  0
LINE
  5
288
100
AcDbEntity
  8
0
100
AcDbLine
 62
7
  6
CONTINUOUS
 10
176.3872541275
 20
132.4709742561
 11
185.0599146685
 21
125.7751168176
  0
LINE
  5
289
100
AcDbEntity
  8
DTM_AXIS
100
AcDbLine
 62
7
  6
CONTINUOUS
 10
187.0249796187
 20
125.2459273471
 11
180.5518703261
 21
130.2422797239
  0
LINE
  5
28A
100
AcDbEntity
  8
0
100
AcDbLine
 62
7
  6
CONTINUOUS
 10
229.7416823932
 20
88.3857897999
 11
190.1014591864
 21
120.2074397918
  0
LINE
  5
28B
100
AcDbEntity
  8
0
100
AcDbLine
 62
7
  6
CONTINUOUS
 10
174.0793364861
 20
92.3665286327
 11
174.2572091568
 21
92.4104273542
  0
LINE
  5
28C
100
AcDbEntity
  8
0
100
AcDbLine
 62
7
  6
CONTINUOUS
 10
221.7873087422
 20
153.237551733
 11
221.8733260919
 21
157.3164112886
  0
LINE
  5
28D
100
AcDbEntity
  8
0
100
AcDbLine
 62
7
  6
CONTINUOUS
 10
224.1556171766
 20
159.2705665824
 11
224.2241068798
 21
162.5182820843
  0
LINE
  5
28E
100
AcDbEntity
  8
0
100
AcDbLine
 62
7
  6
CONTINUOUS
 10
222.4294965894
 20
61.538536866
 11
222.4558387829
 21
62.7876582129
  0
LINE
  5
28F
100
AcDbEntity
  8
0
100
AcDbLine
 62
7
  6
CONTINUOUS
 10
222.9153942202
 20
72.7315724254
 11
223.1112565046
 21
82.0191725784
  0
LINE
  5
290
100
AcDbEntity
  8
0
100
AcDbLine
 62
7
  6
CONTINUOUS
 10
225.0955660442
 20
69.4833697235
 11
225.1219082377
 21
70.7324910704
  0
LINE
  5
291
100
AcDbEntity
  8
0
100
AcDbLine
 62
7
  6
CONTINUOUS
 10
229.7839141826
 20
153.6604820027
 11
229.8207932536
 21
155.4092518883
  0
LINE
  5
292
100
AcDbEntity
  8
0
100
AcDbLine
 62
7
  6
CONTINUOUS
 10
229.6679242514
 20
84.8882500287
 11
229.7416823932
 21
88.3857897999
  0
LINE
  5
293
100
AcDbEntity
  8
0
100
AcDbLine
 62
7
  6
CONTINUOUS
 10
183.4710332978
 20
113.8408225703
 11
185.7187647725
 21
113.7962331841
  0
LINE
  5
294
100
AcDbEntity
  8
0
100
AcDbLine
 62
7
  6
CONTINUOUS
 10
236.887493761
 20
158.7680691248
 11
236.9612519028
 21
162.2656088961
  0
LINE
  5
295
100
AcDbEntity
  8
0
100
AcDbLine
 62
7
  6
CONTINUOUS
 10
266.4271620899
 20
121.8982845257
 11
269.4241373895
 21
121.8388320108
  0
LINE
  5
296
100
AcDbEntity
  8
0
100
AcDbLine
 62
7
  6
CONTINUOUS
 10
186.535124461
 20
125.2556448517
 11
191.4437651621
 21
125.1582696633
  0
LINE
  5
297
100
AcDbEntity
  8
0
100
AcDbLine
 62
7
  6
CONTINUOUS
 10
274.5297334348
 20
126.9860541429
 11
276.5277169678
 21
126.9464191329
  0
LINE
  5
298
100
AcDbEntity
  8
DTM_AXIS
100
AcDbLine
 62
7
  6
CONTINUOUS
 10
207.6558137268
 20
129.7046050896
 11
180.5518703261
 21
130.2422797239
  0
LINE
  5
299
100
AcDbEntity
  8
DTM_AXIS
100
AcDbLine
 62
7
  6
CONTINUOUS
 10
208.7397507689
 20
130.4387894972
 11
178.3094284179
 21
131.0424511932
  0
LINE
  5
29A
100
AcDbEntity
  8
0
100
AcDbLine
 62
7
  6
CONTINUOUS
 10
175.1227122779
 20
132.6431218573
 11
175.9446911897
 21
132.6268158459
  0
LINE
  5
29B
100
AcDbEntity
  8
0
100
AcDbLine
 62
7
  6
CONTINUOUS
 10
174.831750387
 20
128.0452683304
 11
175.0096230578
 21
128.0891670519
  0
LINE
  5
29C
100
AcDbEntity
  8
0
100
AcDbLine
 62
7
  6
CONTINUOUS
 10
266.4271620899
 20
121.8982845257
 11
226.7869388831
 21
153.7199345175
  0
LINE
  5
29D
100
AcDbEntity
  8
0
100
AcDbLine
 62
7
  6
CONTINUOUS
 10
269.4241373895
 20
121.8388320108
 11
229.7839141826
 21
153.6604820027
  0
LINE
  5
29E
100
AcDbEntity
  8
0
100
AcDbLine
 62
7
  6
CONTINUOUS
 10
269.4610164604
 20
123.5876018964
 11
229.8207932536
 21
155.4092518883
  0
LINE
  5
29F
100
AcDbEntity
  8
0
100
AcDbLine
 62
7
  6
CONTINUOUS
 10
269.4241373895
 20
121.8388320108
 11
269.4610164604
 21
123.5876018964
  0
LINE
  5
2A0
100
AcDbEntity
  8
0
100
AcDbLine
 62
7
  6
CONTINUOUS
 10
226.7869388831
 20
153.7199345175
 11
229.7839141826
 21
153.6604820027
  0
LINE
  5
2A1
100
AcDbEntity
  8
0
100
AcDbLine
 62
7
  6
CONTINUOUS
 10
230.1543444238
 20
161.9415581222
 11
230.159710434
 21
161.9373361616
  0
LINE
  5
2A2
100
AcDbEntity
  8
0
100
AcDbLine
 62
7
  6
CONTINUOUS
 10
274.5297334348
 20
126.9860541429
 11
234.889510228
 21
158.8077041347
  0
LINE
  5
2A3
100
AcDbEntity
  8
0
100
AcDbLine
 62
7
  6
CONTINUOUS
 10
229.5768390158
 20
162.4120972295
 11
230.1543444238
 21
161.9415581222
  0
LINE
  5
2A4
100
AcDbEntity
  8
0
100
AcDbLine
 62
7
  6
CONTINUOUS
 10
222.8933916133
 20
158.2958908611
 11
223.1355516553
 21
158.2910870099
  0
LINE
  5
2A5
100
AcDbEntity
  8
0
100
AcDbLine
 62
7
  6
CONTINUOUS
 10
234.889510228
 20
158.8077041347
 11
236.887493761
 21
158.7680691248
  0
LINE
  5
2A6
100
AcDbEntity
  8
0
100
AcDbLine
 62
7
  6
CONTINUOUS
 10
236.887493761
 20
158.7680691248
 11
276.5277169678
 21
126.9464191329
  0
LINE
  5
2A7
100
AcDbEntity
  8
0
100
AcDbLine
 62
7
  6
CONTINUOUS
 10
236.9612519028
 20
162.2656088961
 11
276.6014751096
 21
130.4439589042
  0
LINE
  5
2A8
100
AcDbEntity
  8
0
100
AcDbLine
 62
7
  6
CONTINUOUS
 10
276.5277169678
 20
126.9464191329
 11
276.6014751096
 21
130.4439589042
  0
LINE
  5
2A9
100
AcDbEntity
  8
0
100
AcDbLine
 62
7
  6
CONTINUOUS
 10
236.9612519028
 20
162.2656088961
 11
231.5812624861
 21
162.3723344673
  0
LINE
  5
2AA
100
AcDbEntity
  8
0
100
AcDbLine
 62
7
  6
CONTINUOUS
 10
224.2241068798
 20
162.5182820843
 11
229.5768390158
 21
162.4120972295
  0
LINE
  5
2AB
100
AcDbEntity
  8
0
100
AcDbLine
 62
7
  6
CONTINUOUS
 10
27.3263507296
 20
35.3761554244
 11
25.6613738198
 21
36.8234767785
  0
LINE
  5
2AC
100
AcDbEntity
  8
0
100
AcDbLine
 62
7
  6
CONTINUOUS
 10
25.3454542333
 20
26.5176696994
 11
35.6454542333
 21
26.5176696994
  0
LINE
  5
2AD
100
AcDbEntity
  8
0
100
AcDbLine
 62
7
  6
CONTINUOUS
 10
25.3454542333
 20
26.5176696994
 11
25.3454542333
 21
31.4835643776
  0
LINE
  5
2AE
100
AcDbEntity
  8
0
100
AcDbLine
 62
7
  6
CONTINUOUS
 10
25.3454542333
 20
37.2072167387
 11
25.3454542333
 21
40.7660011767
  0
LINE
  5
2AF
100
AcDbEntity
  8
0
100
AcDbLine
 62
7
  6
CONTINUOUS
 10
25.3454542333
 20
98.0878373911
 11
25.3454542333
 21
102.8912378338
  0
LINE
  5
2B0
100
AcDbEntity
  8
0
100
AcDbLine
 62
7
  6
CONTINUOUS
 10
25.3454542333
 20
108.6148901949
 11
25.3454542333
 21
112.0500011767
  0
LINE
  5
2B1
100
AcDbEntity
  8
0
100
AcDbLine
 62
7
  6
CONTINUOUS
 10
26.6454542333
 20
41.5176696994
 11
33.1454542333
 21
41.5176696994
  0
LINE
  5
2B2
100
AcDbEntity
  8
0
100
AcDbLine
 62
7
  6
CONTINUOUS
 10
48.6454542333
 20
53.0176696994
 11
44.1454542333
 21
56.9294032826
  0
LINE
  5
2B3
100
AcDbEntity
  8
0
100
AcDbLine
 62
7
  6
CONTINUOUS
 10
35.1454542333
 20
43.5176696994
 11
35.1454542333
 21
88.132937384
  0
LINE
  5
2B4
100
AcDbEntity
  8
0
100
AcDbLine
 62
7
  6
CONTINUOUS
 10
26.2572256657
 20
32.1841216396
 11
26.6113285145
 21
32.279003212
  0
LINE
  5
2B5
100
AcDbEntity
  8
0
100
AcDbLine
 62
7
  6
CONTINUOUS
 10
43.6454542333
 20
34.5176696994
 11
43.6454542333
 21
37.0176696994
  0
LINE
  5
2B6
100
AcDbEntity
  8
0
100
AcDbLine
 62
7
  6
CONTINUOUS
 10
44.1454542333
 20
56.9294032826
 11
44.1454542333
 21
75.5176696994
  0
LINE
  5
2B7
100
AcDbEntity
  8
0
100
AcDbLine
 62
7
  6
CONTINUOUS
 10
48.6454542333
 20
50.5176696994
 11
48.6454542333
 21
53.0176696994
  0
LINE
  5
2B8
100
AcDbEntity
  8
0
100
AcDbLine
 62
7
  6
CONTINUOUS
 10
34.496624059
 20
89.6075017611
 11
25.6320768641
 21
97.7302455856
  0
LINE
  5
2B9
100
AcDbEntity
  8
DTM_AXIS
100
AcDbLine
 62
7
  6
CONTINUOUS
 10
49.7955271068
 20
100.0469097408
 11
49.7955271068
 21
98.4754221302
  0
LINE
  5
2BA
100
AcDbEntity
  8
0
100
AcDbLine
 62
7
  6
CONTINUOUS
 10
27.3263507296
 20
106.7838288806
 11
25.6613738198
 21
108.2311502347
  0
LINE
  5
2BB
100
AcDbEntity
  8
0
100
AcDbLine
 62
7
  6
CONTINUOUS
 10
57.1454542333
 20
81.5176696994
 11
57.1454542333
 21
88.5176696994
  0
LINE
  5
2BC
100
AcDbEntity
  8
DTM_AXIS
100
AcDbLine
 62
7
  6
CONTINUOUS
 10
59.6227166104
 20
100.0469097408
 11
59.6227166104
 21
98.4754221302
  0
LINE
  5
2BD
100
AcDbEntity
  8
0
100
AcDbLine
 62
7
  6
CONTINUOUS
 10
44.1454542333
 20
75.5176696994
 11
48.6454542333
 21
75.5176696994
  0
LINE
  5
2BE
100
AcDbEntity
  8
0
100
AcDbLine
 62
7
  6
CONTINUOUS
 10
29.1832967438
 20
112.5074613978
 11
46.8214420376
 21
99.4561164686
  0
LINE
  5
2BF
100
AcDbEntity
  8
DTM_AXIS
100
AcDbLine
 62
7
  6
CONTINUOUS
 10
48.0110760653
 20
100.6353263438
 11
33.6927352347
 21
111.2301820887
  0
LINE
  5
2C0
100
AcDbEntity
  8
0
100
AcDbLine
 62
7
  6
CONTINUOUS
 10
112.5870432742
 20
131.4975383941
 11
95.6707737437
 21
111.0199489624
  0
LINE
  5
2C1
100
AcDbEntity
  8
0
100
AcDbLine
 62
7
  6
CONTINUOUS
 10
49.7955271068
 20
98.4754221302
 11
59.6227166104
 21
98.4754221302
  0
LINE
  5
2C2
100
AcDbEntity
  8
DTM_AXIS
100
AcDbLine
 62
7
  6
CONTINUOUS
 10
59.6227166104
 20
100.0469097408
 11
49.7955271068
 21
100.0469097408
  0
LINE
  5
2C3
100
AcDbEntity
  8
DTM_AXIS
100
AcDbLine
 62
7
  6
CONTINUOUS
 10
93.3011533181
 20
111.2301820887
 11
33.6927352347
 21
111.2301820887
  0
LINE
  5
2C4
100
AcDbEntity
  8
DTM_AXIS
100
AcDbLine
 62
7
  6
CONTINUOUS
 10
96.200641502
 20
112.8016696994
 11
29.1832967438
 21
112.8016696994
  0
LINE
  5
2C5
100
AcDbEntity
  8
0
100
AcDbLine
 62
7
  6
CONTINUOUS
 10
26.6454542333
 20
112.8016696994
 11
28.291071223
 21
112.8016696994
  0
LINE
  5
2C6
100
AcDbEntity
  8
0
100
AcDbLine
 62
7
  6
CONTINUOUS
 10
26.2572256657
 20
103.5917950959
 11
26.6113285145
 21
103.6866766683
  0
LINE
  5
2C7
100
AcDbEntity
  8
0
100
AcDbLine
 62
7
  6
CONTINUOUS
 10
119.1606453487
 20
155.8542123104
 11
119.1606453487
 21
164.0176696993
  0
LINE
  5
2C8
100
AcDbEntity
  8
0
100
AcDbLine
 62
7
  6
CONTINUOUS
 10
123.6454542333
 20
168.0176696993
 11
123.6454542333
 21
174.5176696994
  0
LINE
  5
2C9
100
AcDbEntity
  8
0
100
AcDbLine
 62
7
  6
CONTINUOUS
 10
135.1454542333
 20
157.0176696993
 11
135.1454542333
 21
160.5176696994
  0
LINE
  5
2CA
100
AcDbEntity
  8
0
100
AcDbLine
 62
7
  6
CONTINUOUS
 10
129.1454542333
 20
157.0176696993
 11
135.1454542333
 21
157.0176696993
  0
LINE
  5
2CB
100
AcDbEntity
  8
0
100
AcDbLine
 62
7
  6
CONTINUOUS
 10
149.1454542333
 20
167.5176696994
 11
149.1454542333
 21
174.5176696994
  0
LINE
  5
2CC
100
AcDbEntity
  8
0
100
AcDbLine
 62
7
  6
CONTINUOUS
 10
121.1606453487
 20
166.0176696993
 11
121.6454542333
 21
166.0176696993
  0
LINE
  5
2CD
100
AcDbEntity
  8
0
100
AcDbLine
 62
7
  6
CONTINUOUS
 10
145.1454542333
 20
167.5176696994
 11
149.1454542333
 21
167.5176696994
  0
LINE
  5
2CE
100
AcDbEntity
  8
0
100
AcDbLine
 62
7
  6
CONTINUOUS
 10
149.1454542333
 20
174.5176696994
 11
138.3746158799
 21
174.5176696994
  0
LINE
  5
2CF
100
AcDbEntity
  8
0
100
AcDbLine
 62
7
  6
CONTINUOUS
 10
123.6454542333
 20
174.5176696994
 11
134.3617230064
 21
174.5176696994
  0
LINE
  5
2D0
100
AcDbEntity
  8
0
100
AcDbLine
 62
7
  6
CONTINUOUS
 10
134.3617230064
 20
174.5176696994
 11
135.5372737642
 21
173.5992423844
  0
ARC
  5
2D1
100
AcDbEntity
  8
DTM_AXIS
100
AcDbCircle
 62
7
  6
CONTINUOUS
 10
67.1774242753
 20
-158.8560629528
 40
310.5343385902
100
AcDbArc
 50
68.6248123982
 51
68.900983486
  0
ARC
  5
2D2
100
AcDbEntity
  8
0
100
AcDbCircle
 62
7
  6
CONTINUOUS
 10
217.4858476112
 20
141.7879828787
 40
1.0043620032
100
AcDbArc
 50
319.2903209705
 51
332.0429919981
  0
ARC
  5
2D3
100
AcDbEntity
  8
0
100
AcDbCircle
 62
7
  6
CONTINUOUS
 10
208.8210732844
 20
131.7243581098
 40
1.0041362199
100
AcDbArc
 50
306.8554298627
 51
319.2525976951
  0
ARC
  5
2D4
100
AcDbEntity
  8
0
100
AcDbCircle
 62
7
  6
CONTINUOUS
 10
223.1549780935
 20
159.291761999
 40
1.0008635373
100
AcDbArc
 50
268.8878375739
 51
358.7865491558
  0
ARC
  5
2D5
100
AcDbEntity
  8
0
100
AcDbCircle
 62
7
  6
CONTINUOUS
 10
177.6377511884
 20
97.9624435192
 40
1.0008635373
100
AcDbArc
 50
268.8878375739
 51
358.7865491558
  0
ARC
  5
2D6
100
AcDbEntity
  8
0
100
AcDbCircle
 62
7
  6
CONTINUOUS
 10
222.873965175
 20
157.295215872
 40
1.0008635373
100
AcDbArc
 50
88.8878375739
 51
178.7865491558
  0
ARC
  5
2D7
100
AcDbEntity
  8
0
100
AcDbCircle
 62
7
  6
CONTINUOUS
 10
178.1105041428
 20
120.254513049
 40
0.9982192588
100
AcDbArc
 50
358.7766616328
 51
46.3167566119
  0
ARC
  5
2D8
100
AcDbEntity
  8
0
100
AcDbCircle
 62
7
  6
CONTINUOUS
 10
230.7213954107
 20
162.6404558593
 40
0.9006999879
100
AcDbArc
 50
268.2189615352
 51
342.6816203515
  0
ARC
  5
2D9
100
AcDbEntity
  8
0
100
AcDbCircle
 62
7
  6
CONTINUOUS
 10
174.0417692996
 20
93.2845488589
 40
0.900223955
100
AcDbArc
 50
283.8454281956
 51
47.7491665801
  0
ARC
  5
2DA
100
AcDbEntity
  8
0
100
AcDbCircle
 62
7
  6
CONTINUOUS
 10
174.7941832005
 20
128.9632885567
 40
0.900223955
100
AcDbArc
 50
283.8454281988
 51
47.7491665768
  0
ARC
  5
2DB
100
AcDbEntity
  8
0
100
AcDbCircle
 62
7
  6
CONTINUOUS
 10
174.3370739749
 20
95.2482061184
 40
0.7533786166
100
AcDbArc
 50
208.7928772758
 51
227.7569921282
  0
ARC
  5
2DC
100
AcDbEntity
  8
0
100
AcDbCircle
 62
7
  6
CONTINUOUS
 10
175.0894878758
 20
130.9269458162
 40
0.7533786166
100
AcDbArc
 50
208.7928772758
 51
227.7569921282
  0
ARC
  5
2DD
100
AcDbEntity
  8
0
100
AcDbCircle
 62
7
  6
CONTINUOUS
 10
174.9779908414
 20
125.6665905837
 40
0.752620294
100
AcDbArc
 50
208.7786805262
 51
226.2694539288
  0
ARC
  5
2DE
100
AcDbEntity
  8
0
100
AcDbCircle
 62
7
  6
CONTINUOUS
 10
175.1079568149
 20
131.8929692759
 40
0.7502976869
100
AcDbArc
 50
88.8731402503
 51
148.9080154984
  0
ARC
  5
2DF
100
AcDbEntity
  8
0
100
AcDbCircle
 62
7
  6
CONTINUOUS
 10
174.356846046
 20
96.2760228399
 40
0.7502976869
100
AcDbArc
 50
88.8731402503
 51
148.9080154984
  0
ARC
  5
2E0
100
AcDbEntity
  8
0
100
AcDbCircle
 62
7
  6
CONTINUOUS
 10
49.7955271068
 20
103.4754221302
 40
5.0
100
AcDbArc
 50
233.5004114702
 51
270.0
  0
ARC
  5
2E1
100
AcDbEntity
  8
DTM_AXIS
100
AcDbCircle
 62
7
  6
CONTINUOUS
 10
49.7955406349
 20
103.0469507666
 40
3.0000410258
100
AcDbArc
 50
233.5006698346
 51
269.9997416356
  0
ARC
  5
2E2
100
AcDbEntity
  8
0
100
AcDbCircle
 62
7
  6
CONTINUOUS
 10
33.1454542333
 20
43.5176696994
 40
2.0
100
AcDbArc
 50
270.0
 51
360.0
  0
ARC
  5
2E3
100
AcDbEntity
  8
0
100
AcDbCircle
 62
7
  6
CONTINUOUS
 10
33.1454542333
 20
88.132937384
 40
2.0
100
AcDbArc
 50
0.0
 51
47.5004114702
  0
ARC
  5
2E4
100
AcDbEntity
  8
0
100
AcDbCircle
 62
7
  6
CONTINUOUS
 10
26.1454542333
 20
34.0176696994
 40
1.8
100
AcDbArc
 50
285.0
 51
49.0004114702
  0
ARC
  5
2E5
100
AcDbEntity
  8
0
100
AcDbCircle
 62
7
  6
CONTINUOUS
 10
26.1454542333
 20
105.4253431556
 40
1.8
100
AcDbArc
 50
285.0
 51
49.0004114702
  0
ARC
  5
2E6
100
AcDbEntity
  8
0
100
AcDbCircle
 62
7
  6
CONTINUOUS
 10
26.6454542333
 20
30.7352329002
 40
1.5
100
AcDbArc
 50
105.0
 51
150.0735651334
  0
ARC
  5
2E7
100
AcDbEntity
  8
0
100
AcDbCircle
 62
7
  6
CONTINUOUS
 10
26.6454542333
 20
37.955548216
 40
1.5
100
AcDbArc
 50
209.9264348666
 51
229.0004114702
  0
ARC
  5
2E8
100
AcDbEntity
  8
0
100
AcDbCircle
 62
7
  6
CONTINUOUS
 10
26.6454542333
 20
102.1429063565
 40
1.5
100
AcDbArc
 50
105.0
 51
150.0735651334
  0
ARC
  5
2E9
100
AcDbEntity
  8
0
100
AcDbCircle
 62
7
  6
CONTINUOUS
 10
26.6454542333
 20
98.8361688685
 40
1.5
100
AcDbArc
 50
209.9264348666
 51
227.5004114702
  0
ARC
  5
2EA
100
AcDbEntity
  8
0
100
AcDbCircle
 62
7
  6
CONTINUOUS
 10
26.6454542333
 20
40.0176696994
 40
1.5
100
AcDbArc
 50
90.0
 51
150.0735651334
  0
ARC
  5
2EB
100
AcDbEntity
  8
DTM_AXIS
100
AcDbCircle
 62
7
  6
CONTINUOUS
 10
66.942173425
 20
181.1782738369
 40
74.7498059758
100
AcDbArc
 50
290.7662120772
 51
291.3277422077
  0
ARC
  5
2EC
100
AcDbEntity
  8
DTM_AXIS
100
AcDbCircle
 62
7
  6
CONTINUOUS
 10
67.7654424714
 20
179.0193771332
 40
72.4392676193
100
AcDbArc
 50
290.6410372245
 51
290.7627822509
  0
ARC
  5
2ED
100
AcDbEntity
  8
0
100
AcDbCircle
 62
7
  6
CONTINUOUS
 10
26.6454542333
 20
109.3632216722
 40
1.5
100
AcDbArc
 50
209.9264348666
 51
229.0004114702
  0
ARC
  5
2EE
100
AcDbEntity
  8
0
100
AcDbCircle
 62
7
  6
CONTINUOUS
 10
26.6454542333
 20
111.3016696994
 40
1.5
100
AcDbArc
 50
90.0
 51
150.0735651334
  0
ARC
  5
2EF
100
AcDbEntity
  8
0
100
AcDbCircle
 62
7
  6
CONTINUOUS
 10
28.291071223
 20
111.3016696994
 40
1.5
100
AcDbArc
 50
53.5004114702
 51
90.0
  0
ARC
  5
2F0
100
AcDbEntity
  8
0
100
AcDbCircle
 62
7
  6
CONTINUOUS
 10
94.1288502404
 20
112.2937118564
 40
2.0
100
AcDbArc
 50
307.9913560202
 51
320.440332031
  0
ARC
  5
2F1
100
AcDbEntity
  8
DTM_AXIS
100
AcDbCircle
 62
7
  6
CONTINUOUS
 10
96.2006413136
 20
114.8016694712
 40
1.9999998859
100
AcDbArc
 50
270.0000053984
 51
320.440332031
  0
ARC
  5
2F2
100
AcDbEntity
  8
0
100
AcDbCircle
 62
7
  6
CONTINUOUS
 10
111.045119771
 20
132.7713012881
 40
2.0
100
AcDbArc
 50
320.440332031
 51
333.248961645
  0
ARC
  5
2F3
100
AcDbEntity
  8
0
100
AcDbCircle
 62
7
  6
CONTINUOUS
 10
121.6454542333
 20
168.0176696993
 40
2.0
100
AcDbArc
 50
270.0
 51
360.0
  0
ARC
  5
2F4
100
AcDbEntity
  8
0
100
AcDbCircle
 62
7
  6
CONTINUOUS
 10
121.1606453487
 20
164.0176696993
 40
2.0
100
AcDbArc
 50
90.0
 51
180.0
  0
ARC
  5
2F5
100
AcDbEntity
  8
0
100
AcDbCircle
 62
7
  6
CONTINUOUS
 10
136.6454542333
 20
175.0176696994
 40
1.8
100
AcDbArc
 50
232.0004114702
 51
343.8723797868
  0
SPLINE
  5
2F6
100
AcDbEntity
  8
0
100
AcDbSpline
 62
7
  6
CONTINUOUS
 70
0
 71
3
 72
11
 73
7
 74
0
 42
0.0000001
 43
0.0000001
 44
0.0000000001
 40
0.0
 40
0.0
 40
0.0
 40
0.0
 40
0.2739393428
 40
0.4999388715
 40
0.7259735842
 40
1.0
 40
1.0
 40
1.0
 40
1.0
 10
222.4294965894
 20
61.538536866
 30
0.0
 10
221.8407280602
 20
61.5502165651
 30
0.0
 10
220.749005296
 20
61.4645919908
 30
0.0
 10
219.3168783658
 20
60.6970608521
 30
0.0
 10
218.491818987
 20
59.2970991448
 30
0.0
 10
218.3616544242
 20
58.209559177
 30
0.0
 10
218.3492345041
 20
57.6206185758
 30
0.0
  0
SPLINE
  5
2F7
100
AcDbEntity
  8
0
100
AcDbSpline
 62
7
  6
CONTINUOUS
 70
0
 71
3
 72
14
 73
10
 74
0
 42
0.0000001
 43
0.0000001
 44
0.0000000001
 40
0.0
 40
0.0
 40
0.0
 40
0.0
 40
0.124690283
 40
0.2508725199
 40
0.3718549079
 40
0.4940850859
 40
0.6230310989
 40
0.7552598947
 40
1.0
 40
1.0
 40
1.0
 40
1.0
 10
225.0955660442
 20
69.4833697235
 30
0.0
 10
225.377979271
 20
69.2186977243
 30
0.0
 10
225.8911274138
 20
68.624524087
 30
0.0
 10
226.4402763991
 20
67.5942367724
 30
0.0
 10
226.6141057425
 20
66.4258217445
 30
0.0
 10
226.2576284966
 20
65.2947651996
 30
0.0
 10
225.562326321
 20
64.3105410667
 30
0.0
 10
224.3758337175
 20
63.2799355106
 30
0.0
 10
223.2154807482
 20
62.7968524572
 30
0.0
 10
222.4558387829
 20
62.7876582129
 30
0.0
  0
SPLINE
  5
2F8
100
AcDbEntity
  8
0
100
AcDbSpline
 62
7
  6
CONTINUOUS
 70
0
 71
3
 72
16
 73
12
 74
0
 42
0.0000001
 43
0.0000001
 44
0.0000000001
 40
0.0
 40
0.0
 40
0.0
 40
0.0
 40
0.0683791259
 40
0.1337494189
 40
0.2605689731
 40
0.3852932242
 40
0.5098887245
 40
0.6333504884
 40
0.7547766198
 40
0.8760577587
 40
1.0
 40
1.0
 40
1.0
 40
1.0
 10
266.4271620899
 20
121.8982845257
 30
0.0
 10
266.4335709134
 20
120.640977967
 30
0.0
 10
266.2321945522
 20
118.1767596531
 30
0.0
 10
265.1806942519
 20
113.4952375278
 30
0.0
 10
263.1153957506
 20
108.0052107023
 30
0.0
 10
259.435017946
 20
102.0984251591
 30
0.0
 10
254.7556516538
 20
97.036526764
 30
0.0
 10
249.2756798699
 20
92.9518869324
 30
0.0
 10
243.1497429084
 20
90.0474617416
 30
0.0
 10
236.556412976
 20
88.4417905021
 30
0.0
 10
232.0173685861
 20
88.2631005735
 30
0.0
 10
229.7416823932
 20
88.3857897999
 30
0.0
  0
SPLINE
  5
2F9
100
AcDbEntity
  8
0
100
AcDbSpline
 62
7
  6
CONTINUOUS
 70
0
 71
3
 72
13
 73
9
 74
0
 42
0.0000001
 43
0.0000001
 44
0.0000000001
 40
0.0
 40
0.0
 40
0.0
 40
0.0
 40
0.2490700246
 40
0.3742167699
 40
0.4995484213
 40
0.624805413
 40
0.7499737498
 40
1.0
 40
1.0
 40
1.0
 40
1.0
 10
274.5297334348
 20
126.9860541429
 30
0.0
 10
274.5175156091
 20
126.4066966617
 30
0.0
 10
274.34978742
 20
125.5054911383
 30
0.0
 10
273.6321358893
 20
124.5647112673
 30
0.0
 10
272.8977931399
 20
124.0672463887
 30
0.0
 10
272.0700047748
 20
123.7681065726
 30
0.0
 10
270.9209398873
 20
123.5602191657
 30
0.0
 10
270.0418557255
 20
123.5557664894
 30
0.0
 10
269.4610164604
 20
123.5876018964
 30
0.0
  0
SPLINE
  5
2FA
100
AcDbEntity
  8
0
100
AcDbSpline
 62
7
  6
CONTINUOUS
 70
0
 71
3
 72
12
 73
8
 74
0
 42
0.0000001
 43
0.0000001
 44
0.0000000001
 40
0.0
 40
0.0
 40
0.0
 40
0.0
 40
0.2842300642
 40
0.5244438623
 40
0.6342458528
 40
0.744047133
 40
1.0
 40
1.0
 40
1.0
 40
1.0
 10
229.6679242514
 20
84.8882500287
 30
0.0
 10
229.1102911436
 20
84.8993120787
 30
0.0
 10
228.0777678595
 20
84.8568216137
 30
0.0
 10
226.8590576336
 20
84.4918043932
 30
0.0
 10
226.1188499756
 20
83.9600298806
 30
0.0
 10
225.5258397122
 20
83.2235776829
 30
0.0
 10
225.3695774616
 20
82.4767262035
 30
0.0
 10
225.3589879793
 20
81.9745831922
 30
0.0
  0
SPLINE
  5
2FB
100
AcDbEntity
  8
0
100
AcDbSpline
 62
7
  6
CONTINUOUS
 70
0
 71
3
 72
8
 73
4
 74
0
 42
0.0000001
 43
0.0000001
 44
0.0000000001
 40
0.0
 40
0.0
 40
0.0
 40
0.0
 40
1.0
 40
1.0
 40
1.0
 40
1.0
 10
230.1596542591
 20
161.9372661092
 30
0.0
 10
230.3076139005
 20
161.8186179822
 30
0.0
 10
230.5038400435
 20
161.7461761382
 30
0.0
 10
230.6934016736
 20
161.7401909989
 30
0.0
  0
SPLINE
  5
2FC
100
AcDbEntity
  8
0
100
AcDbSpline
 62
7
  6
CONTINUOUS
 70
0
 71
3
 72
8
 73
4
 74
0
 42
0.0000001
 43
0.0000001
 44
0.0000000001
 40
0.0
 40
0.0
 40
0.0
 40
0.0
 40
1.0
 40
1.0
 40
1.0
 40
1.0
 10
173.6165287232
 20
92.0255307378
 30
0.0
 10
173.7155321788
 20
92.1895955731
 30
0.0
 10
173.8932966379
 20
92.3206142634
 30
0.0
 10
174.0793364861
 20
92.3665286327
 30
0.0
  0
SPLINE
  5
2FD
100
AcDbEntity
  8
0
100
AcDbSpline
 62
7
  6
CONTINUOUS
 70
0
 71
3
 72
8
 73
4
 74
0
 42
0.0000001
 43
0.0000001
 44
0.0000000001
 40
0.0
 40
0.0
 40
0.0
 40
0.0
 40
1.0
 40
1.0
 40
1.0
 40
1.0
 10
174.3689426241
 20
127.7042704355
 30
0.0
 10
174.4679460798
 20
127.8683352708
 30
0.0
 10
174.6457105389
 20
127.9993539611
 30
0.0
 10
174.831750387
 20
128.0452683304
 30
0.0
  0
SPLINE
  5
2FE
100
AcDbEntity
  8
0
100
AcDbSpline
 62
7
  6
CONTINUOUS
 70
0
 71
3
 72
9
 73
5
 74
0
 42
0.0000001
 43
0.0000001
 44
0.0000000001
 40
0.0
 40
0.0
 40
0.0
 40
0.0
 40
0.4983939794
 40
1.0
 40
1.0
 40
1.0
 40
1.0
 10
221.7873087422
 20
153.237551733
 30
0.0
 10
221.7436215499
 20
151.1659473117
 30
0.0
 10
220.9095623623
 20
147.0347167555
 30
0.0
 10
219.3500198971
 20
143.1595201339
 30
0.0
 10
218.3730001801
 20
141.3171290234
 30
0.0
  0
SPLINE
  5
2FF
100
AcDbEntity
  8
0
100
AcDbSpline
 62
7
  6
CONTINUOUS
 70
0
 71
3
 72
10
 73
6
 74
0
 42
0.0000001
 43
0.0000001
 44
0.0000000001
 40
0.0
 40
0.0
 40
0.0
 40
0.0
 40
0.2525329988
 40
0.4996206448
 40
1.0
 40
1.0
 40
1.0
 40
1.0
 10
209.4233521533
 20
130.9208970265
 30
0.0
 10
208.1307076285
 20
129.9525749296
 30
0.0
 10
205.4177446345
 20
128.2299741359
 30
0.0
 10
199.4940266729
 20
125.7593640891
 30
0.0
 10
194.6433798877
 20
125.0947972877
 30
0.0
 10
191.4437651621
 20
125.1582696633
 30
0.0
  0
SPLINE
  5
300
100
AcDbEntity
  8
0
100
AcDbSpline
 62
7
  6
CONTINUOUS
 70
0
 71
3
 72
8
 73
4
 74
0
 42
0.0000001
 43
0.0000001
 44
0.0000000001
 40
0.0
 40
0.0
 40
0.0
 40
0.0
 40
1.0
 40
1.0
 40
1.0
 40
1.0
 10
176.3872541275
 20
132.4709742561
 30
0.0
 10
176.2634575185
 20
132.5665532818
 30
0.0
 10
176.1010603948
 20
132.6237138709
 30
0.0
 10
175.9446911897
 20
132.6268158459
 30
0.0
  0
SPLINE
  5
301
100
AcDbEntity
  8
0
100
AcDbSpline
 62
7
  6
CONTINUOUS
 70
0
 71
3
 72
8
 73
4
 74
0
 42
0.0000001
 43
0.0000001
 44
0.0000000001
 40
0.0
 40
0.0
 40
0.0
 40
0.0
 40
1.0
 40
1.0
 40
1.0
 40
1.0
 10
186.535124461
 20
125.2556448517
 30
0.0
 10
186.0138937774
 20
125.2659847684
 30
0.0
 10
185.4725700318
 20
125.4565200652
 30
0.0
 10
185.0599146685
 20
125.7751168176
 30
0.0
  0
SPLINE
  5
302
100
AcDbEntity
  8
0
100
AcDbSpline
 62
7
  6
CONTINUOUS
 70
0
 71
3
 72
16
 73
12
 74
0
 42
0.0000001
 43
0.0000001
 44
0.0000000001
 40
0.0
 40
0.0
 40
0.0
 40
0.0
 40
0.0683791259
 40
0.1337494189
 40
0.2605689731
 40
0.3852932242
 40
0.5098887245
 40
0.6333504884
 40
0.7547766198
 40
0.8760577587
 40
1.0
 40
1.0
 40
1.0
 40
1.0
 10
226.7869388831
 20
153.7199345175
 30
0.0
 10
226.7933477066
 20
152.4626279589
 30
0.0
 10
226.5919713454
 20
149.998409645
 30
0.0
 10
225.5404710451
 20
145.3168875197
 30
0.0
 10
223.4751725438
 20
139.8268606942
 30
0.0
 10
219.7947947392
 20
133.920075151
 30
0.0
 10
215.115428447
 20
128.8581767559
 30
0.0
 10
209.6354566631
 20
124.7735369243
 30
0.0
 10
203.5095197016
 20
121.8691117335
 30
0.0
 10
196.9161897691
 20
120.263440494
 30
0.0
 10
192.3771453792
 20
120.0847505654
 30
0.0
 10
190.1014591864
 20
120.2074397918
 30
0.0
  0
SPLINE
  5
303
100
AcDbEntity
  8
0
100
AcDbSpline
 62
7
  6
CONTINUOUS
 70
0
 71
3
 72
14
 73
10
 74
0
 42
0.0000001
 43
0.0000001
 44
0.0000000001
 40
0.0
 40
0.0
 40
0.0
 40
0.0
 40
0.124690283
 40
0.2508725199
 40
0.3718549079
 40
0.4940850859
 40
0.6230310989
 40
0.7552598947
 40
1.0
 40
1.0
 40
1.0
 40
1.0
 10
185.4553428373
 20
101.3050197154
 30
0.0
 10
185.7377560642
 20
101.0403477162
 30
0.0
 10
186.250904207
 20
100.4461740789
 30
0.0
 10
186.8000531923
 20
99.4158867643
 30
0.0
 10
186.9738825357
 20
98.2474717364
 30
0.0
 10
186.6174052898
 20
97.1164151914
 30
0.0
 10
185.9221031142
 20
96.1321910586
 30
0.0
 10
184.7356105107
 20
95.1015855024
 30
0.0
 10
183.5752575413
 20
94.6185024491
 30
0.0
 10
182.8156155761
 20
94.6093082047
 30
0.0
  0
SPLINE
  5
304
100
AcDbEntity
  8
DTM_AXIS
100
AcDbSpline
 62
7
  6
CONTINUOUS
 70
0
 71
3
 72
9
 73
5
 74
0
 42
0.0000001
 43
0.0000001
 44
0.0000000001
 40
0.0
 40
0.0
 40
0.0
 40
0.0
 40
0.6157087015
 40
1.0
 40
1.0
 40
1.0
 40
1.0
 10
180.5518703261
 20
130.2422797239
 30
0.0
 10
180.4482651488
 20
130.1164725114
 30
0.0
 10
180.270276688
 20
129.9249550144
 30
0.0
 10
180.0709189196
 20
129.7378910039
 30
0.0
 10
179.9768066992
 20
129.6992892993
 30
0.0
  0
SPLINE
  5
305
100
AcDbEntity
  8
DTM_AXIS
100
AcDbSpline
 62
7
  6
CONTINUOUS
 70
0
 71
3
 72
9
 73
5
 74
0
 42
0.0000001
 43
0.0000001
 44
0.0000000001
 40
0.0
 40
0.0
 40
0.0
 40
0.0
 40
0.2695756484
 40
1.0
 40
1.0
 40
1.0
 40
1.0
 10
178.9230979511
 20
130.8756149609
 30
0.0
 10
178.8871221541
 20
130.8622392324
 30
0.0
 10
178.7512043333
 20
130.8205122827
 30
0.0
 10
178.6020530278
 20
130.813844987
 30
0.0
 10
178.5009177396
 20
130.8380736009
 30
0.0
  0
SPLINE
  5
306
100
AcDbEntity
  8
0
100
AcDbSpline
 62
7
  6
CONTINUOUS
 70
0
 71
3
 72
13
 73
9
 74
0
 42
0.0000001
 43
0.0000001
 44
0.0000000001
 40
0.0
 40
0.0
 40
0.0
 40
0.0
 40
0.2490700246
 40
0.3742167699
 40
0.4995484213
 40
0.624805413
 40
0.7499737498
 40
1.0
 40
1.0
 40
1.0
 40
1.0
 10
234.889510228
 20
158.8077041347
 30
0.0
 10
234.8772924023
 20
158.2283466536
 30
0.0
 10
234.7095642131
 20
157.3271411302
 30
0.0
 10
233.9919126825
 20
156.3863612592
 30
0.0
 10
233.2575699331
 20
155.8888963806
 30
0.0
 10
232.429781568
 20
155.5897565645
 30
0.0
 10
231.2807166805
 20
155.3818691576
 30
0.0
 10
230.4016325187
 20
155.3774164812
 30
0.0
 10
229.8207932536
 20
155.4092518883
 30
0.0
  0
SPLINE
  5
307
100
AcDbEntity
  8
DTM_AXIS
100
AcDbSpline
 62
7
  6
CONTINUOUS
 70
0
 71
3
 72
8
 73
4
 74
0
 42
0.0000001
 43
0.0000001
 44
0.0000000001
 40
0.0
 40
0.0
 40
0.0
 40
0.0
 40
1.0
 40
1.0
 40
1.0
 40
1.0
 10
178.9230979883
 20
130.8756082838
 30
0.0
 10
178.7088589296
 20
130.9579072718
 30
0.0
 10
178.4805583109
 20
131.0064907325
 30
0.0
 10
178.2523798531
 20
131.0311096102
 30
0.0
  0
LINE
  5
308
100
AcDbEntity
  8
DTM_AXIS
100
AcDbLine
 62
7
  6
CONTINUOUS
 10
180.5518703261
 20
130.2422797239
 11
180.3589767247
 21
130.3177803125
  0
LINE
  5
309
100
AcDbEntity
  8
DTM_AXIS
100
AcDbLine
 62
7
  6
CONTINUOUS
 10
178.9638220005
 20
130.8599647835
 11
178.9230979883
 21
130.8756082838
  0
SPLINE
  5
30A
100
AcDbEntity
  8
0
100
AcDbSpline
 62
7
  6
CONTINUOUS
 70
0
 71
3
 72
11
 73
7
 74
0
 42
0.0000001
 43
0.0000001
 44
0.0000000001
 40
0.0
 40
0.0
 40
0.0
 40
0.0
 40
0.2739393428
 40
0.4999388715
 40
0.7259735842
 40
1.0
 40
1.0
 40
1.0
 40
1.0
 10
182.7892733826
 20
93.3601868579
 30
0.0
 10
182.2005048533
 20
93.371866557
 30
0.0
 10
181.1087820892
 20
93.2862419827
 30
0.0
 10
179.676655159
 20
92.518710844
 30
0.0
 10
178.8515957802
 20
91.1187491367
 30
0.0
 10
178.7214312174
 20
90.0312091689
 30
0.0
 10
178.7090112973
 20
89.4422685677
 30
0.0
  0
SPLINE
  5
30B
100
AcDbEntity
  8
0
100
AcDbSpline
 62
7
  6
CONTINUOUS
 70
0
 71
3
 72
12
 73
8
 74
0
 42
0.0000001
 43
0.0000001
 44
0.0000000001
 40
0.0
 40
0.0
 40
0.0
 40
0.0
 40
0.2842300642
 40
0.5244438623
 40
0.6342458528
 40
0.744047133
 40
1.0
 40
1.0
 40
1.0
 40
1.0
 10
190.0277010446
 20
116.7099000205
 30
0.0
 10
189.4700679368
 20
116.7209620705
 30
0.0
 10
188.4375446526
 20
116.6784716056
 30
0.0
 10
187.2188344268
 20
116.3134543851
 30
0.0
 10
186.4786267687
 20
115.7816798725
 30
0.0
 10
185.8856165054
 20
115.0452276747
 30
0.0
 10
185.7293542547
 20
114.2983761954
 30
0.0
 10
185.7187647725
 20
113.7962331841
 30
0.0
  0
SPLINE
  5
30C
100
AcDbEntity
  8
0
100
AcDbSpline
 62
7
  6
CONTINUOUS
 70
0
 71
3
 72
8
 73
4
 74
0
 42
0.0000001
 43
0.0000001
 44
0.0000000001
 40
0.0
 40
0.0
 40
0.0
 40
0.0
 40
1.0
 40
1.0
 40
1.0
 40
1.0
 10
43.6454542333
 20
34.5176696994
 30
0.0
 10
38.3121209
 20
34.5176696994
 30
0.0
 10
35.6454542334
 20
31.8510030327
 30
0.0
 10
35.6454542333
 20
26.5176696994
 30
0.0
  0
SPLINE
  5
30D
100
AcDbEntity
  8
0
100
AcDbSpline
 62
7
  6
CONTINUOUS
 70
0
 71
3
 72
11
 73
7
 74
0
 42
0.0000001
 43
0.0000001
 44
0.0000000001
 40
0.0
 40
0.0
 40
0.0
 40
0.0
 40
0.0610087823
 40
0.3450948644
 40
0.7217316171
 40
1.0
 40
1.0
 40
1.0
 40
1.0
 10
48.6454542333
 20
50.5176696994
 30
0.0
 10
48.9135216788
 20
50.2765996574
 30
0.0
 10
50.4269185224
 20
48.7775845373
 30
0.0
 10
52.8250541244
 20
44.4725896916
 30
0.0
 10
49.2410631631
 20
38.8181193943
 30
0.0
 10
45.2162092942
 20
37.0678385025
 30
0.0
 10
43.6454542333
 20
37.0176696994
 30
0.0
  0
SPLINE
  5
30E
100
AcDbEntity
  8
0
100
AcDbSpline
 62
7
  6
CONTINUOUS
 70
0
 71
3
 72
12
 73
8
 74
0
 42
0.0000001
 43
0.0000001
 44
0.0000000001
 40
0.0
 40
0.0
 40
0.0
 40
0.0
 40
0.1129318378
 40
0.3571629669
 40
0.6438964308
 40
0.8424260827
 40
1.0
 40
1.0
 40
1.0
 40
1.0
 10
129.1454542333
 20
157.0176696993
 30
0.0
 10
129.2689172525
 20
152.3047101048
 30
0.0
 10
127.2765794864
 20
138.5016263283
 30
0.0
 10
117.5256120054
 20
116.6192263467
 30
0.0
 10
97.4129677303
 20
97.8117593021
 30
0.0
 10
75.9473841858
 20
89.4599111975
 30
0.0
 10
63.0051321356
 20
88.3182855702
 30
0.0
 10
57.1454542333
 20
88.5176696994
 30
0.0
  0
SPLINE
  5
30F
100
AcDbEntity
  8
0
100
AcDbSpline
 62
7
  6
CONTINUOUS
 70
0
 71
3
 72
9
 73
5
 74
0
 42
0.0000001
 43
0.0000001
 44
0.0000000001
 40
0.0
 40
0.0
 40
0.0
 40
0.0
 40
0.5
 40
1.0
 40
1.0
 40
1.0
 40
1.0
 10
145.1454542333
 20
167.5176696994
 30
0.0
 10
145.1454542333
 20
164.6251191764
 30
0.0
 10
142.9100965941
 20
161.154798728
 30
0.0
 10
138.0362426927
 20
160.4167211419
 30
0.0
 10
135.1454542333
 20
160.5176696994
 30
0.0
  0
SPLINE
  5
310
100
AcDbEntity
  8
0
100
AcDbSpline
 62
7
  6
CONTINUOUS
 70
0
 71
3
 72
10
 73
6
 74
0
 42
0.0000001
 43
0.0000001
 44
0.0000000001
 40
0.0
 40
0.0
 40
0.0
 40
0.0
 40
0.5
 40
0.75
 40
1.0
 40
1.0
 40
1.0
 40
1.0
 10
57.1454542333
 20
81.5176696994
 30
0.0
 10
54.7287875667
 20
81.5176696994
 30
0.0
 10
51.6312841583
 20
80.9901731078
 30
0.0
 10
49.1540672725
 20
78.6340566602
 30
0.0
 10
48.6454542333
 20
76.7260030327
 30
0.0
 10
48.6454542333
 20
75.5176696994
 30
0.0
  0
SPLINE
  5
311
100
AcDbEntity
  8
0
100
AcDbSpline
 62
7
  6
CONTINUOUS
 70
0
 71
3
 72
10
 73
6
 74
0
 42
0.0000001
 43
0.0000001
 44
0.0000000001
 40
0.0
 40
0.0
 40
0.0
 40
0.0
 40
0.3998235236
 40
0.8709214849
 40
1.0
 40
1.0
 40
1.0
 40
1.0
 10
119.1606453487
 20
155.8542123104
 30
0.0
 10
119.1606453487
 20
152.5097650219
 30
0.0
 10
118.1117509948
 20
145.406155833
 30
0.0
 10
115.4219348027
 20
137.3017447942
 30
0.0
 10
113.3087185869
 20
132.8186839176
 30
0.0
 10
112.8310613435
 20
131.8710720397
 30
0.0
  0
SPLINE
  5
312
100
AcDbEntity
  8
0
100
AcDbSpline
 62
7
  6
CONTINUOUS
 70
0
 71
3
 72
10
 73
6
 74
0
 42
0.0000001
 43
0.0000001
 44
0.0000000001
 40
0.0
 40
0.0
 40
0.0
 40
0.0
 40
0.2002636617
 40
0.6758604888
 40
1.0
 40
1.0
 40
1.0
 40
1.0
 10
95.3599354092
 20
110.7175046024
 30
0.0
 10
93.293660807
 20
109.103655909
 30
0.0
 10
86.0302630257
 20
104.1371475526
 30
0.0
 10
74.2537248056
 20
99.5786799276
 30
0.0
 10
63.9312289637
 20
98.4754221302
 30
0.0
 10
59.6227166104
 20
98.4754221302
 30
0.0
  0
SPLINE
  5
313
100
AcDbEntity
  8
DTM_AXIS
100
AcDbSpline
 62
7
  6
CONTINUOUS
 70
0
 71
3
 72
10
 73
6
 74
0
 42
0.0000001
 43
0.0000001
 44
0.0000000001
 40
0.0
 40
0.0
 40
0.0
 40
0.0
 40
0.6304697455
 40
0.852836112
 40
1.0
 40
1.0
 40
1.0
 40
1.0
 10
94.1288502404
 20
111.5476907779
 30
0.0
 10
94.4087319035
 20
111.3558229498
 30
0.0
 10
94.8030997198
 20
111.1036779831
 30
0.0
 10
95.3130222508
 20
110.9405455565
 30
0.0
 10
95.5239742573
 20
110.9328867496
 30
0.0
 10
95.5965094595
 20
110.9647047726
 30
0.0
  0
SPLINE
  5
314
100
AcDbEntity
  8
DTM_AXIS
100
AcDbSpline
 62
7
  6
CONTINUOUS
 70
0
 71
3
 72
11
 73
7
 74
0
 42
0.0000001
 43
0.0000001
 44
0.0000000001
 40
0.0
 40
0.0
 40
0.0
 40
0.0
 40
0.3482426803
 40
0.6424973707
 40
0.8618962009
 40
1.0
 40
1.0
 40
1.0
 40
1.0
 10
94.1288502404
 20
111.5476907779
 30
0.0
 10
94.2440751316
 20
111.4216723584
 30
0.0
 10
94.4631071792
 20
111.1955624751
 30
0.0
 10
94.7854004356
 20
110.9178133995
 30
0.0
 10
95.0502585666
 20
110.7452276262
 30
0.0
 10
95.2255453686
 20
110.6823147574
 30
0.0
 10
95.2927300324
 20
110.6907895724
 30
0.0
  0
SPLINE
  5
315
100
AcDbEntity
  8
DTM_AXIS
100
AcDbSpline
 62
7
  6
CONTINUOUS
 70
0
 71
3
 72
11
 73
7
 74
0
 42
0.0000001
 43
0.0000001
 44
0.0000000001
 40
0.0
 40
0.0
 40
0.0
 40
0.0
 40
0.3558335535
 40
0.6590735822
 40
0.8793832283
 40
1.0
 40
1.0
 40
1.0
 40
1.0
 10
93.3011533181
 20
111.2301820887
 30
0.0
 10
93.4233528967
 20
111.0754541848
 30
0.0
 10
93.6553551946
 20
110.7944235444
 30
0.0
 10
93.9832804335
 20
110.4294495051
 30
0.0
 10
94.2409250321
 20
110.1914566764
 30
0.0
 10
94.3971051654
 20
110.0681987812
 30
0.0
 10
94.4627252733
 20
110.0555268294
 30
0.0
  0
SPLINE
  5
316
100
AcDbEntity
  8
DTM_AXIS
100
AcDbSpline
 62
7
  6
CONTINUOUS
 70
0
 71
3
 72
12
 73
8
 74
0
 42
0.0000001
 43
0.0000001
 44
0.0000000001
 40
0.0
 40
0.0
 40
0.0
 40
0.0
 40
0.3841456295
 40
0.6997273517
 40
0.9090894241
 40
0.9680832907
 40
1.0
 40
1.0
 40
1.0
 40
1.0
 10
48.0110760653
 20
100.6353263438
 30
0.0
 10
47.8775435855
 20
100.4631490586
 30
0.0
 10
47.6266732029
 20
100.1543083985
 30
0.0
 10
47.2832498327
 20
99.7730833311
 30
0.0
 10
47.0347594673
 20
99.5445836379
 30
0.0
 10
46.8956438735
 20
99.4547869249
 30
0.0
 10
46.8359946188
 20
99.4453482866
 30
0.0
 10
46.8214420376
 20
99.4561164686
 30
0.0
  0
SPLINE
  5
317
100
AcDbEntity
  8
DTM_AXIS
100
AcDbSpline
 62
7
  6
CONTINUOUS
 70
0
 71
3
 72
12
 73
8
 74
0
 42
0.0000001
 43
0.0000001
 44
0.0000000001
 40
0.0
 40
0.0
 40
0.0
 40
0.0
 40
0.3841456275
 40
0.6997273482
 40
0.9090894176
 40
0.9680832847
 40
1.0
 40
1.0
 40
1.0
 40
1.0
 10
33.6927352347
 20
111.2301820887
 30
0.0
 10
33.5592027624
 20
111.0580047966
 30
0.0
 10
33.3083323904
 20
110.7491641264
 30
0.0
 10
32.9649090234
 20
110.36793905
 30
0.0
 10
32.7164186593
 20
110.139439362
 30
0.0
 10
32.5773030495
 20
110.0496426529
 30
0.0
 10
32.5176537911
 20
110.0402040294
 30
0.0
 10
32.503101207
 20
110.0509722134
 30
0.0
  0
SPLINE
  5
318
100
AcDbEntity
  8
DTM_AXIS
100
AcDbSpline
 62
7
  6
CONTINUOUS
 70
0
 71
3
 72
9
 73
5
 74
0
 42
0.0000001
 43
0.0000001
 44
0.0000000001
 40
0.0
 40
0.0
 40
0.0
 40
0.0
 40
0.5395492907
 40
1.0
 40
1.0
 40
1.0
 40
1.0
 10
30.372930772
 20
112.4584397627
 30
0.0
 10
30.1688790247
 20
112.3719095833
 30
0.0
 10
29.7562147393
 20
112.267476988
 30
0.0
 10
29.3353437759
 20
112.3949508613
 30
0.0
 10
29.1832893557
 20
112.5074514121
 30
0.0
  0
LINE
  5
319
100
AcDbEntity
  8
DTM_AXIS
100
AcDbLine
 62
7
  6
CONTINUOUS
 10
96.200641502
 20
112.8016696994
 11
94.5512823215
 21
111.8033825749
  0
LINE
  5
31A
100
AcDbEntity
  8
DTM_AXIS
100
AcDbLine
 62
7
  6
CONTINUOUS
 10
94.5512823215
 20
111.8033825749
 11
94.1288502404
 21
111.5476907779
  0
SPLINE
  5
31B
100
AcDbEntity
  8
DTM_AXIS
100
AcDbSpline
 62
7
  6
CONTINUOUS
 70
0
 71
3
 72
8
 73
4
 74
0
 42
0.0000001
 43
0.0000001
 44
0.0000000001
 40
0.0
 40
0.0
 40
0.0
 40
0.0
 40
1.0
 40
1.0
 40
1.0
 40
1.0
 10
30.3729307715
 20
112.4584266809
 30
0.0
 10
29.7502086684
 20
112.6890139255
 30
0.0
 10
29.074363023
 20
112.789326094
 30
0.0
 10
28.4104164505
 20
112.8006505778
 30
0.0
  0
LINE
  5
31C
100
AcDbEntity
  8
DTM_AXIS
100
AcDbLine
 62
7
  6
CONTINUOUS
 10
33.6927352347
 20
111.2301820887
 11
33.4945021527
 21
111.3035218651
  0
LINE
  5
31D
100
AcDbEntity
  8
DTM_AXIS
100
AcDbLine
 62
7
  6
CONTINUOUS
 10
33.4945021527
 20
111.3035218651
 11
30.5452024636
 21
112.3946891792
  0
LINE
  5
31E
100
AcDbEntity
  8
DTM_AXIS
100
AcDbLine
 62
7
  6
CONTINUOUS
 10
30.5452024636
 20
112.3946891792
 11
30.3729307715
 21
112.4584266809
  0
SPLINE
  5
31F
100
AcDbEntity
  8
DTM_AXIS
100
AcDbSpline
 62
7
  6
CONTINUOUS
 70
0
 71
3
 72
11
 73
7
 74
0
 42
0.0000001
 43
0.0000001
 44
0.0000000001
 40
0.0
 40
0.0
 40
0.0
 40
0.0
 40
0.2489932132
 40
0.4987861444
 40
0.7492139619
 40
1.0
 40
1.0
 40
1.0
 40
1.0
 10
93.3011533181
 20
111.2301820887
 30
0.0
 10
90.9088937739
 20
109.4275427781
 30
0.0
 10
85.8351666732
 20
106.168465364
 30
0.0
 10
77.5051642477
 20
102.6162970966
 30
0.0
 10
68.6803246057
 20
100.5038009442
 30
0.0
 10
62.6396832055
 20
100.0470751349
 30
0.0
 10
59.6227166104
 20
100.0469097408
 30
0.0
  0
ENDSEC
  0
SECTION
  2
OBJECTS
  0
DICTIONARY
  5
C
100
AcDbDictionary
280
0
281
1
  3
ACAD_GROUP
350
D
  3
ACAD_MLINESTYLE
350
17
  3
ACAD_LAYOUT
350
1A
  3
ACAD_PLOTSETTINGS
350
19
  3
ACAD_PLOTSTYLENAME
350
E
  3
ACAD_TABLESTYLE
350
       320
  0
DICTIONARY
  5
D
102
{ACAD_REACTORS
330
C
102
}
100
AcDbDictionary
280
0
281
1
  0
ACDBDICTIONARYWDFLT
  5
E
102
{ACAD_REACTORS
330
C
102
}
100
AcDbDictionary
281
1
  3
Normal
350
F
100
AcDbDictionaryWithDefault
340
F
  0
DICTIONARY
  5
17
102
{ACAD_REACTORS
330
C
102
}
100
AcDbDictionary
280
0
281
1
  3
Standard
350
18
  0
DICTIONARY
  5
320
330
C
100
AcDbDictionary
281
1
  3
Standard
350
       323
  3
Standard1
350
       324
  0
DICTIONARY
  5
19
102
{ACAD_REACTORS
330
C
102
}
100
AcDbDictionary
281
1
  0
DICTIONARY
  5
1A
102
{ACAD_REACTORS
330
C
102
}
100
AcDbDictionary
281
1
  3
Model
350
321
  3
Layout1
350
322
  0
ACDBPLACEHOLDER
  5
F
102
{ACAD_REACTORS
330
E
102
}
  0
MLINESTYLE
  5
18
102
{ACAD_REACTORS
330
17
102
}
100
AcDbMlineStyle
  2
STANDARD
 70
0
  3

 62
256
 51
90.0
 52
90.0
 71
2
 49
0.5
 62
256
  6
BYLAYER
 49
-0.5
 62
256
  6
BYLAYER
  0
LAYOUT
  5
321
102
{ACAD_REACTORS
330
1A
102
}
100
AcDbPlotSettings
  1

  2
none_device
  4
ISO_A4_(297.00_x_210.00_MM)
  6

 40
0.0
 41
0.0
 42
0.0
 43
0.0
 44
297.0
 45
210.0
 46
0.0
 47
0.0
 48
0.0
 49
0.0
140
0.0
141
0.0
142
1.0
143
1.0
 70
1024
 72
1
 73
0
 74
0
  7

 75
0
147
1.0
148
0.0
149
0.0
100
AcDbLayout
  1
Model
 70
0
 71
0
 10
0.0
 20
0.0
 11
297.0
 21
210.0
 12
0.0
 22
0.0
 32
0.0
 14
0.0
 24
0.0
 34
0.0
 15
0.0
 25
0.0
 35
0.0
146
0.0
 13
0.0
 23
0.0
 33
0.0
 16
1.0
 26
0.0
 36
0.0
 17
0.0
 27
1.0
 37
0.0
 76
0
330
20D
345
0
346
0
  0
LAYOUT
  5
322
102
{ACAD_REACTORS
330
1A
102
}
100
AcDbPlotSettings
  1

  2
none_device
  4
ISO_A4_(297.00_x_210.00_MM)
  6

 40
0.0
 41
0.0
 42
0.0
 43
0.0
 44
297.0
 45
210.0
 46
0.0
 47
0.0
 48
0.0
 49
0.0
140
0.0
141
0.0
142
1.0
143
1.0
 70
0
 72
1
 73
0
 74
0
  7

 75
0
147
1.0
148
0.0
149
0.0
100
AcDbLayout
  1
Layout1
 70
0
 71
1
 10
0.0
 20
0.0
 11
297.0
 21
210.0
 12
0.0
 22
0.0
 32
0.0
 14
0.0
 24
0.0
 34
0.0
 15
0.0
 25
0.0
 35
0.0
146
0.0
 13
0.0
 23
0.0
 33
0.0
 16
1.0
 26
0.0
 36
0.0
 17
0.0
 27
1.0
 37
0.0
 76
0
330
20E
345
0
346
0
  0
TABLESTYLE
  5
323
102
{ACAD_REACTORS
330
320
330
261
102
}
330
320
100
AcDbTableStyle
  3
Standard
 70
0
 71
0
 40
0.06
 41
0.06
280
1
281
1
  7
Standard
140
0.18
170
1
 62
0
 63
7
283
0
  7
Standard
140
0.18
170
1
 62
0
 63
7
283
0
  7
Standard
140
0.18
170
1
 62
0
 63
7
283
0
  0
TABLESTYLE
  5
324
102
{ACAD_REACTORS
330
320
102
}
330
320
100
AcDbTableStyle
  3
Standard1
 70
1
 71
0
 40
0.06
 41
0.06
280
1
281
1
  7
Standard
140
0.18
170
1
 62
0
 63
7
283
0
  7
Standard
140
0.18
170
1
 62
0
 63
7
283
0
  7
Standard
140
0.18
170
1
 62
0
 63
7
283
0
  0
ENDSEC
  0
EOF
